osu file format v14

[General]
AudioFilename: Ao no Kanata no Four Rhythmtvop.mp3
AudioLeadIn: 0
PreviewTime: 61222
Countdown: 0
SampleSet: Soft
StackLeniency: 0.7
Mode: 0
LetterboxInBreaks: 0
WidescreenStoryboard: 0

[Editor]
DistanceSpacing: 1
BeatDivisor: 4
GridSize: 32
TimelineZoom: 2.5

[Metadata]
Title:Contrail ~Kiseki~
TitleUnicode:Contrail~軌跡~
Artist:Mami Kawada
ArtistUnicode:川田まみ
Creator:Enjoy
Version:Normal
Source:蒼の彼方のフォーリズム
Tags:Rizia Kawaiwkyik wkyik hvick225 hvick SnowWhite Depths -_E_n_j_u_- enju KSHR op opening tv size ao no kanata four rhythm beyond the sky into the firmament sprite
BeatmapID:883093
BeatmapSetID:403822

[Difficulty]
HPDrainRate:4
CircleSize:3
OverallDifficulty:4
ApproachRate:5
SliderMultiplier:1.1
SliderTickRate:1

[Events]
//Background and Video events
Video,0,"optc.flv"
0,0,"meNM.png",0,0
//Break Periods
//Storyboard Layer 0 (Background)
//Storyboard Layer 1 (Fail)
//Storyboard Layer 2 (Pass)
//Storyboard Layer 3 (Foreground)
//Storyboard Sound Samples

[TimingPoints]
609,357.142857142857,4,2,1,50,1,0
12037,-100,4,2,66,60,0,0
23466,-100,4,2,1,50,0,0
29001,-100,4,2,67,60,0,0
34894,-100,4,2,68,60,0,0
40430,-100,4,2,67,60,0,0
46323,-100,4,2,68,50,0,0
52394,-100,4,2,68,60,0,0
61323,-100,4,2,66,60,0,0
62037,-100,4,2,66,70,0,1
84894,-100,4,2,68,50,0,0
87707,-100,4,2,66,50,0,0

[Colours]
Combo1 : 38,255,255
Combo2 : 179,179,179
Combo3 : 128,128,255
Combo4 : 167,48,231
Combo5 : 255,128,255
Combo6 : 244,240,85
Combo7 : 172,172,215

[HitObjects]
215,72,609,6,0,L|339:53,1,110,2|0,0:0|0:0,0:0:0:0:
374,75,1144,2,0,P|403:132|391:181,1,110,2|0,0:0|0:0,0:0:0:0:
316,252,1858,2,0,L|325:373,2,110,2|0|2,0:0|0:0|0:0,0:0:0:0:
73,121,3466,70,0,L|19:129,2,55,2|0|0,0:0|0:0|0:0,0:0:0:0:
126,132,4001,2,0,P|142:191|141:256,1,110,2|0,0:0|0:0,0:0:0:0:
229,308,4716,2,0,P|230:253|246:200,1,110,2|0,0:0|0:0,0:0:0:0:
291,168,5251,1,0,0:0:0:0:
291,168,5430,2,0,L|423:178,1,110,2|0,0:0|0:0,0:0:0:0:
301,44,6323,38,0,L|191:35,1,110,4|2,0:0|0:0,0:0:0:0:
81,30,7037,2,0,L|71:97,1,55,0|2,0:0|0:0,0:0:0:0:
137,173,7573,2,0,B|150:219|150:219|137:294,1,110,2|0,0:0|0:0,0:0:0:0:
111,327,8108,2,0,L|242:310,1,110,2|2,0:0|0:0,0:0:0:0:
274,305,8644,1,2,0:0:0:0:
383,296,9001,1,0,3:0:0:0:
383,296,9180,6,0,P|403:247|379:172,1,110,2|2,0:0|0:0,0:0:0:0:
310,119,9894,1,0,0:0:0:0:
310,119,10073,2,0,L|251:110,1,55,2|0,0:0|0:0,0:0:0:0:
200,104,10430,1,0,1:0:0:0:
124,184,10787,2,0,L|121:246,1,55,0|4,1:0|0:3,0:0:0:0:
120,294,11144,1,0,1:0:0:0:
218,246,11501,2,0,P|251:242|291:259,1,55,0|0,3:0|1:0,0:0:0:0:
359,313,12037,22,0,P|379:264|368:188,1,110,4|8,0:0|0:0,0:0:0:0:
346,160,12573,2,0,B|303:172|303:172|222:143,1,110,0|0,0:0|0:0,0:0:0:0:
191,126,13108,1,8,0:0:0:0:
94,180,13466,2,0,L|88:251,2,55,0|0|8,3:0|0:0|0:0,0:0:0:0:
99,125,14001,1,0,0:0:0:0:
176,47,14358,2,0,P|209:33|242:32,1,55,0|8,0:0|0:0,0:0:0:0:
336,50,14894,22,0,L|345:159,1,110,0|8,3:0|0:0,0:0:0:0:
400,156,15430,2,0,L|385:278,1,110,0|0,0:0|0:0,0:0:0:0:
378,319,15966,1,8,0:0:0:0:
274,281,16323,2,0,L|267:215,2,55,0|0|8,3:0|2:0|0:0,0:0:0:0:
278,335,16858,1,0,0:0:0:0:
168,322,17216,2,0,L|103:313,1,55,0|8,0:0|0:0,0:0:0:0:
63,216,17751,54,0,P|126:213|164:164,1,110,4|8,0:0|0:0,0:0:0:0:
135,130,18287,2,0,L|251:116,1,110,0|0,0:0|0:0,0:0:0:0:
298,109,18823,1,8,0:0:0:0:
405,85,19180,2,0,L|408:28,2,55,0|0|8,3:0|0:0|0:0,0:0:0:0:
402,140,19716,1,0,0:0:0:0:
397,249,20073,2,0,L|394:303,1,55,0|8,0:0|0:0,0:0:0:0:
292,345,20608,6,0,L|216:332,1,55,8|8,0:0|0:0,0:0:0:0:
147,272,21144,2,0,L|223:259,1,55,8|8,0:0|0:0,0:0:0:0:
290,197,21680,2,0,L|214:184,1,55,8|8,0:0|0:0,0:0:0:0:
148,120,22216,2,0,L|224:107,1,55,8|8,0:0|0:0,0:0:0:0:
288,42,22751,2,0,L|212:29,2,55,0|8|8,1:0|0:0|0:0,0:0:0:0:
365,119,23466,38,0,P|392:75|389:16,2,110,4|0|0,0:0|3:0|0:0,0:0:0:0:
283,190,24537,1,0,3:0:0:0:
343,281,24894,2,0,P|285:300|228:286,1,110,0|0,0:0|3:0,0:0:0:0:
200,250,25430,2,0,L|61:276,1,110,0|0,0:0|0:0,0:0:0:0:
37,281,25966,1,0,3:0:0:0:
74,177,26323,70,0,P|92:118|51:57,1,110,0|0,0:0|3:0,0:0:0:0:
27,45,26858,2,0,L|156:30,1,110,0|0,0:0|0:0,0:0:0:0:
190,25,27394,1,0,3:0:0:0:
272,97,27751,2,0,L|262:230,1,110,0|0,0:0|3:0,0:0:0:0:
334,291,28466,2,0,L|399:284,2,55,0|0|0,0:0|0:0|3:0,0:0:0:0:
279,295,29001,70,0,P|207:283|183:248,1,110,4|2,0:0|0:0,0:0:0:0:
165,205,29537,2,0,L|173:95,1,110,8|2,0:0|0:0,0:0:0:0:
177,40,30073,1,2,0:0:0:0:
272,97,30430,2,0,B|317:86|317:86|334:103|334:103|401:89,1,110,2|2,0:0|0:0,0:0:0:0:
425,80,30966,2,0,P|447:156|424:194,1,110,8|2,0:0|0:0,0:0:0:0:
396,218,31501,1,2,0:0:0:0:
286,230,31858,6,0,L|276:360,1,110,2|2,0:0|0:0,0:0:0:0:
238,301,32394,2,0,P|159:275|113:302,1,110,8|2,0:0|0:0,0:0:0:0:
100,323,32930,1,2,0:0:0:0:
36,233,33287,2,0,L|45:104,1,110,2|2,0:0|0:0,0:0:0:0:
88,91,33823,1,8,0:0:0:0:
88,91,34001,2,0,P|146:113|197:91,1,110,2|2,0:0|0:0,0:0:0:0:
221,53,34537,1,10,0:0:0:0:
269,151,34894,6,0,P|260:216|270:277,2,110,6|8|2,0:0|0:0|0:0,0:0:0:0:
337,64,35966,1,8,0:0:0:0:
393,158,36323,2,0,B|442:141|442:141|502:159,1,110,2|8,0:0|0:0,0:0:0:0:
506,211,36858,2,0,B|509:283|509:283|474:317,1,110,0|2,0:0|0:0,0:0:0:0:
438,344,37394,1,8,0:0:0:0:
340,292,37751,38,0,B|287:268|287:268|229:292,1,110,2|8,0:0|0:0,0:0:0:0:
184,295,38287,2,0,B|158:260|158:260|161:188,1,110,0|2,0:0|0:0,0:0:0:0:
166,138,38823,1,8,0:0:0:0:
248,65,39180,2,0,L|306:70,1,55,2|2,0:0|0:0,0:0:0:0:
348,38,39537,2,0,P|331:104|359:148,1,110,8|2,0:0|0:0,0:0:0:0:
403,132,40073,1,2,0:0:0:0:
458,228,40430,38,0,B|413:222|413:222|391:240|391:240|343:235,1,110,4|2,0:0|0:0,0:0:0:0:
306,211,40966,2,0,P|240:229|239:275,1,110,8|2,0:0|0:0,0:0:0:0:
240,316,41501,1,2,0:0:0:0:
130,306,41858,2,0,P|120:256|135:192,1,110,2|2,0:0|0:0,0:0:0:0:
107,149,42394,2,0,B|173:169|173:169|212:126,1,110,8|2,0:0|0:0,0:0:0:0:
232,94,42930,1,2,0:0:0:0:
341,85,43287,22,0,L|354:209,1,110,2|2,0:0|0:0,0:0:0:0:
404,211,43823,2,0,P|430:273|386:321,1,110,8|2,0:0|0:0,0:0:0:0:
362,330,44358,1,2,0:0:0:0:
266,275,44716,2,0,B|207:268|207:268|136:301,1,110,2|2,0:0|0:0,0:0:0:0:
114,317,45251,1,8,0:0:0:0:
114,317,45430,2,0,P|92:248|110:210,1,110,2|2,0:0|0:0,0:0:0:0:
153,187,45966,1,10,0:0:0:0:
193,84,46323,86,0,L|381:97,1,165,4|2,0:0|0:0,0:0:0:0:
440,167,47216,2,0,B|459:220|459:220|445:272,1,110,2|0,0:0|0:0,0:0:0:0:
411,315,47751,2,0,P|357:298|292:304,1,110,2|0,0:0|0:0,0:0:0:0:
261,335,48287,1,2,0:0:0:0:
261,335,48466,2,0,P|228:288|238:233,1,110,2|2,0:0|0:0,0:0:0:0:
336,197,49180,22,0,P|373:134|327:47,1,165,2|2,0:0|0:0,0:0:0:0:
234,19,50073,2,0,L|159:24,1,55,2|0,0:0|0:0,0:0:0:0:
126,39,50430,1,0,0:0:0:0:
126,39,50608,2,0,P|106:113|129:170,1,110,2|0,0:0|0:0,0:0:0:0:
150,247,51323,1,2,0:0:0:0:
259,233,51680,2,0,B|289:189|289:189|275:132,1,110,2|0,0:0|0:0,0:0:0:0:
231,35,52394,54,0,P|291:50|345:38,1,110,4|2,0:0|0:0,0:0:0:0:
390,27,52930,2,0,L|461:50,1,55,2|8,0:0|0:0,0:0:0:0:
493,66,53287,2,0,L|484:204,1,110,2|2,0:0|0:0,0:0:0:0:
449,217,53823,2,0,B|473:271|473:271|456:348,2,110,8|2|8,0:0|0:0|0:0,0:0:0:0:
358,153,54894,85,2,0:0:0:0:
301,247,55251,1,8,0:0:0:0:
301,247,55430,2,0,L|164:238,1,110,2|2,0:0|0:0,0:0:0:0:
136,237,55966,1,8,0:0:0:0:
136,237,56144,2,0,P|111:161|153:114,1,110,2|2,0:0|0:0,0:0:0:0:
170,111,56680,2,0,B|200:128|200:128|296:108,2,110,8|2|8,0:0|0:0|0:0,0:0:0:0:
81,45,57751,37,12,0:0:0:0:
14,132,58108,1,8,0:0:0:0:
14,242,58466,1,8,0:0:0:0:
101,307,58823,1,8,0:0:0:0:
101,307,59001,2,0,L|236:291,1,110,4|0,0:0|1:0,0:0:0:0:
265,289,59537,5,0,1:0:0:0:
312,189,59894,2,0,P|317:162|295:118,1,55,0|0,1:0|1:0,0:0:0:0:
234,55,60430,1,0,1:0:0:0:
234,55,60608,2,0,L|181:99,1,55,0|0,1:0|1:0,0:0:0:0:
139,72,60966,2,0,L|133:132,1,55,0|0,1:0|1:0,0:0:0:0:
164,324,62037,86,0,B|193:292|193:292|259:297,1,110,4|8,0:0|0:0,0:0:0:0:
369,306,62751,2,0,B|380:280|380:280|376:242,1,55,0|2,3:0|0:0,0:0:0:0:
369,199,63108,1,8,0:0:0:0:
369,199,63287,2,0,P|325:144|332:89,1,110,2|0,0:0|0:0,0:0:0:0:
356,62,63823,2,0,B|410:73|410:73|481:51,2,110,8|0|8,0:0|3:0|0:0,0:0:0:0:
310,30,64716,2,0,L|240:36,1,55,0|0,0:0|3:0,3:0:0:0:
189,123,65251,21,8,0:0:0:0:
86,82,65608,2,0,L|81:28,2,55,0|0|8,3:0|0:0|0:0,0:0:0:0:
90,136,66144,2,0,P|104:203|76:254,1,110,2|2,0:0|0:0,0:0:0:0:
49,278,66680,1,8,0:0:0:0:
49,278,66858,2,0,L|196:265,1,110,2|0,0:0|0:0,0:0:0:0:
213,261,67394,1,8,0:0:0:0:
190,153,67751,38,0,P|193:108|269:70,1,110,4|8,0:0|0:0,0:0:0:0:
277,110,68287,2,0,L|404:97,1,110,2|0,0:0|0:0,0:0:0:0:
441,93,68823,1,8,0:0:0:0:
441,93,69001,2,0,L|430:216,1,110,2|0,0:0|0:0,0:0:0:0:
456,251,69537,2,0,L|383:230,1,55,8|2,0:0|0:0,0:0:0:0:
349,231,69894,2,0,P|300:269|224:260,1,110,0|8,3:0|0:0,0:0:0:0:
147,244,70608,86,0,L|137:103,1,110,4|8,0:0|0:0,0:0:0:0:
131,79,71144,1,2,0:0:0:0:
131,79,71323,2,0,B|198:97|198:97|271:64,1,110,0|8,3:0|0:0,0:0:0:0:
283,55,71858,2,0,P|372:58|386:95,1,110,4|2,0:0|0:0,0:0:0:0:
396,117,72394,2,0,L|385:189,1,55,8|0,0:0|3:0,0:0:0:0:
374,280,72930,1,2,0:0:0:0:
374,280,73108,2,0,P|327:291|297:274,1,55,8|8,0:0|0:0,0:0:0:0:
274,261,73466,38,0,B|278:210|278:210|252:127,2,110,4|8|0,0:0|0:0|3:0,0:0:0:0:
177,313,74537,1,8,0:0:0:0:
177,313,74716,2,0,L|51:289,1,110,2|0,0:0|0:0,0:0:0:0:
15,280,75251,2,0,P|4:217|24:170,1,110,8|0,0:0|3:0,0:0:0:0:
104,103,75966,1,8,0:0:0:0:
193,166,76323,22,0,L|333:142,1,110,4|8,0:0|0:0,0:0:0:0:
355,137,76858,2,0,B|371:171|371:171|353:257,1,110,2|2,0:0|0:0,0:0:0:0:
343,295,77394,1,8,0:0:0:0:
343,295,77573,2,0,P|245:279|216:289,1,110,4|0,0:0|3:0,0:0:0:0:
189,307,78108,1,8,0:0:0:0:
120,220,78466,2,0,L|51:228,2,55,0|2|8,3:0|0:0|0:0,0:0:0:0:
166,191,79001,1,2,0:0:0:0:
166,191,79180,38,0,P|174:138|162:80,1,110,4|8,0:0|0:0,0:0:0:0:
273,82,79894,2,0,P|262:135|270:189,1,110,0|8,3:0|0:0,0:0:0:0:
375,159,80608,2,0,P|429:206|429:242,1,110,0|8,3:0|0:0,0:0:0:0:
410,291,81144,2,0,L|262:293,1,110,2|2,0:0|0:0,0:0:0:0:
250,317,81680,2,0,B|216:324|216:324|192:313,1,55,8|2,0:0|0:0,0:0:0:0:
173,266,82037,86,0,B|190:212|190:212|165:152,2,110,4|8|0,0:0|0:0|3:0,0:0:0:0:
95,344,83108,1,8,0:0:0:0:
10,273,83466,2,0,B|-7:219|-7:219|18:159,1,110,0|8,3:0|0:0,0:0:0:0:
62,194,84001,2,0,L|73:59,1,110,2|2,0:0|0:0,0:0:0:0:
75,29,84537,1,8,0:0:0:0:
256,192,84894,12,2,87707,0:2:0:0:
