osu file format v14

[General]
AudioFilename: Ao no Kanata no Four Rhythmtvop.mp3
AudioLeadIn: 0
PreviewTime: 61222
Countdown: 0
SampleSet: Soft
StackLeniency: 0.7
Mode: 0
LetterboxInBreaks: 0
WidescreenStoryboard: 0

[Editor]
DistanceSpacing: 1
BeatDivisor: 4
GridSize: 32
TimelineZoom: 2.699999

[Metadata]
Title:Contrail ~Kiseki~
TitleUnicode:Contrail~軌跡~
Artist:Mami Kawada
ArtistUnicode:川田まみ
Creator:Enjoy
Version:Insane
Source:蒼の彼方のフォーリズム
Tags:Rizia Kawaiwkyik wkyik hvick225 hvick SnowWhite Depths -_E_n_j_u_- enju KSHR op opening tv size ao no kanata four rhythm beyond the sky into the firmament sprite
BeatmapID:878049
BeatmapSetID:403822

[Difficulty]
HPDrainRate:6
CircleSize:4
OverallDifficulty:7
ApproachRate:8.8
SliderMultiplier:1.7
SliderTickRate:1

[Events]
//Background and Video events
Video,0,"optc.flv"
0,0,"meIN.png",0,0
//Break Periods
//Storyboard Layer 0 (Background)
//Storyboard Layer 1 (Fail)
//Storyboard Layer 2 (Pass)
//Storyboard Layer 3 (Foreground)
//Storyboard Sound Samples

[TimingPoints]
609,357.142857142857,4,2,1,50,1,0
609,-125,4,2,1,50,0,0
12037,-100,4,2,66,60,0,0
23466,-125,4,2,1,50,0,0
29001,-100,4,2,67,60,0,0
34894,-100,4,2,68,60,0,0
40430,-100,4,2,67,60,0,0
46323,-125,4,2,68,50,0,0
52394,-100,4,2,68,60,0,0
61323,-133.333333333333,4,2,66,60,0,0
62037,-100,4,2,66,70,0,1
84894,-100,4,2,68,50,0,0
87707,-100,4,2,66,50,0,0

[Colours]
Combo1 : 38,255,255
Combo2 : 179,179,179
Combo3 : 128,128,255
Combo4 : 167,48,231
Combo5 : 255,128,255
Combo6 : 244,240,85
Combo7 : 172,172,215

[HitObjects]
189,79,609,6,0,P|197:129|190:146,1,68,2|0,0:0|0:0,0:0:0:0:
115,224,966,1,0,0:0:0:0:
266,215,1144,2,0,P|369:215|392:250,1,136,2|0,0:0|0:0,0:0:0:0:
155,344,1858,70,0,P|115:290|115:224,1,136,2|0,0:0|0:0,0:0:0:0:
186,141,2394,1,0,0:0:0:0:
266,215,2573,1,2,0:0:0:0:
400,197,3466,22,0,P|409:168|408:108,2,68,2|0|0,0:0|0:0|0:0,0:0:0:0:
277,281,4001,2,0,P|267:248|265:214,1,68,2|0,0:0|0:0,0:0:0:0:
343,57,4358,2,0,P|303:69|261:66,1,68
91,38,4716,70,0,P|145:78|125:151,1,136,2|0,0:0|0:0,0:0:0:0:
32,210,5251,1,0,0:0:0:0:
32,210,5430,2,0,P|69:210|105:229,1,68,2|0,0:0|0:0,0:0:0:0:
220,329,5787,2,0,P|233:296|227:235,1,68,0|2,0:0|0:0,0:0:0:0:
181,69,6144,1,0,3:0:0:0:
181,69,6233,1,0,3:0:0:0:
181,69,6323,38,0,L|174:140,1,68,4|0,0:0|0:0,0:0:0:0:
234,263,6680,1,2,0:0:0:0:
392,196,6858,2,0,P|359:186|321:186,1,68,2|0,0:0|0:0,0:0:0:0:
150,249,7216,1,2,0:0:0:0:
150,249,7394,2,0,L|144:160,1,68,0|2,0:0|0:0,0:0:0:0:
147,17,7751,6,0,L|142:84,1,68,0|2,0:0|0:0,0:0:0:0:
325,185,8108,1,2,0:0:0:0:
256,39,8287,1,2,0:0:0:0:
211,155,8466,1,0,0:0:0:0:
377,95,8644,2,0,P|417:91|462:105,1,68,2|0,0:0|0:0,0:0:0:0:
339,291,9001,1,0,3:0:0:0:
339,291,9091,1,0,3:0:0:0:
339,291,9180,86,0,L|334:198,1,68,2|0,0:0|0:0,0:0:0:0:
377,95,9537,1,2,0:0:0:0:
211,155,9716,2,0,L|301:141,1,68,2|0,0:0|0:0,0:0:0:0:
111,86,10073,1,2,0:0:0:0:
196,242,10251,1,0,0:0:0:0:
295,60,10430,1,0,1:0:0:0:
295,60,10787,5,0,1:0:0:0:
196,242,10966,1,4,0:3:0:0:
111,86,11144,1,0,1:0:0:0:
33,267,11501,5,0,3:0:0:0:
47,275,11590,1,0,3:0:0:0:
62,283,11680,2,0,L|111:295,1,34,0|0,1:0|0:0,0:0:0:0:
196,242,11858,2,0,L|242:231,1,34,0|0,1:0|0:0,0:0:0:0:
338,328,12037,6,0,P|323:292|325:233,1,85,4|0,0:0|0:0,0:0:0:0:
463,97,12394,2,0,L|348:107,1,85,8|0,0:0|0:0,0:0:0:0:
148,127,12751,1,0,3:0:0:0:
266,177,12930,1,0,0:0:0:0:
144,44,13108,2,0,B|156:83|156:83|148:127,1,85,8|0,0:0|0:0,0:0:0:0:
95,291,13466,21,0,3:0:0:0:
248,219,13644,2,0,P|194:207|154:223,1,85,0|8,0:0|0:0,0:0:0:0:
336,291,14001,2,0,P|358:253|361:207,1,85,0|0,0:0|3:0,0:0:0:0:
192,79,14358,1,0,0:0:0:0:
296,22,14537,2,0,L|291:123,1,85,8|0,0:0|0:0,0:0:0:0:
248,219,14894,53,0,3:0:0:0:
133,182,15073,1,0,0:0:0:0:
291,106,15251,1,8,0:0:0:0:
280,268,15430,1,0,0:0:0:0:
291,106,15608,2,0,L|295:21,1,85,0|0,3:0|0:0,0:0:0:0:
483,179,15966,2,0,P|430:194|391:182,1,85,8|0,0:0|0:0,0:0:0:0:
401,187,16233,1,0,0:0:0:0:
401,187,16323,6,0,L|406:293,1,85,0|0,3:0|2:0,0:0:0:0:
291,106,16680,2,0,L|295:21,1,85,8|0,0:0|0:0,0:0:0:0:
155,198,17037,1,0,3:0:0:0:
291,106,17216,1,0,0:0:0:0:
297,260,17394,1,8,0:0:0:0:
121,110,17573,1,0,1:0:0:0:
121,110,17662,1,0,1:0:0:0:
121,110,17751,22,0,B|135:154|135:154|123:198,1,85,4|0,0:0|0:0,0:0:0:0:
24,357,18108,2,0,B|13:319|13:319|27:275,1,85,8|0,0:0|0:0,0:0:0:0:
124,191,18466,1,0,3:0:0:0:
210,283,18644,1,0,0:0:0:0:
377,187,18823,2,0,B|341:204|341:204|279:192,1,85,8|0,0:0|0:0,0:0:0:0:
173,35,19180,54,0,P|191:73|183:114,2,85,0|0|8,3:0|0:0|0:0,0:0:0:0:
109,171,19716,2,0,P|150:204|186:208,1,85,0|0,0:0|3:0,0:0:0:0:
412,157,20073,1,0,0:0:0:0:
293,42,20251,2,0,L|298:151,1,85,8|0,0:0|0:0,0:0:0:0:
310,322,20608,5,8,0:0:0:0:
117,287,20787,1,8,0:0:0:0:
117,287,21144,21,8,0:0:0:0:
297,209,21323,1,8,0:0:0:0:
297,209,21680,69,8,0:0:0:0:
116,131,21859,1,8,0:0:0:0:
116,131,22216,21,8,0:0:0:0:
273,14,22395,1,8,0:0:0:0:
297,209,22573,69,0,1:0:0:0:
297,209,22662,1,0,1:0:0:0:
297,209,22751,1,0,1:0:0:0:
116,131,22930,1,8,0:0:0:0:
309,106,23108,2,0,L|417:99,1,85,8|0,0:0|0:0,0:0:0:0:
449,286,23466,38,0,P|402:281|374:261,1,68,4|0,0:0|0:0,0:0:0:0:
297,209,23823,2,0,L|162:220,2,136,0|0|0,3:0|0:0|3:0,0:0:0:0:
359,60,24894,2,0,B|385:38|385:38|379:154,2,136,0|0|0,0:0|3:0|0:0,0:0:0:0:
297,209,25966,1,0,3:0:0:0:
297,209,26323,70,0,L|162:220,1,136,0|0,0:0|3:0,0:0:0:0:
42,73,27037,2,0,L|177:62,1,136,0|0,0:0|3:0,0:0:0:0:
305,142,27751,2,0,P|305:176|297:208,1,68
181,311,28108,2,0,P|172:278|172:244,1,68,0|0,3:0|0:0,0:0:0:0:
316,338,28466,53,0,0:0:0:0:
172,244,28644,1,0,0:0:0:0:
297,208,28823,1,0,3:0:0:0:
169,351,29001,6,0,B|107:329|107:329|71:350|71:350|5:328,1,170,4|2,0:0|0:0,0:0:0:0:
63,113,29537,2,0,B|77:149|77:149|68:204,1,85,8|0,0:0|0:0,0:0:0:0:
69,194,29894,1,2,0:0:0:0:
241,202,30073,2,0,P|283:183|305:147,1,85,2|8,0:0|0:0,0:0:0:0:
206,85,30430,6,0,L|198:256,1,170,2|2,0:0|0:0,0:0:0:0:
388,366,30966,1,8,0:0:0:0:
413,228,31144,1,0,0:0:0:0:
295,306,31323,2,0,L|301:190,1,85,2|2,0:0|0:0,0:0:0:0:
375,25,31680,1,8,0:0:0:0:
412,111,31858,86,0,B|348:129|308:88|308:88|257:115,1,170,2|2,0:0|0:0,0:0:0:0:
58,238,32394,2,0,P|97:252|139:247,1,85,8|0,0:0|0:0,0:0:0:0:
257,114,32751,2,0,P|218:100|176:105,1,85,2|2,0:0|0:0,0:0:0:0:
58,238,33108,1,8,0:0:0:0:
209,313,33287,6,0,B|245:277|234:224|234:224|307:242,1,170,2|2,0:0|0:0,0:0:0:0:
428,74,33823,2,0,B|416:108|416:108|424:163,1,85,8|2,0:0|0:0,0:0:0:0:
437,275,34180,1,0,0:0:0:0:
305,241,34358,1,2,0:0:0:0:
480,286,34537,1,10,0:0:0:0:
370,368,34716,1,0,0:0:0:0:
283,213,34894,6,0,L|287:128,1,85,6|2,0:0|0:0,0:0:0:0:
474,108,35251,2,0,B|417:98|417:98|374:125|374:125|372:87|351:70,1,170,8|2,0:0|0:0,0:0:0:0:
228,19,35787,1,2,0:0:0:0:
158,195,35966,2,0,P|140:159|145:103,1,85,8|0,0:0|0:0,0:0:0:0:
140,115,36233,1,0,0:0:0:0:
140,115,36323,37,2,0:0:0:0:
177,283,36501,1,2,0:0:0:0:
283,213,36680,2,0,L|391:223,1,85,8|0,0:0|0:0,0:0:0:0:
479,321,37037,1,2,0:0:0:0:
367,220,37216,1,2,0:0:0:0:
490,81,37394,2,0,B|503:125|503:125|494:171,1,85,8|0,0:0|0:0,0:0:0:0:
367,220,37751,6,0,B|354:176|354:176|361:137,1,85,2|2,0:0|0:0,0:0:0:0:
486,45,38108,2,0,L|381:39,1,85,8|0,0:0|0:0,0:0:0:0:
224,26,38466,1,2,0:0:0:0:
224,26,38644,1,2,0:0:0:0:
361,137,38823,1,8,0:0:0:0:
230,186,39001,1,0,0:0:0:0:
230,186,39091,1,0,0:0:0:0:
230,186,39180,5,2,0:0:0:0:
307,49,39358,1,2,0:0:0:0:
139,108,39537,2,0,L|53:99,1,85,8|0,0:0|0:0,0:0:0:0:
110,312,39894,1,2,0:0:0:0:
196,217,40073,1,2,0:0:0:0:
71,192,40251,1,8,0:0:0:0:
207,309,40430,6,0,B|266:295|266:295|300:322|300:322|370:304,1,170,4|2,0:0|0:0,0:0:0:0:
305,102,40966,2,0,B|296:149|296:149|308:189,1,85,8|0,0:0|0:0,0:0:0:0:
466,277,41323,2,0,B|475:230|475:230|464:194,1,85,2|2,0:0|0:0,0:0:0:0:
393,54,41680,1,8,0:0:0:0:
306,184,41858,22,0,P|188:188|159:129,1,170,2|2,0:0|0:0,0:0:0:0:
249,39,42394,2,0,L|245:124,1,85,8|0,0:0|0:0,0:0:0:0:
233,312,42751,1,2,0:0:0:0:
145,247,42930,1,2,0:0:0:0:
306,184,43108,1,8,0:0:0:0:
145,247,43287,70,0,P|74:187|92:100,1,170,2|2,0:0|0:0,0:0:0:0:
249,39,43823,2,0,L|245:124,1,85,8|0,0:0|0:0,0:0:0:0:
247,348,44180,2,0,B|261:307|261:307|243:249,1,85,2|2,0:0|0:0,0:0:0:0:
165,155,44537,1,8,0:0:0:0:
14,311,44716,22,0,B|74:294|74:294|108:323|108:323|177:306,1,170,2|2,0:0|0:0,0:0:0:0:
353,268,45251,2,0,B|374:235|374:235|366:168,1,85,8|2,0:0|0:0,0:0:0:0:
348,21,45608,5,0,0:0:0:0:
160,36,45787,1,2,0:0:0:0:
273,186,45966,5,10,0:0:0:0:
264,82,46144,1,0,0:0:0:0:
77,96,46323,54,0,P|116:143|189:144,1,136,4|2,0:0|0:0,0:0:0:0:
282,51,46858,2,0,L|273:187,1,136,2|2,0:0|0:0,0:0:0:0:
159,326,47394,1,2,0:0:0:0:
245,286,47573,1,0,0:0:0:0:
328,331,47751,22,0,L|436:315,2,102,2|2|2,0:0|0:0|0:0,0:0:0:0:
159,326,48466,2,0,P|151:295|147:244,1,68,2|0,0:0|0:0,0:0:0:0:
248,113,48823,2,0,P|244:146|236:179,1,68,2|0,0:0|0:0,0:0:0:0:
147,259,49180,70,0,P|76:244|6:255,1,136,2|0,0:0|0:0,0:0:0:0:
13,252,49716,1,2,0:0:0:0:
167,65,50073,2,0,L|171:136,1,68,2|0,0:0|0:0,0:0:0:0:
170,132,50430,1,0,0:0:0:0:
195,301,50608,22,0,P|132:283|96:299,2,102,2|2|2,0:0|0:0|0:0,0:0:0:0:
354,318,51323,2,0,P|368:292|374:245,1,68,2|0,0:0|0:0,0:0:0:0:
270,88,51680,2,0,P|256:114|250:161,1,68,2|0,0:0|0:0,0:0:0:0:
270,88,52216,53,2,0:0:0:0:
270,88,52305,1,2,0:0:0:0:
270,88,52394,2,0,P|359:117|421:78,1,170,4|2,0:0|0:0,0:0:0:0:
173,57,52930,1,2,0:0:0:0:
342,23,53108,1,8,0:0:0:0:
173,57,53287,86,0,L|159:231,1,170,2|2,0:0|0:0,0:0:0:0:
347,251,53823,2,0,L|432:204,1,85,8|0,0:0|0:0,0:0:0:0:
252,278,54180,2,0,L|243:366,1,85,2|2,0:0|0:0,0:0:0:0:
273,183,54537,2,0,L|179:150,1,85,8|0,0:0|0:0,0:0:0:0:
47,286,54894,37,2,0:0:0:0:
192,154,55073,1,2,0:0:0:0:
245,341,55251,1,8,0:0:0:0:
101,207,55430,70,0,P|87:126|152:60,1,170,2|2,0:0|0:0,0:0:0:0:
287,240,55966,1,8,0:0:0:0:
361,137,56144,86,0,L|177:155,1,170,2|2,0:0|0:0,0:0:0:0:
41,279,56680,1,8,0:0:0:0:
158,296,56858,1,0,0:0:0:0:
158,296,56948,1,0,0:0:0:0:
158,296,57037,2,0,L|252:310,1,85,2|2,0:0|0:0,0:0:0:0:
432,171,57394,2,0,L|347:183,1,85,8|0,0:0|0:0,0:0:0:0:
112,220,57751,37,12,0:0:0:0:
179,339,57930,1,0,0:0:0:0:
193,208,58108,69,8,0:0:0:0:
202,351,58287,1,0,0:0:0:0:
273,194,58466,85,8,0:0:0:0:
225,367,58644,1,0,0:0:0:0:
225,367,58733,1,0,0:0:0:0:
225,367,58823,1,8,0:0:0:0:
57,197,59001,38,0,P|51:104|128:58,1,170,4|0,0:0|1:0,0:0:0:0:
272,161,59537,1,0,1:0:0:0:
276,186,59894,5,0,1:0:0:0:
130,58,60073,1,0,1:0:0:0:
155,56,60430,37,0,1:0:0:0:
155,56,60519,1,0,1:0:0:0:
155,56,60608,1,0,1:0:0:0:
280,211,60787,1,0,1:0:0:0:
141,193,60966,1,0,1:0:0:0:
297,71,61144,1,0,1:0:0:0:
280,211,61323,54,0,L|198:200,1,63.7500024318696,0|2,0:0|0:0,0:0:0:0:
138,84,61680,2,0,L|201:92,1,63.7500024318696,0|2,0:0|0:0,0:0:0:0:
366,253,62037,86,0,P|252:304|217:284,1,170,4|8,0:0|0:0,0:0:0:0:
201,92,62573,1,2,0:0:0:0:
392,121,62751,1,0,3:0:0:0:
280,211,62930,1,2,0:0:0:0:
310,38,63108,1,8,0:0:0:0:
182,184,63287,22,0,P|89:168|3:174,1,170,2|0,0:0|0:0,0:0:0:0:
150,353,63823,2,0,P|157:313|159:262,1,85,8|2,0:0|0:0,0:0:0:0:
79,89,64180,1,0,3:0:0:0:
18,247,64358,1,0,0:0:0:0:
182,184,64537,2,0,P|232:179|278:191,1,85,8|2,0:0|0:0,0:0:0:0:
335,310,64894,38,0,B|320:273|331:225|331:225|302:269|254:261,2,170,0|8|0,3:0|0:0|3:0,0:0:0:0:
430,347,65787,1,0,0:0:0:0:
507,195,65966,2,0,P|451:207|403:207,1,85,8|2,0:0|0:0,0:0:0:0:
306,83,66323,2,0,P|348:86|389:96,1,85,0|2,3:0|0:0,0:0:0:0:
304,278,66680,2,0,P|292:238|290:185,1,85,8|2,0:0|0:0,0:0:0:0:
306,83,67037,85,0,3:0:0:0:
381,245,67216,1,0,0:0:0:0:
204,230,67394,1,8,0:0:0:0:
306,83,67573,1,2,0:0:0:0:
204,230,67751,38,0,L|212:339,1,85,4|2,0:0|0:0,0:0:0:0:
105,144,68108,1,8,0:0:0:0:
306,83,68287,2,0,L|203:60,1,85,2|0,0:0|3:0,0:0:0:0:
295,228,68644,2,0,L|398:205,1,85,0|8,0:0|0:0,0:0:0:0:
432,38,69001,22,0,B|460:102|460:102|436:137|436:137|463:196,1,170,2|0,0:0|0:0,0:0:0:0:
510,334,69537,1,8,0:0:0:0:
357,291,69716,1,2,0:0:0:0:
460,189,69894,1,0,3:0:0:0:
357,291,70073,2,0,B|310:297|310:297|257:274,1,85,0|8,0:0|0:0,0:0:0:0:
157,134,70430,2,0,L|152:218,1,85,2|4,0:0|0:0,0:0:0:0:
152,218,70787,37,2,0:0:0:0:
79,294,70966,1,8,0:0:0:0:
32,148,71144,1,2,0:0:0:0:
167,304,71323,1,0,3:0:0:0:
240,142,71501,1,2,0:0:0:0:
75,213,71680,1,8,0:0:0:0:
200,338,71858,86,0,L|371:317,1,170,4|2,0:0|0:0,0:0:0:0:
454,159,72394,1,8,0:0:0:0:
379,71,72573,2,0,P|343:193|366:230,1,170,0|2,3:0|0:0,0:0:0:0:
457,251,73108,1,8,0:0:0:0:
269,195,73287,1,8,0:0:0:0:
326,361,73466,38,0,P|380:300|359:222,1,170,4|8,0:0|0:0,0:0:0:0:
269,195,74001,1,2,0:0:0:0:
269,195,74091,1,2,0:0:0:0:
269,195,74180,2,0,L|166:215,1,85,0|2,3:0|0:0,0:0:0:0:
0,242,74537,1,8,0:0:0:0:
72,358,74716,22,0,B|105:317|105:317|82:194,1,170,2|0,0:0|0:0,0:0:0:0:
0,60,75251,2,0,B|40:72|40:72|85:60,1,85,8|2,0:0|0:0,0:0:0:0:
253,11,75608,1,0,3:0:0:0:
81,60,75787,1,0,0:0:0:0:
200,193,75966,2,0,P|208:154|205:95,1,85,8|2,0:0|0:0,0:0:0:0:
32,204,76323,38,0,P|115:187|200:193,1,170,4|8,0:0|0:0,0:0:0:0:
396,305,76858,1,2,0:0:0:0:
396,305,76948,1,2,0:0:0:0:
396,305,77037,2,0,B|383:266|383:266|390:215,1,85,0|2,3:0|0:0,0:0:0:0:
433,49,77394,1,8,0:0:0:0:
266,113,77573,86,0,L|282:303,1,170,4|0,0:0|3:0,0:0:0:0:
470,224,78108,2,0,B|428:235|428:235|385:221,1,85,8|2,0:0|0:0,0:0:0:0:
388,222,78376,1,2,0:0:0:0:
388,222,78466,1,0,3:0:0:0:
266,113,78644,1,2,0:0:0:0:
280,282,78823,1,8,0:0:0:0:
355,130,79001,1,2,0:0:0:0:
190,194,79180,38,0,B|128:184|128:184|95:217|95:217|36:206,2,170,4|8|0,0:0|0:0|3:0,0:0:0:0:
387,221,80073,1,2,0:0:0:0:
387,221,80251,2,0,L|280:232,1,85,8|2,0:0|0:0,0:0:0:0:
127,95,80608,1,0,3:0:0:0:
127,95,80787,2,0,L|211:103,1,85,2|8,0:0|0:0,0:0:0:0:
236,304,81144,22,0,P|206:253|211:206,1,85,2|0,0:0|3:0,0:0:0:0:
291,57,81501,1,2,0:0:0:0:
291,57,81680,2,0,P|304:96|296:138,1,85,8|2,0:0|0:0,0:0:0:0:
205,228,82037,38,0,L|18:211,1,170,4|8,0:0|0:0,0:0:0:0:
76,46,82573,2,0,L|83:143,1,85,2|0,0:0|3:0,0:0:0:0:
192,11,82930,1,2,0:0:0:0:
204,227,83108,2,0,L|214:143,1,85,8|2,0:0|0:0,0:0:0:0:
214,143,83376,1,2,0:0:0:0:
214,143,83466,85,0,3:0:0:0:
192,11,83644,1,2,0:0:0:0:
333,119,83823,2,0,L|434:103,1,85,8|2,0:0|0:0,0:0:0:0:
214,143,84180,2,0,L|204:227,1,85,0|0,3:0|0:0,0:0:0:0:
258,37,84537,1,8,0:0:0:0:
280,205,84716,1,8,0:0:0:0:
416,105,84894,53,4,0:0:0:0:
416,105,85251,2,0,L|410:195,1,85,0|0,3:0|0:0,0:0:0:0:
269,335,85608,69,0,3:0:0:0:
269,335,85966,2,0,L|263:250,1,85,0|0,3:0|0:0,0:0:0:0:
289,49,86323,21,0,3:0:0:0:
289,49,86680,2,0,L|283:139,1,85,0|0,3:0|0:0,0:0:0:0:
142,279,87037,69,0,3:0:0:0:
142,279,87394,2,0,L|131:128,1,148.75,0|2,3:0|0:0,0:0:0:0:
