osu file format v14

[General]
AudioFilename: Ao no Kanata no Four Rhythmtvop.mp3
AudioLeadIn: 0
PreviewTime: 61222
Countdown: 0
SampleSet: Soft
StackLeniency: 0.7
Mode: 0
LetterboxInBreaks: 0
WidescreenStoryboard: 0

[Editor]
DistanceSpacing: 1.1
BeatDivisor: 4
GridSize: 32
TimelineZoom: 3.399999

[Metadata]
Title:Contrail ~Kiseki~
TitleUnicode:Contrail~軌跡~
Artist:Mami Kawada
ArtistUnicode:川田まみ
Creator:Enjoy
Version:Hard
Source:蒼の彼方のフォーリズム
Tags:Rizia Kawaiwkyik wkyik hvick225 hvick SnowWhite Depths -_E_n_j_u_- enju KSHR op opening tv size ao no kanata four rhythm beyond the sky into the firmament sprite
BeatmapID:884210
BeatmapSetID:403822

[Difficulty]
HPDrainRate:5
CircleSize:4
OverallDifficulty:6
ApproachRate:7.5
SliderMultiplier:1.45
SliderTickRate:1

[Events]
//Background and Video events
Video,0,"optc.flv"
0,0,"meHD.png",0,0
//Break Periods
//Storyboard Layer 0 (Background)
//Storyboard Layer 1 (Fail)
//Storyboard Layer 2 (Pass)
//Storyboard Layer 3 (Foreground)
//Storyboard Sound Samples

[TimingPoints]
609,357.142857142857,4,2,1,50,1,0
609,-125,4,2,1,50,0,0
12037,-100,4,2,66,60,0,0
23466,-125,4,2,1,50,0,0
29001,-100,4,2,67,60,0,0
34894,-100,4,2,68,60,0,0
40430,-100,4,2,67,60,0,0
46323,-125,4,2,68,50,0,0
52394,-100,4,2,68,60,0,0
61323,-133.333333333333,4,2,66,60,0,0
62037,-100,4,2,66,70,0,1
84894,-100,4,2,68,50,0,0
87707,-100,4,2,66,50,0,0

[Colours]
Combo1 : 38,255,255
Combo2 : 179,179,179
Combo3 : 128,128,255
Combo4 : 167,48,231
Combo5 : 255,128,255
Combo6 : 244,240,85
Combo7 : 172,172,215

[HitObjects]
240,89,609,6,0,L|298:79,2,58,2|0|0,0:0|0:0|0:0,0:0:0:0:
166,105,1144,2,0,P|147:187|168:237,1,116,2|0,0:0|0:0,0:0:0:0:
309,319,1858,2,0,B|349:297|375:337|424:308,2,116,2|0|2,0:0|0:0|0:0,0:0:0:0:
220,176,3466,69,2,0:0:0:0:
220,176,3644,2,0,L|277:179,1,58,0|0,0:0|0:0,0:0:0:0:
331,231,4001,2,0,P|354:176|329:120,1,116,2|0,0:0|0:0,0:0:0:0:
165,54,4716,2,0,P|104:35|51:68,1,116,2|0,0:0|0:0,0:0:0:0:
114,111,5251,21,0,0:0:0:0:
60,163,5430,1,2,0:0:0:0:
60,163,5608,2,0,L|72:233,1,58,0|0,0:0|0:0,0:0:0:0:
145,221,5966,2,0,L|133:291,1,58,2|0,0:0|3:0,0:0:0:0:
194,325,6323,5,4,0:0:0:0:
194,325,6501,1,0,0:0:0:0:
259,286,6680,2,0,L|323:300,1,58,2|2,0:0|0:0,0:0:0:0:
382,263,7037,2,0,P|391:238|389:189,1,58,0|2,0:0|0:0,0:0:0:0:
351,143,7394,1,0,0:0:0:0:
351,143,7573,6,0,P|301:177|241:164,1,116,2|0,0:0|0:0,0:0:0:0:
200,111,8108,1,2,0:0:0:0:
200,111,8287,1,2,0:0:0:0:
145,163,8466,2,0,L|71:155,1,58,0|2,0:0|0:0,0:0:0:0:
120,310,9001,1,0,3:0:0:0:
120,310,9091,1,0,3:0:0:0:
120,310,9180,86,0,L|194:317,1,58,2|0,0:0|0:0,0:0:0:0:
252,325,9537,1,2,0:0:0:0:
241,250,9716,2,0,L|234:178,2,58,2|0|2,0:0|0:0|0:0,0:0:0:0:
252,325,10251,1,0,0:0:0:0:
327,331,10430,1,0,1:0:0:0:
327,331,10787,5,0,1:0:0:0:
337,232,10966,1,4,0:3:0:0:
344,133,11144,1,0,1:0:0:0:
344,133,11501,5,0,3:0:0:0:
344,133,11591,1,0,3:0:0:0:
344,133,11680,2,0,L|296:138,3,29,0|0|0|0,1:0|0:0|1:0|0:0,0:0:0:0:
287,164,12037,6,0,L|217:144,1,72.5,4|0,0:0|0:0,0:0:0:0:
156,195,12394,2,0,P|140:169|140:121,1,72.5,8|0,0:0|0:0,0:0:0:0:
193,70,12751,1,0,3:0:0:0:
193,70,12930,1,0,0:0:0:0:
114,55,13108,2,0,L|33:43,1,72.5,8|0,0:0|0:0,0:0:0:0:
8,117,13466,21,0,3:0:0:0:
70,166,13644,2,0,P|78:204|72:250,1,72.5,0|8,0:0|0:0,0:0:0:0:
9,282,14001,2,0,P|55:316|139:286,1,145,0|0,0:0|0:0,0:0:0:0:
194,240,14537,2,0,P|191:203|199:168,1,72.5,8|0,0:0|0:0,0:0:0:0:
265,124,14894,53,0,3:0:0:0:
265,124,15073,2,0,L|356:111,2,72.5,0|8|0,0:0|0:0|0:0,0:0:0:0:
198,168,15608,2,0,L|126:157,1,72.5,0|0,3:0|0:0,0:0:0:0:
57,116,15966,2,0,P|46:156|59:198,1,72.5,8|0,0:0|0:0,0:0:0:0:
88,257,16323,5,0,3:0:0:0:
167,243,16501,2,0,L|160:318,1,72.5,0|8,2:0|0:0,0:0:0:0:
224,363,16858,2,0,P|287:340|385:339,1,145
456,264,17394,2,0,P|416:256|365:237,1,72.5,8|0,0:0|1:0,0:0:0:0:
353,222,17662,1,0,1:0:0:0:
353,222,17751,22,0,L|347:136,1,72.5,4|0,0:0|0:0,0:0:0:0:
266,57,18108,2,0,L|260:129,1,72.5,8|0,0:0|0:0,0:0:0:0:
250,209,18466,1,0,3:0:0:0:
250,209,18644,1,0,0:0:0:0:
176,176,18823,2,0,P|132:170|90:180,1,72.5,8|0,0:0|0:0,0:0:0:0:
51,233,19180,54,0,P|28:201|31:154,2,72.5,0|0|8,3:0|0:0|0:0,0:0:0:0:
58,312,19716,2,0,P|95:314|130:308,1,72.5,0|0,0:0|3:0,0:0:0:0:
200,268,20073,1,0,0:0:0:0:
248,330,20251,2,0,P|278:291|279:255,1,72.5,8|0,0:0|0:0,0:0:0:0:
244,198,20608,5,8,0:0:0:0:
244,198,20787,1,8,0:0:0:0:
428,157,21144,21,8,0:0:0:0:
428,157,21323,1,8,0:0:0:0:
255,81,21680,69,8,0:0:0:0:
255,81,21858,1,8,0:0:0:0:
280,269,22216,21,8,0:0:0:0:
280,269,22394,1,8,0:0:0:0:
280,269,22751,69,0,1:0:0:0:
209,231,22930,1,8,0:0:0:0:
143,275,23108,2,0,P|129:227|134:201,1,72.5,8|0,0:0|0:0,0:0:0:0:
190,156,23466,38,0,L|199:81,1,58,4|0,0:0|0:0,0:0:0:0:
145,43,23823,2,0,P|67:33|28:55,2,116,0|0|0,3:0|0:0|3:0,0:0:0:0:
196,98,24716,1,0,0:0:0:0:
227,29,24894,2,0,L|293:23,1,58
349,63,25251,2,0,L|343:192,1,116,0|0,3:0|0:0,0:0:0:0:
395,234,25787,2,0,L|460:227,2,58,0|0|0,0:0|3:0|0:0,0:0:0:0:
321,250,26323,70,0,P|255:229|188:240,1,116,0|0,0:0|3:0,0:0:0:0:
167,295,26858,2,0,P|139:260|154:185,1,116
206,145,27394,1,0,3:0:0:0:
206,145,27573,2,0,L|218:29,1,116,0|0,0:0|0:0,0:0:0:0:
293,30,28108,2,0,L|280:145,1,116,0|0,3:0|0:0,0:0:0:0:
294,219,28644,1,0,0:0:0:0:
228,256,28823,1,0,3:0:0:0:
294,219,29001,70,0,P|392:211|449:209,1,145,4|2,0:0|0:0,0:0:0:0:
494,152,29537,2,0,P|501:112|487:77,1,72.5,8|0,0:0|0:0,0:0:0:0:
432,28,29894,1,2,0:0:0:0:
375,85,30073,2,0,B|336:75|336:75|289:85,1,72.5,2|8,0:0|0:0,0:0:0:0:
238,126,30430,6,0,L|224:272,1,145,2|2,0:0|0:0,0:0:0:0:
162,321,30966,2,0,B|122:325|122:325|92:310,1,72.5,8|0,0:0|0:0,0:0:0:0:
25,268,31323,1,2,0:0:0:0:
3,191,31501,2,0,L|12:85,1,72.5,2|8,0:0|0:0,0:0:0:0:
88,108,31858,86,0,P|173:113|236:68,1,145,2|2,0:0|0:0,0:0:0:0:
283,33,32394,1,8,0:0:0:0:
330,97,32573,1,0,0:0:0:0:
409,97,32751,2,0,L|490:83,2,72.5,2|2|8,0:0|0:0|0:0,0:0:0:0:
330,97,33287,6,0,P|301:178|332:229,1,145,2|2,0:0|0:0,0:0:0:0:
401,255,33823,1,8,0:0:0:0:
337,302,34001,2,0,B|295:307|272:280|272:280|242:306|196:299,1,145,2|2,0:0|0:0,0:0:0:0:
219,221,34537,1,10,0:0:0:0:
219,221,34716,1,0,0:0:0:0:
144,192,34894,6,0,P|134:161|137:111,1,72.5,6|2,0:0|0:0,0:0:0:0:
173,51,35251,2,0,B|212:74|215:111|215:111|291:84,1,145,8|2,0:0|0:0,0:0:0:0:
354,59,35787,1,2,0:0:0:0:
413,112,35966,2,0,P|422:152|408:198,1,72.5,8|0,0:0|0:0,0:0:0:0:
364,243,36323,37,2,0:0:0:0:
364,243,36501,1,2,0:0:0:0:
294,203,36680,2,0,B|257:190|257:190|158:244,1,145,8|2,0:0|0:0,0:0:0:0:
99,288,37216,1,2,0:0:0:0:
36,238,37394,2,0,B|23:207|23:207|31:164,1,72.5,8|0,0:0|0:0,0:0:0:0:
52,91,37751,5,2,0:0:0:0:
52,91,37930,1,2,0:0:0:0:
124,124,38108,2,0,L|203:109,1,72.5,8|0,0:0|0:0,0:0:0:0:
273,93,38466,2,0,L|281:10,1,72.5,2|2,0:0|0:0,0:0:0:0:
359,27,38823,2,0,L|352:99,1,72.5,8|0,0:0|0:0,0:0:0:0:
395,166,39180,5,2,0:0:0:0:
395,166,39358,2,0,L|473:152,2,72.5,2|8|0,0:0|0:0|0:0,0:0:0:0:
321,199,39894,1,2,0:0:0:0:
268,259,40073,2,0,P|242:211|249:175,1,72.5,2|8,0:0|0:0,0:0:0:0:
284,97,40430,6,0,B|239:122|239:122|141:101,1,145,4|2,0:0|0:0,0:0:0:0:
65,40,40966,2,0,B|76:81|76:81|61:131,1,72.5,8|0,0:0|0:0,0:0:0:0:
28,179,41323,1,2,0:0:0:0:
99,213,41501,2,0,L|176:207,1,72.5,2|8,0:0|0:0,0:0:0:0:
242,242,41858,22,0,B|259:198|239:167|239:167|327:175,1,145,2|2,0:0|0:0,0:0:0:0:
375,211,42394,2,0,P|386:173|374:133,1,72.5,8|0,0:0|0:0,0:0:0:0:
313,95,42751,1,2,0:0:0:0:
386,63,42930,2,0,L|475:55,1,72.5,2|8,0:0|0:0,0:0:0:0:
507,119,43287,70,0,L|498:273,1,145,2|2,0:0|0:0,0:0:0:0:
441,320,43823,2,0,L|347:310,1,72.5,8|0,0:0|0:0,0:0:0:0:
289,308,44180,1,2,0:0:0:0:
319,234,44358,2,0,L|225:224,1,72.5,2|8,0:0|0:0,0:0:0:0:
185,277,44716,22,0,P|167:224|218:149,1,145,2|2,0:0|0:0,0:0:0:0:
290,157,45251,1,8,0:0:0:0:
251,86,45430,2,0,B|193:65|156:98|156:98|106:79,1,145,2|2,0:0|0:0,0:0:0:0:
37,62,45966,1,10,0:0:0:0:
45,141,46144,1,0,0:0:0:0:
55,220,46323,86,0,L|44:346,1,116,4|2,0:0|0:0,0:0:0:0:
119,327,46858,1,2,0:0:0:0:
119,327,47216,2,0,L|196:336,1,58,2|2,0:0|0:0,0:0:0:0:
251,346,47573,1,0,0:0:0:0:
319,314,47751,22,0,L|313:206,2,87,2|2|2,0:0|0:0|0:0,0:0:0:0:
394,321,48466,2,0,L|452:328,2,58,2|0|2,0:0|0:0|0:0,0:0:0:0:
394,321,49180,70,0,L|385:180,1,116,2|0,0:0|0:0,0:0:0:0:
406,132,49716,1,2,0:0:0:0:
406,132,50073,2,0,L|332:138,1,58,2|0,0:0|0:0,0:0:0:0:
284,176,50430,1,0,0:0:0:0:
222,133,50608,22,0,L|215:34,2,87,2|2|2,0:0|0:0|0:0,0:0:0:0:
284,176,51323,2,0,B|279:243,1,58,2|0,0:0|0:0,0:0:0:0:
318,298,51680,2,0,P|247:286|181:302,1,116,2|0,0:0|0:0,0:0:0:0:
137,328,52216,53,2,0:0:0:0:
137,328,52305,1,2,0:0:0:0:
137,328,52394,2,0,B|166:260|166:260|144:188,1,145,4|2,0:0|0:0,0:0:0:0:
102,125,52930,1,2,0:0:0:0:
46,182,53108,1,8,0:0:0:0:
102,125,53287,86,0,L|255:104,1,145,2|2,0:0|0:0,0:0:0:0:
325,97,53823,2,0,L|314:184,1,72.5,8|0,0:0|0:0,0:0:0:0:
376,221,54180,1,2,0:0:0:0:
376,221,54358,1,2,0:0:0:0:
307,262,54537,2,0,L|222:252,1,72.5,8|0,0:0|0:0,0:0:0:0:
155,245,54894,37,2,0:0:0:0:
155,245,55073,1,2,0:0:0:0:
205,183,55251,1,8,0:0:0:0:
131,151,55430,2,0,P|115:105|175:20,1,145,2|2,0:0|0:0,0:0:0:0:
228,67,55966,1,8,0:0:0:0:
228,67,56144,70,0,L|392:46,1,145,2|2,0:0|0:0,0:0:0:0:
428,104,56680,2,0,L|420:199,1,72.5,8|0,0:0|0:0,0:0:0:0:
412,255,57037,1,2,0:0:0:0:
412,255,57216,1,2,0:0:0:0:
342,216,57394,2,0,B|311:230|311:230|246:216,1,72.5,8|0,0:0|0:0,0:0:0:0:
206,177,57751,85,12,0:0:0:0:
206,177,57930,1,0,0:0:0:0:
167,247,58108,2,0,L|174:330,1,72.5,8|0,0:0|0:0,0:0:0:0:
93,310,58465,2,0,L|86:237,1,72.5,8|0,0:0|0:0,0:0:0:0:
86,237,58733,1,0,0:0:0:0:
86,237,58823,1,8,0:0:0:0:
81,158,59001,38,0,B|117:157|136:177|136:177|189:147|150:79,1,145,4|0,0:0|1:0,0:0:0:0:
122,34,59537,1,0,1:0:0:0:
313,190,59894,5,0,1:0:0:0:
234,180,60073,1,0,1:0:0:0:
201,24,60430,37,0,1:0:0:0:
201,24,60519,1,0,1:0:0:0:
201,24,60608,1,0,1:0:0:0:
232,97,60787,1,0,1:0:0:0:
309,78,60966,1,0,1:0:0:0:
325,155,61144,1,0,1:0:0:0:
401,148,61323,54,0,L|472:158,1,54.3750020742417,0|2,0:0|0:0,0:0:0:0:
441,230,61680,2,0,L|387:222,1,54.3750020742417,0|2,0:0|0:0,0:0:0:0:
317,262,62037,86,0,P|236:239|173:290,1,145,4|8,0:0|0:0,0:0:0:0:
136,329,62573,1,2,0:0:0:0:
68,287,62751,2,0,P|74:254|75:201,1,72.5,0|2,3:0|0:0,0:0:0:0:
34,146,63108,1,8,0:0:0:0:
104,108,63287,22,0,P|178:95|254:132,1,145,2|0,0:0|0:0,0:0:0:0:
297,177,63823,2,0,L|287:270,1,72.5,8|2,0:0|0:0,0:0:0:0:
349,301,64180,1,0,3:0:0:0:
349,301,64358,1,0,0:0:0:0:
418,261,64537,2,0,L|425:188,1,72.5,8|2,0:0|0:0,0:0:0:0:
400,113,64894,38,0,P|328:100|303:26,1,145,0|8,3:0|0:0,0:0:0:0:
222,27,65430,1,0,0:0:0:0:
169,86,65608,2,0,P|128:78|97:62,1,72.5,0|0,3:0|0:0,0:0:0:0:
27,97,65966,1,8,0:0:0:0:
19,176,66144,86,0,L|41:265,1,72.5,2|0,0:0|3:0,0:0:0:0:
172,198,66501,2,0,L|106:162,1,72.5,2|8,0:0|0:0,0:0:0:0:
98,319,66858,2,0,L|166:286,1,72.5,2|0,0:0|3:0,0:0:0:0:
240,266,67216,1,0,0:0:0:0:
281,198,67394,1,8,0:0:0:0:
268,118,67573,1,2,0:0:0:0:
343,147,67751,38,0,B|383:147|405:117|405:117|456:112|481:146,1,145,4|8,0:0|0:0,0:0:0:0:
511,206,68287,2,0,P|508:244|496:285,1,72.5,2|0,0:0|3:0,0:0:0:0:
435,325,68644,1,0,0:0:0:0:
366,286,68823,1,8,0:0:0:0:
315,347,69001,22,0,P|292:314|322:221,1,145,2|0,0:0|0:0,0:0:0:0:
337,143,69537,1,8,0:0:0:0:
406,181,69716,1,2,0:0:0:0:
467,132,69894,1,0,3:0:0:0:
436,57,70073,1,0,0:0:0:0:
357,66,70251,2,0,L|267:56,1,72.5,8|2,0:0|0:0,0:0:0:0:
192,128,70608,38,0,L|337:143,1,145,4|8,0:0|0:0,0:0:0:0:
333,251,71144,2,0,L|243:241,1,72.5,2|0,0:0|3:0,0:0:0:0:
408,198,71501,2,0,P|424:250|417:282,1,72.5,2|8,0:0|0:0,0:0:0:0:
362,336,71858,86,0,L|217:321,1,145,4|2,0:0|0:0,0:0:0:0:
140,339,72394,1,8,0:0:0:0:
79,286,72573,2,0,P|49:236|90:150,1,145,0|2,3:0|0:0,0:0:0:0:
126,221,73108,1,8,0:0:0:0:
155,147,73287,1,8,0:0:0:0:
233,132,73466,38,0,L|379:109,1,145,4|8,0:0|0:0,0:0:0:0:
447,144,74001,1,2,0:0:0:0:
387,197,74180,2,0,P|379:235|388:275,1,72.5,0|2,3:0|0:0,0:0:0:0:
450,313,74537,1,8,0:0:0:0:
377,346,74716,22,0,P|319:328|205:323,1,145,2|0,0:0|0:0,0:0:0:0:
129,268,75251,2,0,P|172:259|214:236,1,72.5,8|2,0:0|0:0,0:0:0:0:
258,194,75608,1,0,3:0:0:0:
187,156,75787,1,0,0:0:0:0:
255,115,75966,2,0,P|264:81|267:31,1,72.5,8|2,0:0|0:0,0:0:0:0:
341,15,76323,38,0,P|414:34|433:109,1,145,4|8,0:0|0:0,0:0:0:0:
401,165,76858,2,0,L|307:149,1,72.5,2|0,0:0|3:0,0:0:0:0:
267,203,77216,1,2,0:0:0:0:
222,137,77394,1,8,0:0:0:0:
174,201,77573,86,0,B|185:258|185:258|171:290|171:290|181:344,1,145,4|0,0:0|3:0,0:0:0:0:
297,346,78108,2,0,L|308:264,1,72.5,8|2,0:0|0:0,0:0:0:0:
267,203,78466,1,0,3:0:0:0:
267,95,78644,1,2,0:0:0:0:
320,149,78823,1,8,0:0:0:0:
213,149,79001,1,2,0:0:0:0:
216,40,79180,38,0,P|287:26|370:20,2,145,4|8|0,0:0|0:0|3:0,0:0:0:0:
156,93,80073,1,2,0:0:0:0:
156,93,80251,2,0,P|148:135|148:168,1,72.5,8|2,0:0|0:0,0:0:0:0:
208,216,80608,1,0,3:0:0:0:
208,216,80787,2,0,L|287:205,1,72.5,2|8,0:0|0:0,0:0:0:0:
354,233,81144,2,0,P|359:197|345:161,2,72.5,2|0|2,0:0|3:0|0:0,0:0:0:0:
296,289,81680,2,0,L|211:301,1,72.5,8|2,0:0|0:0,0:0:0:0:
147,275,82037,22,0,P|118:216|155:138,1,145,4|8,0:0|0:0,0:0:0:0:
209,98,82573,2,0,L|297:105,1,72.5,2|0,0:0|3:0,0:0:0:0:
348,147,82930,1,2,0:0:0:0:
311,217,83108,2,0,L|395:223,1,72.5,8|2,0:0|0:0,0:0:0:0:
452,180,83466,38,0,P|470:229|456:258,1,72.5,0|2,3:0|0:0,0:0:0:0:
407,302,83823,2,0,L|320:296,1,72.5,8|2,0:0|0:0,0:0:0:0:
270,344,84180,1,0,3:0:0:0:
210,291,84358,1,0,0:0:0:0:
139,328,84537,2,0,P|130:289|149:241,1,72.5,8|8,0:0|0:0,0:0:0:0:
179,189,84894,38,0,P|249:165|307:210,2,145,4|0|0,0:0|3:0|3:0,0:0:0:0:
347,345,85966,2,0,L|352:272,1,72.5,0|0,3:0|0:0,0:0:0:0:
388,201,86323,2,0,P|458:177|516:222,2,145,0|0|0,3:0|3:0|3:0,0:0:0:0:
231,315,87394,22,0,P|170:284|170:230,1,126.875,0|2,3:0|0:0,0:0:0:0:
