osu file format v14

[General]
AudioFilename: aokana_op.mp3
AudioLeadIn: 0
PreviewTime: 61275
Countdown: 0
SampleSet: Soft
StackLeniency: 0.7
Mode: 3
LetterboxInBreaks: 0
SpecialStyle: 0
WidescreenStoryboard: 0

[Editor]
DistanceSpacing: 1
BeatDivisor: 4
GridSize: 8
TimelineZoom: 1.8

[Metadata]
Title:Contrail ~Kiseki~
TitleUnicode:Contrail~軌跡~
Artist:Mami Kawada
ArtistUnicode:川田まみ
Creator:-[ AmiShici ]-
Version:Insane
Source:蒼の彼方のフォーリズム
Tags:op opening ao no kanata four rhythm sprite
BeatmapID:897240
BeatmapSetID:406052

[Difficulty]
HPDrainRate:8
CircleSize:7
OverallDifficulty:8
ApproachRate:9
SliderMultiplier:1.6
SliderTickRate:1

[Events]
//Background and Video events
0,0,"BG.jpg",0,0
Video,0,"Aokana.avi"
//Break Periods
//Storyboard Layer 0 (Background)
//Storyboard Layer 1 (Fail)
//Storyboard Layer 2 (Pass)
//Storyboard Layer 3 (Foreground)
//Storyboard Sound Samples

[TimingPoints]
561,357.142857142857,4,2,1,30,1,0
61989,-100,4,2,1,30,0,1
84846,-100,4,2,1,30,0,0

[HitObjects]
36,192,561,128,0,1989:0:0:0:0:
256,192,561,1,0,0:0:0:0:
182,192,918,1,0,0:0:0:0:
329,192,1096,1,0,0:0:0:0:
329,192,1453,1,0,0:0:0:0:
402,192,1810,1,0,0:0:0:0:
475,192,1989,128,0,3418:0:0:0:0:
256,192,2168,1,0,0:0:0:0:
109,192,2525,1,0,0:0:0:0:
109,192,2882,1,0,0:0:0:0:
329,192,3418,1,0,0:0:0:0:
182,192,3418,128,0,4846:0:0:0:0:
256,192,3775,1,0,0:0:0:0:
36,192,3953,1,0,0:0:0:0:
36,192,4310,1,0,0:0:0:0:
329,192,4668,1,0,0:0:0:0:
256,192,4846,128,0,6275:0:0:0:0:
109,192,5025,1,0,0:0:0:0:
402,192,5382,1,0,0:0:0:0:
402,192,5739,1,0,0:0:0:0:
475,192,6275,128,0,7703:0:0:0:0:
36,192,6275,1,0,0:0:0:0:
36,192,6453,1,0,0:0:0:0:
36,192,6632,1,0,0:0:0:0:
182,192,6632,1,0,0:0:0:30:soft-hitwhistle2.wav
36,192,6810,1,0,0:0:0:0:
36,192,6989,1,0,0:0:0:0:
36,192,7168,1,0,0:0:0:0:
36,192,7346,1,0,0:0:0:0:
182,192,7346,1,0,0:0:0:30:soft-hitwhistle2.wav
36,192,7525,1,0,0:0:0:0:
109,192,7703,128,0,9132:0:0:0:0:
329,192,7703,1,0,0:0:0:0:
329,192,7882,1,0,0:0:0:0:
329,192,8060,1,0,0:0:0:0:
475,192,8060,1,0,0:0:0:30:soft-hitwhistle2.wav
329,192,8239,1,0,0:0:0:0:
329,192,8418,1,0,0:0:0:0:
329,192,8596,1,0,0:0:0:0:
329,192,8775,1,0,0:0:0:0:
475,192,8775,1,0,0:0:0:30:soft-hitwhistle2.wav
329,192,8953,1,0,0:0:0:0:
402,192,9132,128,0,10382:0:0:0:0:
36,192,9132,1,0,0:0:0:0:
36,192,9310,1,0,0:0:0:0:
36,192,9489,1,0,0:0:0:0:
182,192,9489,1,0,0:0:0:30:soft-hitwhistle2.wav
36,192,9668,1,0,0:0:0:0:
36,192,9846,1,0,0:0:0:0:
36,192,10025,1,0,0:0:0:0:
36,192,10203,1,0,0:0:0:0:
182,192,10203,1,0,0:0:0:30:soft-hitwhistle2.wav
109,192,10382,1,8,0:0:0:0:
256,192,10382,1,2,0:0:0:0:
475,192,10382,1,0,0:0:0:0:
329,192,10739,1,8,0:0:0:0:
182,192,10739,1,0,0:0:0:0:
475,192,10739,1,2,0:0:0:0:
256,192,10918,1,8,0:0:0:0:
109,192,10918,1,0,0:0:0:0:
402,192,10918,1,2,0:0:0:0:
182,192,11096,1,8,0:0:0:0:
36,192,11096,1,0,0:0:0:0:
329,192,11096,1,2,0:0:0:0:
109,192,11453,1,0,0:0:0:0:
402,192,11453,1,2,0:0:0:0:
182,192,11543,1,0,0:0:0:0:
329,192,11543,1,2,0:0:0:0:
256,192,11632,1,2,0:0:0:0:
36,192,11632,128,8,11989:0:0:0:0:
475,192,11632,128,0,11989:0:0:0:0:
256,192,11989,128,0,13418:0:0:0:0:
182,192,11989,1,2,0:0:0:0:
329,192,11989,1,4,0:0:0:0:
109,192,11989,1,0,0:0:0:0:
402,192,12168,128,0,12346:0:0:0:0:
36,192,12168,1,0,0:0:0:30:soft-hitwhistle2.wav
109,192,12346,128,0,12525:0:0:0:0:
329,192,12346,1,8,0:0:0:0:
182,192,12346,1,0,0:0:0:0:
475,192,12525,128,0,12703:0:0:0:0:
36,192,12525,1,0,0:0:0:30:soft-hitwhistle2.wav
329,192,12703,1,2,0:0:0:0:
109,192,12703,1,0,0:0:0:0:
402,192,12882,1,0,0:0:0:30:soft-hitwhistle2.wav
182,192,12882,128,0,13060:0:0:0:0:
475,192,13060,1,8,0:0:0:0:
36,192,13060,1,0,0:0:0:0:
329,192,13060,128,0,13239:0:0:0:0:
402,192,13239,1,0,0:0:0:30:soft-hitwhistle2.wav
182,192,13239,128,0,13418:0:0:0:0:
109,192,13418,128,0,13596:0:0:0:0:
36,192,13418,128,0,14132:0:0:0:0:
475,192,13418,1,2,0:0:0:0:
402,192,13596,128,0,13775:0:0:0:0:
329,192,13596,1,0,0:0:0:30:soft-hitwhistle2.wav
109,192,13775,128,0,13953:0:0:0:0:
182,192,13775,1,8,0:0:0:0:
475,192,13775,1,0,0:0:0:0:
402,192,13953,128,0,14132:0:0:0:0:
329,192,13953,1,0,0:0:0:30:soft-hitwhistle2.wav
109,192,14132,1,2,0:0:0:0:
182,192,14132,1,0,0:0:0:0:
475,192,14132,128,0,14846:0:0:0:0:
329,192,14310,128,0,14489:0:0:0:0:
256,192,14310,1,0,0:0:0:30:soft-hitwhistle2.wav
36,192,14489,128,0,14846:0:0:0:0:
182,192,14489,1,0,0:0:0:0:
402,192,14489,1,8,0:0:0:0:
256,192,14846,128,0,16275:0:0:0:0:
329,192,14846,1,2,0:0:0:0:
182,192,14846,1,0,0:0:0:0:
402,192,15025,128,0,15203:0:0:0:0:
475,192,15025,1,0,0:0:0:30:soft-hitwhistle2.wav
109,192,15203,128,0,15382:0:0:0:0:
182,192,15203,1,8,0:0:0:0:
36,192,15203,1,0,0:0:0:0:
475,192,15382,128,0,15560:0:0:0:0:
402,192,15382,1,0,0:0:0:30:soft-hitwhistle2.wav
329,192,15560,1,2,0:0:0:0:
182,192,15560,1,0,0:0:0:0:
402,192,15739,1,0,0:0:0:30:soft-hitwhistle2.wav
109,192,15739,128,0,15918:0:0:0:0:
36,192,15918,1,0,0:0:0:0:
475,192,15918,1,8,0:0:0:0:
329,192,15918,128,0,16096:0:0:0:0:
402,192,16096,1,0,0:0:0:30:soft-hitwhistle2.wav
182,192,16096,128,0,16275:0:0:0:0:
402,192,16275,128,0,16453:0:0:0:0:
109,192,16275,128,0,16989:0:0:0:0:
36,192,16275,1,2,0:0:0:0:
182,192,16453,128,0,16632:0:0:0:0:
475,192,16453,1,0,0:0:0:30:soft-hitwhistle2.wav
329,192,16632,128,0,16810:0:0:0:0:
402,192,16632,1,8,0:0:0:0:
256,192,16632,1,0,0:0:0:0:
475,192,16810,128,0,16989:0:0:0:0:
182,192,16810,1,0,0:0:0:30:soft-hitwhistle2.wav
256,192,16989,128,0,17346:0:0:0:0:
402,192,16989,1,2,0:0:0:0:
36,192,16989,1,0,0:0:0:0:
329,192,17168,128,0,17346:0:0:0:0:
109,192,17168,1,0,0:0:0:30:soft-hitwhistle2.wav
475,192,17346,128,0,17703:0:0:0:0:
36,192,17346,128,0,17703:0:0:0:0:
182,192,17346,1,0,0:0:0:0:
402,192,17346,1,8,0:0:0:0:
182,192,17703,1,0,0:0:0:0:
329,192,17703,128,0,19132:0:0:0:0:
109,192,17703,1,2,0:0:0:0:
475,192,17882,128,0,18060:0:0:0:0:
256,192,17882,1,0,0:0:0:30:soft-hitwhistle2.wav
109,192,18060,128,0,18239:0:0:0:0:
36,192,18060,1,0,0:0:0:0:
182,192,18060,1,8,0:0:0:0:
475,192,18239,128,0,18418:0:0:0:0:
256,192,18239,1,0,0:0:0:30:soft-hitwhistle2.wav
402,192,18418,1,2,0:0:0:0:
36,192,18418,1,0,0:0:0:0:
109,192,18596,1,0,0:0:0:30:soft-hitwhistle2.wav
182,192,18596,128,0,18775:0:0:0:0:
36,192,18775,1,8,0:0:0:0:
256,192,18775,1,0,0:0:0:0:
475,192,18775,128,0,18953:0:0:0:0:
109,192,18953,1,0,0:0:0:30:soft-hitwhistle2.wav
402,192,18953,128,0,19132:0:0:0:0:
256,192,19132,128,0,19310:0:0:0:0:
36,192,19132,128,0,19846:0:0:0:0:
182,192,19132,1,2,0:0:0:0:
109,192,19310,128,0,19489:0:0:0:0:
402,192,19310,1,0,0:0:0:30:soft-hitwhistle2.wav
256,192,19489,128,0,19668:0:0:0:0:
475,192,19489,1,0,0:0:0:0:
329,192,19489,1,8,0:0:0:0:
402,192,19668,128,0,19846:0:0:0:0:
109,192,19668,1,0,0:0:0:30:soft-hitwhistle2.wav
475,192,19846,128,0,20560:0:0:0:0:
182,192,19846,1,0,0:0:0:0:
329,192,19846,1,2,0:0:0:0:
36,192,20025,128,0,20560:0:0:0:0:
402,192,20025,1,0,0:0:0:30:soft-hitwhistle2.wav
256,192,20203,128,0,20560:0:0:0:0:
182,192,20203,1,0,0:0:0:0:
329,192,20203,1,8,0:0:0:0:
109,192,20560,1,0,0:0:0:0:
402,192,20560,1,2,0:0:0:0:
329,192,20560,1,8,0:0:0:0:
36,192,20739,1,0,0:0:0:0:
256,192,20739,1,8,0:0:0:0:
329,192,20739,1,2,0:0:0:0:
475,192,21096,1,2,0:0:0:0:
329,192,21096,1,8,0:0:0:0:
182,192,21096,1,0,0:0:0:0:
402,192,21275,1,2,0:0:0:0:
256,192,21275,1,8,0:0:0:0:
109,192,21275,1,0,0:0:0:0:
475,192,21632,1,2,0:0:0:0:
329,192,21632,1,8,0:0:0:0:
109,192,21632,1,0,0:0:0:0:
36,192,21810,1,0,0:0:0:0:
256,192,21810,1,8,0:0:0:0:
402,192,21810,1,2,0:0:0:0:
402,192,22168,1,2,0:0:0:0:
256,192,22168,1,8,0:0:0:0:
109,192,22168,1,0,0:0:0:0:
329,192,22346,1,2,0:0:0:0:
182,192,22346,1,8,0:0:0:0:
36,192,22346,1,0,0:0:0:0:
402,192,22525,1,2,0:0:0:0:
109,192,22525,1,0,0:0:0:0:
329,192,22614,1,2,0:0:0:0:
182,192,22614,1,0,0:0:0:0:
475,192,22703,1,0,0:0:0:0:
36,192,22703,1,0,0:0:0:0:
256,192,22703,1,2,0:0:0:0:
182,192,22882,1,0,0:0:0:0:
329,192,22882,1,2,0:0:0:0:
256,192,23060,1,8,0:0:0:0:
36,192,23060,128,2,23418:0:0:0:0:
475,192,23060,128,0,24846:0:0:0:0:
256,192,23775,1,0,0:0:0:30:soft-hitwhistle2.wav
256,192,24489,1,0,0:0:0:30:soft-hitwhistle2.wav
256,192,25203,1,0,0:0:0:30:soft-hitwhistle2.wav
256,192,25918,1,0,0:0:0:30:soft-hitwhistle2.wav
36,192,26096,1,0,0:0:0:0:
109,192,26185,1,0,0:0:0:0:
182,192,26275,128,0,26989:0:0:0:0:
475,192,26632,1,0,0:0:0:30:soft-hitwhistle2.wav
256,192,26989,128,0,28953:0:0:0:0:
475,192,27346,1,0,0:0:0:30:soft-hitwhistle2.wav
475,192,28060,1,0,0:0:0:30:soft-hitwhistle2.wav
475,192,28775,1,0,0:0:0:30:soft-hitwhistle2.wav
36,192,28775,1,2,0:0:0:0:
109,192,28953,1,0,0:0:0:0:
182,192,28953,1,2,0:0:0:0:
402,192,28953,1,4,0:0:0:0:
329,192,28953,128,0,30203:0:0:0:0:
36,192,29310,1,0,0:0:0:0:
475,192,29310,1,2,0:0:0:0:
109,192,29489,1,0,0:0:0:0:
256,192,29489,1,8,0:0:0:0:
402,192,29489,1,0,0:0:0:0:
36,192,29846,1,0,0:0:0:0:
256,192,29846,1,2,0:0:0:0:
402,192,30025,1,2,0:0:0:0:
109,192,30025,1,0,0:0:0:0:
182,192,30203,1,0,0:0:0:0:
475,192,30203,1,0,0:0:0:0:
256,192,30203,1,8,0:0:0:0:
109,192,30382,128,0,31632:0:0:0:0:
402,192,30382,1,2,0:0:0:0:
182,192,30739,1,0,0:0:0:0:
329,192,30739,1,2,0:0:0:0:
256,192,30918,1,8,0:0:0:0:
36,192,30918,1,0,0:0:0:0:
475,192,30918,1,0,0:0:0:0:
475,192,31275,1,2,0:0:0:0:
36,192,31275,1,0,0:0:0:0:
329,192,31453,1,2,0:0:0:0:
182,192,31453,1,0,0:0:0:0:
36,192,31632,1,0,0:0:0:0:
475,192,31632,1,0,0:0:0:0:
256,192,31632,1,8,0:0:0:0:
329,192,31810,128,0,33060:0:0:0:0:
182,192,31810,1,2,0:0:0:0:
475,192,32168,1,0,0:0:0:0:
109,192,32168,1,2,0:0:0:0:
402,192,32346,1,0,0:0:0:0:
182,192,32346,1,8,0:0:0:0:
36,192,32346,1,0,0:0:0:0:
109,192,32703,1,0,0:0:0:0:
475,192,32703,1,2,0:0:0:0:
36,192,32882,1,0,0:0:0:0:
402,192,32882,1,2,0:0:0:0:
109,192,33060,1,0,0:0:0:0:
256,192,33060,1,8,0:0:0:0:
182,192,33060,1,0,0:0:0:0:
475,192,33239,128,0,33775:0:0:0:0:
36,192,33239,1,2,0:0:0:0:
182,192,33596,1,2,0:0:0:0:
329,192,33596,1,0,0:0:0:0:
256,192,33775,1,8,0:0:0:0:
109,192,33775,1,0,0:0:0:0:
402,192,33775,1,0,0:0:0:0:
36,192,33953,128,0,34846:0:0:0:0:
329,192,33953,1,2,0:0:0:0:
182,192,34310,1,2,0:0:0:0:
475,192,34310,128,0,34489:0:0:0:0:
109,192,34489,1,8,0:0:0:0:
256,192,34489,1,0,0:0:0:0:
402,192,34489,128,0,34668:0:0:0:0:
182,192,34668,1,2,0:0:0:0:
329,192,34668,128,0,34846:0:0:0:0:
256,192,34846,1,4,0:0:0:0:
475,192,34846,1,2,0:0:0:0:
109,192,34846,1,0,0:0:0:0:
182,192,35025,1,2,0:0:0:0:
36,192,35025,1,0,0:0:0:0:
256,192,35114,1,0,0:0:0:0:
329,192,35203,1,0,0:0:0:0:
402,192,35203,1,8,0:0:0:0:
475,192,35203,1,0,0:0:0:0:
36,192,35382,1,0,0:0:0:0:
182,192,35560,1,0,0:0:0:0:
256,192,35560,1,2,0:0:0:0:
329,192,35739,1,2,0:0:0:0:
402,192,35739,1,0,0:0:0:0:
109,192,35918,1,0,0:0:0:0:
182,192,35918,1,8,0:0:0:0:
36,192,35918,1,0,0:0:0:0:
475,192,36096,1,0,0:0:0:0:
329,192,36185,1,0,0:0:0:0:
109,192,36275,1,2,0:0:0:0:
256,192,36275,1,0,0:0:0:0:
36,192,36453,1,2,0:0:0:0:
182,192,36453,1,0,0:0:0:0:
256,192,36543,1,0,0:0:0:0:
475,192,36632,1,0,0:0:0:0:
402,192,36632,1,8,0:0:0:0:
329,192,36632,1,0,0:0:0:0:
182,192,36810,1,0,0:0:0:0:
329,192,36900,1,0,0:0:0:0:
475,192,36989,1,2,0:0:0:0:
36,192,36989,1,0,0:0:0:0:
182,192,37168,1,0,0:0:0:0:
329,192,37168,1,2,0:0:0:0:
256,192,37346,1,8,0:0:0:0:
109,192,37346,1,0,0:0:0:0:
402,192,37346,1,0,0:0:0:0:
329,192,37525,1,0,0:0:0:0:
182,192,37614,1,0,0:0:0:0:
475,192,37703,1,2,0:0:0:0:
36,192,37703,1,0,0:0:0:0:
402,192,37882,1,2,0:0:0:0:
109,192,37882,1,0,0:0:0:0:
256,192,37971,1,0,0:0:0:0:
36,192,38060,1,8,0:0:0:0:
182,192,38060,1,0,0:0:0:0:
329,192,38060,1,0,0:0:0:0:
256,192,38239,1,0,0:0:0:0:
402,192,38418,1,2,0:0:0:0:
109,192,38418,1,0,0:0:0:0:
182,192,38596,1,0,0:0:0:0:
329,192,38596,1,2,0:0:0:0:
36,192,38775,1,8,0:0:0:0:
475,192,38775,1,0,0:0:0:0:
256,192,38775,1,0,0:0:0:0:
182,192,38953,1,0,0:0:0:0:
109,192,39043,1,0,0:0:0:0:
36,192,39132,1,0,0:0:0:0:
329,192,39132,1,2,0:0:0:0:
256,192,39132,128,0,40203:0:0:0:0:
109,192,39310,1,0,0:0:0:0:
402,192,39310,1,2,0:0:0:0:
475,192,39489,1,0,0:0:0:0:
329,192,39489,1,8,0:0:0:0:
182,192,39489,1,0,0:0:0:0:
36,192,39668,1,0,0:0:0:0:
109,192,39757,1,0,0:0:0:0:
475,192,39846,1,2,0:0:0:0:
182,192,39846,1,0,0:0:0:0:
402,192,40025,1,2,0:0:0:0:
109,192,40025,1,0,0:0:0:0:
36,192,40203,1,0,0:0:0:0:
329,192,40203,1,8,0:0:0:0:
182,192,40203,1,0,0:0:0:0:
256,192,40382,1,4,0:0:0:0:
109,192,40382,1,0,0:0:0:0:
402,192,40382,1,2,0:0:0:0:
475,192,40382,128,0,41632:0:0:0:0:
329,192,40739,1,2,0:0:0:0:
182,192,40739,1,0,0:0:0:0:
109,192,40918,1,0,0:0:0:0:
256,192,40918,1,8,0:0:0:0:
402,192,40918,1,0,0:0:0:0:
329,192,41096,1,0,0:0:0:0:
182,192,41275,1,2,0:0:0:0:
36,192,41275,1,0,0:0:0:0:
329,192,41453,1,2,0:0:0:0:
402,192,41453,1,0,0:0:0:0:
182,192,41632,1,0,0:0:0:0:
109,192,41632,1,8,0:0:0:0:
36,192,41632,1,0,0:0:0:0:
256,192,41810,128,0,43060:0:0:0:0:
402,192,41810,1,2,0:0:0:0:
182,192,41989,1,0,0:0:0:0:
329,192,42168,1,2,0:0:0:0:
475,192,42168,1,0,0:0:0:0:
182,192,42346,1,8,0:0:0:0:
109,192,42346,1,0,0:0:0:0:
36,192,42346,1,0,0:0:0:0:
402,192,42525,1,0,0:0:0:0:
475,192,42703,1,0,0:0:0:0:
329,192,42703,1,2,0:0:0:0:
182,192,42882,1,2,0:0:0:0:
36,192,42882,1,0,0:0:0:0:
109,192,43060,1,0,0:0:0:0:
475,192,43060,1,0,0:0:0:0:
329,192,43060,1,8,0:0:0:0:
402,192,43239,128,0,44489:0:0:0:0:
182,192,43239,1,2,0:0:0:0:
329,192,43596,1,2,0:0:0:0:
475,192,43596,1,0,0:0:0:0:
256,192,43775,1,8,0:0:0:0:
182,192,43775,1,0,0:0:0:0:
36,192,43775,1,0,0:0:0:0:
329,192,43953,1,0,0:0:0:0:
36,192,44132,1,2,0:0:0:0:
475,192,44132,1,0,0:0:0:0:
329,192,44310,1,0,0:0:0:0:
182,192,44310,1,2,0:0:0:0:
256,192,44489,1,8,0:0:0:0:
36,192,44489,1,0,0:0:0:0:
475,192,44489,1,0,0:0:0:0:
329,192,44668,1,2,0:0:0:0:
182,192,44668,128,0,45203:0:0:0:0:
475,192,45025,1,0,0:0:0:0:
256,192,45025,1,4,0:0:0:0:
329,192,45025,1,0,0:0:0:0:
402,192,45203,1,0,0:0:0:0:
109,192,45203,1,4,0:0:0:0:
36,192,45203,1,0,0:0:0:0:
475,192,45382,128,0,46275:0:0:0:0:
256,192,45382,1,2,0:0:0:0:
182,192,45560,1,0,0:0:0:0:
109,192,45739,1,2,0:0:0:0:
402,192,45739,128,0,45918:0:0:0:0:
182,192,45918,1,8,0:0:0:0:
36,192,45918,1,0,0:0:0:0:
329,192,45918,128,0,46096:0:0:0:0:
109,192,46096,1,2,0:0:0:0:
256,192,46096,128,0,46275:0:0:0:0:
36,192,46275,1,0,0:0:0:0:
182,192,46275,1,2,0:0:0:0:
402,192,46275,1,4,0:0:0:0:
256,192,46632,1,2,0:0:0:0:
109,192,46632,1,0,0:0:0:0:
182,192,46810,1,0,0:0:0:0:
329,192,46810,1,2,0:0:0:0:
475,192,46810,1,0,0:0:0:0:
475,192,47168,1,0,0:0:0:0:
329,192,47168,1,2,0:0:0:0:
402,192,47346,1,0,0:0:0:0:
256,192,47346,1,2,0:0:0:0:
329,192,47525,1,2,0:0:0:0:
475,192,47525,1,0,0:0:0:0:
256,192,47614,1,2,0:0:0:0:
182,192,47703,1,2,0:0:0:0:
36,192,47703,1,0,0:0:0:0:
109,192,47882,1,2,0:0:0:0:
182,192,47971,1,2,0:0:0:0:
475,192,48060,1,2,0:0:0:0:
402,192,48150,1,2,0:0:0:0:
329,192,48239,1,2,0:0:0:0:
36,192,48239,128,0,49132:0:0:0:0:
182,192,48239,1,0,0:0:0:0:
109,192,48418,1,2,0:0:0:0:
475,192,48418,1,0,0:0:0:0:
256,192,48418,1,0,0:0:0:0:
402,192,48596,1,0,0:0:0:0:
182,192,48596,1,2,0:0:0:0:
329,192,48775,1,0,0:0:0:0:
256,192,48775,1,2,0:0:0:0:
475,192,48953,1,2,0:0:0:0:
109,192,49132,1,0,0:0:0:0:
402,192,49132,1,2,0:0:0:0:
256,192,49310,1,2,0:0:0:0:
329,192,49489,1,2,0:0:0:0:
182,192,49489,1,0,0:0:0:0:
256,192,49578,1,2,0:0:0:0:
402,192,49668,1,2,0:0:0:0:
36,192,49668,1,0,0:0:0:0:
109,192,49668,1,0,0:0:0:0:
475,192,50025,1,0,0:0:0:0:
256,192,50025,1,2,0:0:0:0:
402,192,50203,1,0,0:0:0:0:
182,192,50203,1,2,0:0:0:0:
329,192,50382,1,0,0:0:0:0:
109,192,50382,1,2,0:0:0:0:
36,192,50560,1,2,0:0:0:0:
256,192,50560,1,0,0:0:0:0:
475,192,50739,1,2,0:0:0:0:
329,192,50828,1,2,0:0:0:0:
182,192,50918,1,2,0:0:0:0:
36,192,50918,128,0,51275:0:0:0:0:
475,192,51096,1,2,0:0:0:0:
402,192,51275,1,2,0:0:0:0:
182,192,51275,128,0,51632:0:0:0:0:
109,192,51275,1,0,0:0:0:0:
256,192,51453,1,2,0:0:0:0:
329,192,51632,128,0,51989:0:0:0:0:
475,192,51632,128,0,51989:0:0:0:0:
36,192,51632,1,2,0:0:0:0:
182,192,51810,1,2,0:0:0:0:
109,192,51900,1,2,0:0:0:0:
109,192,52168,1,0,0:0:0:0:
402,192,52168,1,2,0:0:0:0:
329,192,52257,1,2,0:0:0:0:
182,192,52257,1,0,0:0:0:0:
256,192,52346,1,8,0:0:0:0:
36,192,52346,128,2,53060:0:0:0:0:
475,192,52346,128,4,53060:0:0:0:0:
402,192,52703,1,0,0:0:0:0:
109,192,52703,1,2,0:0:0:0:
329,192,52882,1,0,0:0:0:0:
182,192,52882,1,2,0:0:0:0:
256,192,53060,1,8,0:0:0:0:
109,192,53060,1,0,0:0:0:0:
402,192,53060,1,0,0:0:0:0:
256,192,53239,128,0,54489:0:0:0:0:
36,192,53239,1,2,0:0:0:0:
109,192,53596,1,0,0:0:0:0:
402,192,53596,1,2,0:0:0:0:
182,192,53775,1,0,0:0:0:0:
329,192,53775,1,8,0:0:0:0:
475,192,53775,1,0,0:0:0:0:
475,192,54132,1,0,0:0:0:0:
329,192,54132,1,2,0:0:0:0:
182,192,54310,1,2,0:0:0:0:
36,192,54310,1,0,0:0:0:0:
109,192,54489,1,8,0:0:0:0:
402,192,54489,1,0,0:0:0:0:
475,192,54489,1,0,0:0:0:0:
36,192,54846,128,0,55203:0:0:0:0:
475,192,54846,128,2,55203:0:0:0:0:
182,192,55025,1,0,0:0:0:0:
329,192,55025,1,2,0:0:0:0:
402,192,55203,1,0,0:0:0:0:
256,192,55203,1,8,0:0:0:0:
109,192,55203,1,0,0:0:0:0:
329,192,55382,128,2,55739:0:0:0:0:
182,192,55382,128,0,55739:0:0:0:0:
109,192,55739,1,0,0:0:0:0:
402,192,55739,1,2,0:0:0:0:
256,192,55918,1,8,0:0:0:0:
36,192,55918,1,0,0:0:0:0:
475,192,55918,1,0,0:0:0:0:
402,192,56096,128,2,57703:0:0:0:0:
109,192,56096,128,0,57703:0:0:0:0:
329,192,56453,1,2,0:0:0:0:
475,192,56453,1,0,0:0:0:0:
256,192,56632,1,8,0:0:0:0:
182,192,56632,1,0,0:0:0:0:
36,192,56632,1,0,0:0:0:0:
329,192,56989,1,2,0:0:0:0:
475,192,56989,1,0,0:0:0:0:
182,192,57168,1,2,0:0:0:0:
36,192,57168,1,0,0:0:0:0:
256,192,57346,1,8,0:0:0:0:
329,192,57346,1,0,0:0:0:0:
475,192,57346,1,0,0:0:0:0:
36,192,57703,1,0,0:0:0:0:
475,192,57703,1,0,0:0:0:0:
256,192,57703,1,8,0:0:0:0:
329,192,57882,1,2,0:0:0:0:
182,192,57882,1,0,0:0:0:0:
402,192,58060,1,0,0:0:0:0:
109,192,58060,1,0,0:0:0:0:
256,192,58060,1,8,0:0:0:0:
182,192,58239,1,2,0:0:0:0:
329,192,58239,1,0,0:0:0:0:
36,192,58418,1,0,0:0:0:0:
475,192,58418,1,0,0:0:0:0:
256,192,58418,1,8,0:0:0:0:
329,192,58596,1,2,0:0:0:0:
182,192,58596,1,0,0:0:0:0:
109,192,58685,1,0,0:0:0:0:
402,192,58685,1,2,0:0:0:0:
256,192,58775,1,8,0:0:0:0:
36,192,58775,1,0,0:0:0:0:
475,192,58775,1,0,0:0:0:0:
402,192,58953,1,0,0:0:0:0:
109,192,58953,1,0,0:0:0:0:
329,192,58953,1,2,0:0:0:0:
256,192,59310,1,0,0:0:0:0:
402,192,59310,1,2,0:0:0:0:
109,192,59310,1,0,0:0:0:0:
329,192,59489,1,2,0:0:0:0:
182,192,59489,1,0,0:0:0:0:
36,192,59489,1,0,0:0:0:0:
182,192,59846,1,0,0:0:0:0:
475,192,59846,1,2,0:0:0:0:
402,192,59846,1,0,0:0:0:0:
36,192,60025,1,0,0:0:0:0:
256,192,60025,1,0,0:0:0:0:
329,192,60025,1,2,0:0:0:0:
36,192,60382,1,0,0:0:0:0:
475,192,60382,1,2,0:0:0:0:
329,192,60471,1,2,0:0:0:0:
182,192,60471,1,0,0:0:0:0:
256,192,60560,1,8,0:0:0:0:
402,192,60560,1,0,0:0:0:0:
109,192,60560,1,0,0:0:0:0:
182,192,60739,1,0,0:0:0:0:
256,192,60739,1,8,0:0:0:0:
329,192,60739,1,0,0:0:0:0:
402,192,60918,1,0,0:0:0:0:
256,192,60918,1,8,0:0:0:0:
109,192,60918,1,0,0:0:0:0:
475,192,61096,1,0,0:0:0:0:
36,192,61096,1,0,0:0:0:0:
256,192,61096,1,8,0:0:0:0:
36,192,61632,1,0,0:0:0:0:
109,192,61677,1,0,0:0:0:0:
182,192,61721,1,0,0:0:0:0:
256,192,61766,1,0,0:0:0:0:
475,192,61810,1,0,0:0:0:0:
402,192,61855,1,0,0:0:0:0:
329,192,61900,1,0,0:0:0:0:
256,192,61944,1,0,0:0:0:0:
36,192,61989,128,0,63060:0:0:0:0:
182,192,61989,1,2,0:0:0:0:
475,192,61989,1,4,0:0:0:0:
109,192,61989,1,0,0:0:0:0:
329,192,62168,1,0,0:0:0:0:
475,192,62346,1,0,0:0:0:0:
256,192,62346,1,8,0:0:0:0:
109,192,62346,1,0,0:0:0:0:
402,192,62525,1,0,0:0:0:0:
182,192,62525,1,0,0:0:0:0:
475,192,62703,1,0,0:0:0:0:
329,192,62703,1,2,0:0:0:0:
256,192,62882,1,0,0:0:0:0:
402,192,62882,1,0,0:0:0:0:
182,192,63060,1,8,0:0:0:0:
109,192,63060,1,0,0:0:0:0:
329,192,63060,1,0,0:0:0:0:
475,192,63239,128,0,64846:0:0:0:0:
36,192,63239,1,0,0:0:0:0:
402,192,63239,1,0,0:0:0:0:
329,192,63418,1,2,0:0:0:0:
109,192,63418,1,0,0:0:0:0:
182,192,63596,1,0,0:0:0:0:
256,192,63596,1,0,0:0:0:0:
402,192,63775,1,0,0:0:0:0:
329,192,63775,1,8,0:0:0:0:
36,192,63775,1,0,0:0:0:0:
256,192,63953,1,0,0:0:0:0:
36,192,64132,1,0,0:0:0:0:
182,192,64132,1,2,0:0:0:0:
256,192,64310,1,0,0:0:0:0:
109,192,64310,1,0,0:0:0:0:
36,192,64489,1,0,0:0:0:0:
182,192,64489,1,8,0:0:0:0:
329,192,64489,1,0,0:0:0:0:
109,192,64668,1,0,0:0:0:0:
402,192,64668,1,0,0:0:0:0:
256,192,64846,128,0,65918:0:0:0:0:
329,192,64846,1,0,0:0:0:0:
36,192,64846,1,0,0:0:0:0:
182,192,64846,1,2,0:0:0:0:
109,192,65025,1,0,0:0:0:0:
402,192,65025,1,0,0:0:0:0:
182,192,65203,1,8,0:0:0:0:
329,192,65203,1,0,0:0:0:0:
475,192,65203,1,0,0:0:0:0:
402,192,65382,1,0,0:0:0:0:
109,192,65382,1,0,0:0:0:0:
36,192,65382,1,0,0:0:0:0:
182,192,65560,1,2,0:0:0:0:
329,192,65560,1,0,0:0:0:0:
109,192,65739,1,0,0:0:0:0:
402,192,65739,1,0,0:0:0:0:
475,192,65739,1,0,0:0:0:0:
329,192,65918,1,8,0:0:0:0:
36,192,65918,1,0,0:0:0:0:
182,192,65918,1,0,0:0:0:0:
475,192,66096,128,0,66810:0:0:0:0:
402,192,66096,1,0,0:0:0:0:
109,192,66096,1,0,0:0:0:0:
182,192,66275,1,0,0:0:0:0:
329,192,66275,1,2,0:0:0:0:
109,192,66453,1,0,0:0:0:0:
256,192,66453,128,0,66810:0:0:0:0:
182,192,66632,1,8,0:0:0:0:
402,192,66632,1,0,0:0:0:0:
36,192,66632,1,0,0:0:0:0:
329,192,66810,128,0,67346:0:0:0:0:
109,192,66810,1,0,0:0:0:0:
36,192,66989,1,2,0:0:0:0:
475,192,66989,1,0,0:0:0:0:
182,192,67168,128,0,67346:0:0:0:0:
402,192,67168,1,0,0:0:0:0:
36,192,67346,128,0,67703:0:0:0:0:
256,192,67346,1,0,0:0:0:0:
475,192,67346,1,8,0:0:0:0:
182,192,67525,128,0,67703:0:0:0:0:
256,192,67703,128,0,69132:0:0:0:0:
475,192,67703,1,2,0:0:0:0:
329,192,67703,1,0,0:0:0:0:
109,192,67703,1,0,0:0:0:0:
402,192,67882,1,0,0:0:0:30:soft-hitwhistle2.wav
109,192,67882,1,0,0:0:0:0:
329,192,68060,1,8,0:0:0:0:
182,192,68060,1,0,0:0:0:0:
36,192,68060,1,0,0:0:0:0:
109,192,68239,1,0,0:0:0:0:
402,192,68239,1,0,0:0:0:30:soft-hitwhistle2.wav
182,192,68418,1,0,0:0:0:0:
475,192,68418,1,2,0:0:0:0:
109,192,68596,1,0,0:0:0:0:
402,192,68596,1,0,0:0:0:30:soft-hitwhistle2.wav
36,192,68775,1,0,0:0:0:0:
329,192,68775,1,8,0:0:0:0:
182,192,68775,1,0,0:0:0:0:
109,192,68953,1,0,0:0:0:0:
402,192,68953,1,0,0:0:0:0:
475,192,68953,1,0,0:0:0:0:
182,192,69132,1,0,0:0:0:0:
36,192,69132,1,2,0:0:0:0:
329,192,69310,128,0,69668:0:0:0:0:
256,192,69310,1,0,0:0:0:30:soft-hitwhistle2.wav
475,192,69489,128,0,69668:0:0:0:0:
109,192,69489,1,8,0:0:0:0:
36,192,69489,1,0,0:0:0:0:
256,192,69668,128,0,70025:0:0:0:0:
182,192,69668,1,0,0:0:0:30:soft-hitwhistle2.wav
402,192,69846,128,0,70025:0:0:0:0:
36,192,69846,1,2,0:0:0:0:
182,192,70025,128,0,70382:0:0:0:0:
109,192,70025,1,0,0:0:0:30:soft-hitwhistle2.wav
329,192,70203,128,0,70382:0:0:0:0:
36,192,70203,1,8,0:0:0:0:
402,192,70203,1,0,0:0:0:0:
109,192,70382,128,0,70560:0:0:0:0:
475,192,70382,1,0,0:0:0:0:
182,192,70560,128,0,71275:0:0:0:0:
256,192,70560,1,2,0:0:0:0:
36,192,70560,1,0,0:0:0:0:
402,192,70560,128,0,71810:0:0:0:0:
329,192,70739,1,0,0:0:0:0:
475,192,70739,1,0,0:0:0:30:soft-hitwhistle2.wav
256,192,70918,1,0,0:0:0:0:
36,192,70918,1,0,0:0:0:0:
109,192,70918,1,8,0:0:0:0:
475,192,71096,1,0,0:0:0:0:
329,192,71096,1,0,0:0:0:30:soft-hitwhistle2.wav
109,192,71275,128,0,71810:0:0:0:0:
36,192,71275,1,0,0:0:0:0:
256,192,71275,1,2,0:0:0:0:
329,192,71453,1,0,0:0:0:30:soft-hitwhistle2.wav
182,192,71453,1,0,0:0:0:0:
36,192,71632,1,0,0:0:0:0:
256,192,71632,1,8,0:0:0:0:
475,192,71632,1,0,0:0:0:0:
36,192,71810,128,0,72168:0:0:0:0:
329,192,71810,1,2,0:0:0:0:
475,192,71810,128,0,72168:0:0:0:0:
182,192,71810,1,0,0:0:0:0:
256,192,72168,128,0,72346:0:0:0:0:
182,192,72168,1,0,0:0:0:0:
329,192,72346,128,0,72525:0:0:0:0:
475,192,72346,1,2,0:0:0:0:
36,192,72346,1,0,0:0:0:0:
402,192,72525,128,0,73060:0:0:0:0:
109,192,72525,128,0,73060:0:0:0:0:
182,192,72525,1,2,0:0:0:0:
256,192,72703,1,0,0:0:0:0:
182,192,72882,1,0,0:0:0:0:
329,192,72882,1,2,0:0:0:0:
475,192,73060,1,8,0:0:0:0:
256,192,73060,128,0,73418:0:0:0:0:
36,192,73060,1,4,0:0:0:0:
109,192,73239,128,0,73418:0:0:0:0:
402,192,73239,128,0,73418:0:0:0:0:
36,192,73418,128,0,74489:0:0:0:0:
182,192,73418,1,0,0:0:0:0:
329,192,73418,1,2,0:0:0:0:
475,192,73418,128,0,74489:0:0:0:0:
109,192,73596,1,0,0:0:0:0:
256,192,73596,1,0,0:0:0:0:
329,192,73775,1,8,0:0:0:0:
182,192,73775,1,0,0:0:0:0:
402,192,73775,1,0,0:0:0:0:
109,192,73953,1,0,0:0:0:0:
256,192,73953,1,0,0:0:0:0:
182,192,74132,1,2,0:0:0:0:
329,192,74132,1,0,0:0:0:0:
402,192,74310,1,0,0:0:0:0:
256,192,74310,1,0,0:0:0:0:
182,192,74489,1,0,0:0:0:0:
109,192,74489,1,8,0:0:0:0:
329,192,74489,1,0,0:0:0:0:
402,192,74668,1,0,0:0:0:0:
36,192,74668,1,0,0:0:0:0:
256,192,74668,128,0,75203:0:0:0:0:
182,192,74846,1,2,0:0:0:0:
475,192,74846,1,0,0:0:0:0:
109,192,75025,1,0,0:0:0:0:
329,192,75025,128,0,75203:0:0:0:0:
182,192,75203,1,8,0:0:0:0:
475,192,75203,128,0,75560:0:0:0:0:
36,192,75203,1,0,0:0:0:0:
329,192,75382,1,0,0:0:0:0:
109,192,75382,1,0,0:0:0:0:
36,192,75560,1,0,0:0:0:0:
402,192,75560,1,2,0:0:0:0:
256,192,75560,128,0,75918:0:0:0:0:
329,192,75739,1,0,0:0:0:0:
182,192,75739,1,0,0:0:0:0:
475,192,75918,1,8,0:0:0:0:
109,192,75918,128,0,76275:0:0:0:0:
402,192,75918,128,0,76275:0:0:0:0:
36,192,75918,1,0,0:0:0:0:
182,192,76096,128,0,76275:0:0:0:0:
329,192,76096,128,0,76275:0:0:0:0:
36,192,76275,128,0,76632:0:0:0:0:
475,192,76275,128,0,76632:0:0:0:0:
256,192,76275,128,4,76632:0:0:0:0:
109,192,76632,1,0,0:0:0:0:
402,192,76632,1,8,0:0:0:0:
329,192,76632,1,0,0:0:0:0:
329,192,76810,128,0,76989:0:0:0:0:
182,192,76810,128,0,76989:0:0:0:0:
36,192,76810,128,0,76989:0:0:0:0:
109,192,77168,128,0,77346:0:0:0:0:
256,192,77168,128,0,77346:0:0:0:0:
402,192,77168,128,0,77346:0:0:0:0:
36,192,77346,1,0,0:0:0:0:
182,192,77346,1,8,0:0:0:0:
329,192,77346,1,0,0:0:0:0:
182,192,77525,128,0,77882:0:0:0:0:
329,192,77525,128,0,77882:0:0:0:0:
475,192,77525,128,0,77882:0:0:0:0:
109,192,77525,1,2,0:0:0:0:
402,192,77882,1,2,0:0:0:0:
109,192,77882,1,0,0:0:0:0:
329,192,78060,1,8,0:0:0:0:
182,192,78060,1,0,0:0:0:0:
36,192,78060,1,0,0:0:0:0:
256,192,78239,1,0,0:0:0:0:
329,192,78418,1,2,0:0:0:0:
182,192,78418,1,0,0:0:0:0:
402,192,78596,1,2,0:0:0:0:
109,192,78596,1,0,0:0:0:0:
36,192,78775,128,0,79132:0:0:0:0:
475,192,78775,128,0,79132:0:0:0:0:
256,192,78775,128,8,79132:0:0:0:0:
109,192,79132,128,0,81275:0:0:0:0:
402,192,79132,1,0,0:0:0:0:
182,192,79132,1,4,0:0:0:0:
329,192,79132,1,2,0:0:0:0:
402,192,79310,1,0,0:0:0:0:
256,192,79310,1,0,0:0:0:0:
36,192,79489,1,8,0:0:0:0:
475,192,79489,128,0,79668:0:0:0:0:
329,192,79489,128,0,79668:0:0:0:0:
182,192,79668,1,0,0:0:0:0:
402,192,79846,1,0,0:0:0:0:
256,192,79846,1,2,0:0:0:0:
182,192,80025,1,0,0:0:0:0:
329,192,80025,128,0,80203:0:0:0:0:
475,192,80025,128,0,80203:0:0:0:0:
402,192,80203,1,0,0:0:0:0:
256,192,80203,1,0,0:0:0:0:
36,192,80203,1,8,0:0:0:0:
182,192,80382,1,0,0:0:0:0:
256,192,80560,1,2,0:0:0:0:
475,192,80560,1,0,0:0:0:0:
182,192,80739,1,0,0:0:0:0:
402,192,80739,1,0,0:0:0:0:
36,192,80918,1,8,0:0:0:0:
329,192,80918,128,0,81096:0:0:0:0:
475,192,80918,128,0,81096:0:0:0:0:
182,192,81096,1,0,0:0:0:0:
256,192,81096,128,0,81275:0:0:0:0:
402,192,81096,128,0,81275:0:0:0:0:
36,192,81275,1,2,0:0:0:0:
475,192,81275,1,0,0:0:0:0:
182,192,81453,1,0,0:0:0:0:
329,192,81453,128,0,81632:0:0:0:0:
475,192,81453,128,0,81632:0:0:0:0:
36,192,81632,1,8,0:0:0:0:
256,192,81632,1,0,0:0:0:0:
402,192,81632,1,0,0:0:0:0:
109,192,81810,1,0,0:0:0:0:
475,192,81989,128,0,84132:0:0:0:0:
182,192,81989,1,0,0:0:0:0:
329,192,81989,1,4,0:0:0:0:
36,192,81989,1,2,0:0:0:0:
256,192,82168,1,0,0:0:0:0:
109,192,82168,1,0,0:0:0:0:
329,192,82346,1,8,0:0:0:0:
36,192,82346,128,0,82525:0:0:0:0:
182,192,82346,128,0,82525:0:0:0:0:
402,192,82525,1,0,0:0:0:0:
109,192,82703,1,0,0:0:0:0:
256,192,82703,1,2,0:0:0:0:
329,192,82882,1,0,0:0:0:0:
36,192,82882,128,0,83060:0:0:0:0:
182,192,82882,128,0,83060:0:0:0:0:
402,192,83060,1,8,0:0:0:0:
109,192,83060,128,0,83239:0:0:0:0:
256,192,83060,128,0,83239:0:0:0:0:
329,192,83239,1,0,0:0:0:0:
182,192,83418,1,0,0:0:0:0:
402,192,83418,1,2,0:0:0:0:
256,192,83596,1,0,0:0:0:0:
109,192,83596,1,0,0:0:0:0:
402,192,83775,1,8,0:0:0:0:
36,192,83775,128,0,83953:0:0:0:0:
182,192,83775,128,0,83953:0:0:0:0:
329,192,83953,1,0,0:0:0:0:
256,192,84132,1,2,0:0:0:0:
109,192,84132,1,0,0:0:0:0:
182,192,84310,1,0,0:0:0:0:
402,192,84310,1,0,0:0:0:0:
475,192,84489,1,8,0:0:0:0:
36,192,84489,1,0,0:0:0:0:
256,192,84489,1,0,0:0:0:0:
402,192,84668,1,2,0:0:0:0:
109,192,84668,1,0,0:0:0:0:
329,192,84846,1,2,0:0:0:0:
256,192,84846,128,0,87346:0:0:0:0:
182,192,84846,1,0,0:0:0:0:
36,192,85025,1,0,0:0:0:30:soft-hitwhistle2.wav
329,192,85203,1,2,0:0:0:0:
475,192,85203,1,0,0:0:0:0:
182,192,85382,1,0,0:0:0:30:soft-hitwhistle2.wav
109,192,85560,1,0,0:0:0:0:
475,192,85560,1,0,0:0:0:0:
402,192,85739,1,0,0:0:0:30:soft-hitwhistle2.wav
329,192,85918,1,2,0:0:0:0:
36,192,85918,1,0,0:0:0:0:
109,192,86096,1,0,0:0:0:30:soft-hitwhistle2.wav
182,192,86275,1,0,0:0:0:0:
475,192,86275,1,2,0:0:0:0:
402,192,86453,1,0,0:0:0:30:soft-hitwhistle2.wav
329,192,86632,1,2,0:0:0:0:
109,192,86632,1,0,0:0:0:0:
182,192,86810,1,0,0:0:0:30:soft-hitwhistle2.wav
329,192,86989,1,2,0:0:0:0:
475,192,86989,1,0,0:0:0:0:
402,192,87168,1,0,0:0:0:30:soft-hitwhistle2.wav
36,192,87346,1,0,0:0:0:30:soft-hitwhistle2.wav
475,192,87346,1,0,0:0:0:0:
109,192,87391,1,0,0:0:0:30:soft-hitwhistle2.wav
182,192,87435,1,0,0:0:0:30:soft-hitwhistle2.wav
256,192,87480,1,0,0:0:0:30:soft-hitwhistle2.wav
475,192,87525,1,0,0:0:0:30:soft-hitwhistle2.wav
402,192,87569,1,0,0:0:0:30:soft-hitwhistle2.wav
329,192,87614,1,0,0:0:0:30:soft-hitwhistle2.wav
256,192,87659,1,0,0:0:0:30:soft-hitwhistle2.wav
182,192,87703,128,0,89310:0:0:0:30:soft-hitwhistle2.wav
36,192,87703,128,0,89310:0:0:0:0:
