osu file format v14

[General]
AudioFilename: Ao no Kanata no Four Rhythmtvop.mp3
AudioLeadIn: 0
PreviewTime: 61293
Countdown: 0
SampleSet: Soft
StackLeniency: 0.7
Mode: 0
LetterboxInBreaks: 0
WidescreenStoryboard: 1

[Editor]
Bookmarks: 609,6323,12037,23466,29001,34894,40430,46323,49716,52394,57751,62037,79180,84894,87751
DistanceSpacing: 2.6
BeatDivisor: 16
GridSize: 8
TimelineZoom: 5.299997

[Metadata]
Title:Contrail ~Kiseki~
TitleUnicode:Contrail~軌跡~
Artist:Mami Kawada
ArtistUnicode:川田まみ
Creator:ByBy
Version:Sotarks' Take Flight
Source:蒼の彼方のフォーリズム
Tags:ao no kanata four rhythm beyond the sky into the firmament sprite opening op tv size collab collaboration wajinshu Dream117er m1223961117 MkGuh Starset HB24 Sotarks DeRandom Otaku ByBy_ChAn ByBy13
BeatmapID:1439146
BeatmapSetID:425986

[Difficulty]
HPDrainRate:7
CircleSize:4.2
OverallDifficulty:8
ApproachRate:9.2
SliderMultiplier:1.7
SliderTickRate:1

[Events]
//Background and Video events
Video,180,"optc.flv"
0,0,"BGSotarks2.jpg",0,0
//Break Periods
//Storyboard Layer 0 (Background)
//Storyboard Layer 1 (Fail)
//Storyboard Layer 2 (Pass)
//Storyboard Layer 3 (Foreground)
//Storyboard Sound Samples

[TimingPoints]
609,357.142857142857,4,2,69,50,1,0
609,-166.666666666667,4,2,69,50,0,0
3376,-166.666666666667,4,2,69,5,0,0
3466,-166.666666666667,4,2,69,50,0,0
6233,-166.666666666667,4,2,69,5,0,0
6323,-125,4,2,69,60,0,0
9805,-125,4,2,69,5,0,0
9894,-125,4,2,69,60,0,0
11948,-125,4,2,69,30,0,0
12037,-100,4,2,69,70,0,0
14805,-100,4,2,69,5,0,0
14894,-100,4,2,69,70,0,0
20519,-100,4,2,69,5,0,0
20608,-100,4,2,69,70,0,0
23466,-166.666666666667,4,2,69,50,0,0
29001,-125,4,2,69,65,0,0
34894,-125,4,2,69,55,0,0
35162,-125,4,2,69,5,0,0
35251,-125,4,2,69,55,0,0
39805,-125,4,2,69,5,0,0
39894,-125,4,2,69,55,0,0
40430,-125,4,2,69,65,0,0
46323,-142.857142857143,4,2,69,50,0,0
52394,-111.111111111111,4,2,69,70,0,0
56948,-111.111111111111,4,2,69,5,0,0
57037,-100,4,2,69,75,0,0
57305,-100,4,2,69,5,0,0
57394,-90.9090909090909,4,2,69,80,0,0
57662,-90.9090909090909,4,2,69,5,0,0
57751,-100,4,2,69,80,0,0
62037,-100,4,2,69,80,0,1
65162,-100,4,2,69,5,0,1
65251,-100,4,2,69,80,0,1
76591,-100,4,2,69,5,0,1
76680,-100,4,2,69,80,0,1
79180,-125,4,2,69,70,0,0
81948,-125,4,2,69,5,0,0
82037,-125,4,2,69,70,0,0
84894,-166.666666666667,4,2,69,50,0,0
87722,-166.666666666667,4,2,69,40,0,0

[Colours]
Combo1 : 145,247,188
Combo2 : 206,170,138
Combo3 : 255,132,135
Combo4 : 104,134,253
SliderBorder : 249,239,205
SliderTrackOverride : 59,69,71

[HitObjects]
208,184,609,5,2,0:0:0:0:
232,184,966,1,0,0:0:0:0:
296,56,1144,5,2,0:0:0:0:
312,64,1501,1,0,0:0:0:0:
352,184,1858,5,2,0:0:0:0:
200,88,2216,1,0,0:0:0:0:
304,257,2573,2,0,P|344:272|426:137,1,229.499992996216,2|0,0:0|0:0,0:0:0:0:
416,120,3466,5,2,0:0:0:0:
208,184,4001,1,2,0:0:0:0:
192,200,4358,1,0,0:0:0:0:
232,56,4716,5,2,0:0:0:0:
352,184,5073,1,0,0:0:0:0:
147,105,5430,2,0,P|86:197|156:300,1,229.499992996216,2|0,0:0|0:0,0:0:0:0:
166,318,6323,5,4,0:0:0:0:
291,280,6501,1,0,0:0:0:0:
304,144,6680,2,0,B|264:152|200:184,1,102,2|0,0:0|0:0,0:0:0:0:
192,200,7037,1,0,0:0:0:0:
384,248,7216,1,0,0:0:0:0:
232,72,7573,5,0,0:0:0:0:
216,96,7930,1,0,0:0:0:0:
352,128,8108,1,2,0:0:0:0:
216,184,8287,1,0,0:0:0:0:
352,224,8466,1,0,0:0:0:0:
216,320,8644,1,0,0:0:0:0:
200,328,9001,5,0,0:0:0:0:
200,328,9091,1,0,0:0:0:0:
200,328,9180,1,0,0:0:0:0:
120,216,9358,1,0,0:0:0:0:
120,216,9537,2,0,B|128:176|128:176|176:120,1,102,2|0,0:0|0:0,0:0:0:0:
192,112,9894,1,0,0:0:0:0:
360,224,10073,1,0,0:0:0:0:
72,112,10430,5,8,0:0:0:0:
376,192,10787,5,8,0:0:0:0:
120,216,10966,1,8,0:0:0:0:
320,88,11144,1,8,0:0:0:0:
296,104,11501,6,0,L|288:144,1,34
223,290,11680,2,0,P|207:258|135:210,1,102,8|0,0:0|0:0,0:0:0:0:
120,192,12037,5,4,0:0:0:0:
123,330,12216,1,0,0:0:0:0:
232,144,12394,1,8,0:0:0:0:
336,240,12573,1,0,0:0:0:0:
143,103,12751,1,0,3:0:0:0:
216,248,12930,1,0,0:0:0:0:
272,56,13108,1,8,0:0:0:0:
352,200,13287,1,0,0:0:0:0:
130,196,13466,2,0,P|155:181|221:166,1,85,0|0,3:0|0:0,0:0:0:0:
399,134,13823,2,0,P|362:125|287:125,1,85,8|0,0:0|0:0,0:0:0:0:
220,257,14180,1,0,3:0:0:0:
244,67,14358,1,0,0:0:0:0:
302,284,14537,2,0,L|175:273,1,127.5,8|0,0:0|0:0,0:0:0:0:
143,269,14894,5,0,3:0:0:0:
237,173,15073,1,0,0:0:0:0:
262,357,15251,1,8,0:0:0:0:
116,265,15430,1,0,0:0:0:0:
317,200,15608,1,0,3:0:0:0:
197,276,15787,1,0,0:0:0:0:
300,115,15966,2,0,P|339:120|394:143,1,85,8|0,0:0|0:0,0:0:0:0:
201,199,16323,2,0,P|191:149|190:103,1,85,0|0,3:0|0:0,0:0:0:0:
314,216,16680,2,0,P|308:285|292:331,2,85,8|0|0,0:0|0:0|3:0,0:0:0:0:
187,94,17216,1,0,0:0:0:0:
377,147,17394,2,0,P|339:133|285:129,1,85,8|0,0:0|0:0,0:0:0:0:
256,142,17662,1,0,3:0:0:0:
224,169,17751,5,4,3:2:0:0:
378,292,17930,1,0,0:0:0:0:
207,260,18108,1,8,0:0:0:0:
400,192,18287,1,0,0:0:0:0:
196,267,18466,1,0,3:0:0:0:
294,128,18644,1,0,0:0:0:0:
275,346,18823,1,8,0:0:0:0:
391,198,19001,1,0,0:0:0:0:
182,188,19180,2,0,P|110:172|76:157,1,85,0|0,3:0|0:0,0:0:0:0:
284,41,19537,2,0,P|352:64|380:81,1,85,8|0,0:0|0:0,0:0:0:0:
360,228,19894,1,0,3:0:0:0:
292,121,20073,1,0,0:0:0:0:
437,199,20251,2,0,B|441:246|436:280|436:280|405:327,1,127.5,8|0,0:0|0:0,0:0:0:0:
393,347,20608,5,8,0:0:0:0:
256,160,20787,1,8,0:0:0:0:
411,341,21144,5,8,0:0:0:0:
216,160,21323,1,8,0:0:0:0:
424,320,21680,5,8,0:0:0:0:
180,161,21859,1,8,0:0:0:0:
432,296,22216,5,8,0:0:0:0:
136,162,22395,1,8,0:0:0:0:
288,312,22573,1,0,3:0:0:0:
288,312,22662,1,0,3:0:0:0:
288,312,22751,1,0,3:0:0:0:
430,84,22930,1,8,0:0:0:0:
512,285,23108,1,8,0:0:0:0:
232,148,23466,5,4,0:0:0:0:
232,148,23644,1,0,0:0:0:0:
128,216,23823,2,0,P|167:223|195:223,1,50.9999984436036
322,216,24180,2,0,P|283:223|255:223,1,50.9999984436036
126,133,24537,1,2,0:0:0:0:
126,133,24716,1,0,0:0:0:0:
126,133,24894,2,0,P|77:164|47:200,1,101.999996887207,2|0,0:0|0:0,0:0:0:0:
147,242,25430,2,0,P|195:232|255:237,1,101.999996887207,2|0,0:0|0:0,0:0:0:0:
333,158,25966,2,0,L|351:227,1,50.9999984436036,2|0,0:0|0:0,0:0:0:0:
394,94,26323,6,0,P|350:77|292:70,1,101.999996887207,2|0,0:0|0:0,0:0:0:0:
232,136,26858,2,0,P|180:143|126:129,1,101.999996887207,2|0,0:0|0:0,0:0:0:0:
64,56,27394,1,2,0:0:0:0:
40,176,27573,1,2,0:0:0:0:
184,72,27751,2,0,L|224:32,1,50.9999984436036
232,136,28108,2,0,L|280:176,1,50.9999984436036,0|0,0:0|0:0,0:0:0:0:
192,216,28466,2,0,L|168:272,1,50.9999984436036,0|0,0:0|0:0,0:0:0:0:
135,135,28823,1,8,0:0:0:0:
288,264,29001,5,4,0:0:0:0:
304,280,29358,1,0,0:0:0:0:
360,136,29537,1,8,0:0:0:0:
392,232,29716,1,0,0:0:0:0:
240,136,29894,1,2,0:0:0:0:
208,232,30073,1,2,0:0:0:0:
304,64,30251,1,8,0:0:0:0:
303,280,30430,2,0,P|270:318|190:340,1,136,2|2,0:0|0:0,0:0:0:0:
95,160,30966,2,0,P|146:169|175:184,1,68,8|0,0:0|0:0,0:0:0:0:
217,256,31323,1,2,0:0:0:0:
280,120,31501,1,2,0:0:0:0:
110,241,31680,1,8,0:0:0:0:
352,184,31858,5,0,0:0:0:0:
368,200,32216,1,2,0:0:0:0:
216,134,32394,1,8,0:0:0:0:
264,216,32573,1,0,0:0:0:0:
387,108,32751,1,0,0:0:0:0:
368,200,32930,1,2,0:0:0:0:
290,64,33108,1,8,0:0:0:0:
332,288,33287,2,0,P|283:314|198:289,1,136,2|0,0:0|0:0,0:0:0:0:
296,88,33823,1,8,0:0:0:0:
264,216,34001,2,0,B|208:216|176:224|176:224|120:208,1,136,2|0,0:0|0:0,0:0:0:0:
272,336,34537,1,10,0:0:0:0:
192,144,34716,1,0,0:0:0:0:
396,266,34894,6,0,B|370:190|396:143,1,102,6|0,0:0|0:0,0:0:0:0:
394,130,35251,1,8,0:0:0:0:
304,264,35430,1,0,0:0:0:0:
464,184,35608,1,2,0:0:0:0:
464,184,35787,1,2,0:0:0:0:
219,121,35966,2,0,P|204:169|207:211,1,68,8|0,0:0|0:0,0:0:0:0:
236,288,36233,1,0,0:0:0:0:
253,318,36323,2,0,P|204:306|132:326,1,102,2|0,0:0|0:0,0:0:0:0:
132,330,36680,1,8,0:0:0:0:
304,264,36858,1,0,0:0:0:0:
168,224,37037,1,2,0:0:0:0:
168,224,37216,1,2,0:0:0:0:
270,341,37394,2,0,P|308:341|362:318,1,68,8|0,0:0|0:0,0:0:0:0:
427,215,37662,1,0,0:0:0:0:
410,245,37751,6,0,P|337:263|295:247,1,102,2|0,0:0|0:0,0:0:0:0:
292,236,38108,1,8,0:0:0:0:
456,328,38287,1,0,0:0:0:0:
364,173,38466,1,2,0:0:0:0:
364,173,38644,1,2,0:0:0:0:
250,297,38823,2,0,P|226:318|184:328,1,68,8|0,0:0|0:0,0:0:0:0:
251,125,39180,1,2,0:0:0:0:
184,248,39358,1,2,0:0:0:0:
330,130,39537,2,0,B|327:94|327:94|271:31,1,102,8|0,0:0|0:0,0:0:0:0:
253,33,39894,1,2,0:0:0:0:
384,34,40073,1,2,0:0:0:0:
429,192,40251,1,8,0:0:0:0:
248,120,40430,5,4,0:0:0:0:
232,128,40787,1,2,0:0:0:0:
200,288,40966,1,8,0:0:0:0:
280,232,41144,1,0,0:0:0:0:
136,176,41323,1,2,0:0:0:0:
72,288,41501,1,2,0:0:0:0:
16,128,41680,1,8,0:0:0:0:
168,48,41858,2,0,B|216:56|216:56|260:32|320:40,1,136,2|2,0:0|0:0,0:0:0:0:
303,194,42394,2,0,P|285:166|278:133,1,68,8|0,0:0|0:0,0:0:0:0:
416,200,42751,1,2,0:0:0:0:
416,200,42930,1,2,0:0:0:0:
200,152,43108,1,8,0:0:0:0:
388,121,43287,6,0,B|437:120|437:120|476:138|500:185,1,136,2|2,0:0|0:0,0:0:0:0:
424,320,43823,1,8,0:0:0:0:
416,200,44001,1,0,0:0:0:0:
384,288,44180,1,2,0:0:0:0:
320,152,44358,1,2,0:0:0:0:
288,320,44537,1,8,0:0:0:0:
246,124,44716,2,0,L|402:117,1,136,2|0,0:0|0:0,0:0:0:0:
264,320,45251,1,8,0:0:0:0:
158,91,45430,2,0,P|171:170|207:222,1,136,2|2,0:0|0:0,0:0:0:0:
376,256,45966,1,8,0:0:0:0:
327,69,46144,1,0,0:0:0:0:
200,240,46323,5,4,0:0:0:0:
192,224,46680,1,0,0:0:0:0:
120,80,46858,5,2,0:0:0:0:
136,64,47216,1,2,0:0:0:0:
224,112,47394,1,0,0:0:0:0:
296,40,47573,1,0,0:0:0:0:
384,136,47751,1,2,0:0:0:0:
304,208,47930,1,0,0:0:0:0:
304,208,48019,1,2,0:0:0:0:
304,208,48108,1,0,0:0:0:0:
224,112,48287,1,2,0:0:0:0:
120,128,48466,1,2,0:0:0:0:
208,120,48644,1,0,0:0:0:0:
104,136,48823,1,0,0:0:0:0:
299,150,49001,1,0,0:0:0:0:
299,150,49180,6,0,P|305:110|253:34,1,118.999996368408,2|0,0:0|0:0,0:0:0:0:
27,100,49716,2,0,P|21:140|73:216,1,118.999996368408,2|2,0:0|0:0,0:0:0:0:
132,264,50251,1,2,0:0:0:0:
219,178,50430,1,0,0:0:0:0:
210,319,50608,1,2,0:0:0:0:
329,216,50787,1,0,0:0:0:0:
329,216,50876,1,0,0:0:0:0:
329,216,50966,1,0,0:0:0:0:
254,59,51144,1,0,0:0:0:0:
436,135,51323,1,2,0:0:0:0:
292,138,51501,1,0,0:0:0:0:
409,45,51680,1,0,0:0:0:0:
233,64,52216,6,0,L|276:26,1,29.7499990921021,2|2,0:0|0:0,0:0:0:0:
409,45,52394,6,0,L|241:45,1,152.999995330811,4|2,0:0|0:0,0:0:0:0:
128,168,52930,1,2,0:0:0:0:
312,128,53108,1,8,0:0:0:0:
133,93,53287,6,0,P|94:157|93:242,1,152.999995330811,4|0,0:0|0:0,0:0:0:0:
240,135,53823,2,0,B|312:93|317:174|413:113,1,152.999995330811,8|2,0:0|0:0,0:0:0:0:
277,210,54358,1,2,0:0:0:0:
350,39,54537,1,8,0:0:0:0:
350,23,54894,5,4,0:0:0:0:
358,209,55073,1,0,0:0:0:0:
233,27,55251,1,8,0:0:0:0:
232,208,55430,5,4,0:0:0:0:
216,216,55787,1,0,0:0:0:0:
405,137,55966,1,8,0:0:0:0:
178,136,56144,5,2,0:0:0:0:
186,122,56501,1,0,0:0:0:0:
354,243,56680,6,0,P|379:212|375:135,1,114.749996498108,8|0,0:0|0:0,0:0:0:0:
302,76,57037,6,0,P|233:75|186:135,1,127.5,2|0,0:0|0:0,0:0:0:0:
185,206,57394,6,0,P|215:262|287:283,1,140.25000428009,8|0,0:0|0:0,0:0:0:0:
354,243,57751,5,12,0:0:0:0:
18,155,57930,1,0,0:0:0:0:
354,51,58108,5,8,0:0:0:0:
50,243,58287,1,0,0:0:0:0:
410,147,58466,5,8,0:0:0:0:
50,67,58644,1,0,0:0:0:0:
50,67,58733,1,0,0:0:0:0:
50,67,58823,1,8,0:0:0:0:
354,243,59001,5,4,0:0:0:0:
81,286,59358,1,2,0:0:0:0:
361,238,59536,1,2,0:0:0:0:
73,182,59894,5,2,0:0:0:0:
353,230,60072,1,2,0:0:0:0:
83,166,60430,5,2,0:0:0:0:
83,166,60519,1,2,0:0:0:0:
83,166,60608,1,0,1:0:0:0:
392,208,60787,1,0,1:0:0:0:
120,264,60966,1,0,1:0:0:0:
392,112,61144,1,0,1:0:0:0:
280,240,61323,5,0,0:0:0:0:
384,88,61501,1,2,0:0:0:0:
312,224,61680,1,0,0:0:0:0:
352,104,61858,1,2,0:0:0:0:
200,224,62037,6,0,P|216:290|310:316,1,170,4|8,0:0|0:0,0:0:0:0:
352,104,62573,1,0,0:0:0:0:
280,240,62751,2,0,P|329:249|372:246,1,85,0|2,3:0|0:0,0:0:0:0:
216,144,63108,2,0,P|173:147|128:160,1,85,8|0,0:0|0:0,0:0:0:0:
89,262,63376,1,0,0:0:0:0:
83,288,63466,2,0,P|121:265|171:256,1,85,0|0,3:0|0:0,0:0:0:0:
254,72,63823,1,8,0:0:0:0:
248,256,64001,1,2,0:0:0:0:
110,138,64180,1,0,3:0:0:0:
264,240,64358,1,2,0:0:0:0:
351,75,64537,1,8,0:0:0:0:
341,258,64716,5,0,0:0:0:0:
341,258,64805,1,0,0:0:0:0:
341,258,64894,2,0,P|303:311|215:296,1,127.5,0|0,3:0|0:0,0:0:0:0:
211,300,65251,1,8,0:0:0:0:
174,110,65430,1,0,0:0:0:0:
264,240,65608,1,0,3:0:0:0:
263,56,65787,1,2,0:0:0:0:
180,278,65966,1,8,0:0:0:0:
328,149,66144,2,0,L|408:109,1,85,2|0,0:0|3:0,0:0:0:0:
221,56,66501,1,0,0:0:0:0:
392,200,66680,1,8,0:0:0:0:
384,40,66858,2,0,L|307:78,1,85,0|0,0:0|3:0,0:0:0:0:
264,232,67216,1,2,0:0:0:0:
404,110,67394,1,8,0:0:0:0:
272,144,67573,1,2,0:0:0:0:
447,344,67751,6,0,B|457:303|432:260|432:260|395:249|379:200,1,170,4|8,0:0|0:0,0:0:0:0:
304,336,68287,1,2,0:0:0:0:
462,182,68466,1,0,0:0:0:0:
312,88,68644,1,2,0:0:0:0:
304,312,68823,1,8,0:0:0:0:
392,102,69001,2,0,P|376:38|273:16,1,170,4|2,0:0|0:0,0:0:0:0:
128,200,69537,1,8,0:0:0:0:
312,88,69716,1,2,0:0:0:0:
136,160,69894,1,0,0:0:0:0:
296,128,70073,1,2,0:0:0:0:
160,128,70251,1,8,0:0:0:0:
259,155,70430,1,2,0:0:0:0:
79,100,70608,5,4,0:0:0:0:
208,16,70787,1,2,0:0:0:0:
210,220,70966,2,0,P|274:236|298:228,1,85,8|2,0:0|0:0,0:0:0:0:
416,110,71323,1,0,3:0:0:0:
259,155,71501,1,2,0:0:0:0:
420,284,71680,1,8,0:0:0:0:
299,84,71858,2,0,P|233:77|177:165,1,170,4|0,0:0|0:0,0:0:0:0:
264,336,72394,1,8,0:0:0:0:
339,155,72573,2,0,P|378:101|329:8,1,170,4|0,0:0|0:0,0:0:0:0:
144,80,73108,1,8,0:0:0:0:
280,232,73287,5,0,0:0:0:0:
280,232,73376,1,0,0:0:0:0:
280,232,73466,2,0,B|367:264|371:189|480:244,1,170,4|8,0:0|0:0,0:0:0:0:
327,148,74001,1,0,0:0:0:0:
414,322,74180,1,0,3:0:0:0:
451,217,74358,1,2,0:0:0:0:
251,321,74537,1,8,0:0:0:0:
512,198,74716,2,0,P|430:181|327:199,1,170,2|0,0:0|0:0,0:0:0:0:
155,134,75251,2,0,P|185:129|248:133,1,85,8|0,0:0|0:0,0:0:0:0:
469,112,75608,2,0,P|437:105|377:109,1,85,0|2,3:0|0:0,0:0:0:0:
202,201,75966,1,8,0:0:0:0:
423,182,76144,1,2,0:0:0:0:
196,115,76323,6,0,B|98:111|98:111|105:149,1,127.5,4|0,0:0|0:0,0:0:0:0:
108,166,76680,1,8,0:0:0:0:
144,320,76858,1,2,0:0:0:0:
149,299,77216,5,2,0:0:0:0:
220,91,77394,1,8,0:0:0:0:
368,296,77573,1,4,0:0:0:0:
384,312,77930,5,0,3:0:0:0:
457,93,78108,1,8,0:0:0:0:
336,192,78287,1,0,0:0:0:0:
480,248,78466,1,2,0:0:0:0:
259,280,78644,1,0,0:0:0:0:
303,68,78823,1,8,0:0:0:0:
384,312,79001,1,0,0:0:0:0:
127,274,79180,6,0,B|160:280|197:265|197:265|233:282|284:281,1,136,4|8,0:0|0:0,0:0:0:0:
144,192,79716,1,0,0:0:0:0:
144,192,79894,2,0,P|140:152|144:112,1,68,0|2,3:0|0:0,0:0:0:0:
259,67,80251,2,0,P|259:104|253:139,1,68,8|2,0:0|0:0,0:0:0:0:
344,232,80608,2,0,B|360:200|368:152|368:152|400:192,1,136,0|8,3:0|0:0,0:0:0:0:
376,320,81144,1,0,0:0:0:0:
376,320,81323,2,0,P|336:328|296:320,1,68,0|2,3:0|0:0,0:0:0:0:
216,232,81680,2,0,P|182:228|128:264,1,102,8|0,0:0|0:0,0:0:0:0:
127,264,82037,6,0,P|136:216|120:128,1,136,4|8,0:0|0:0,0:0:0:0:
224,40,82573,1,0,0:0:0:0:
224,40,82751,2,0,L|216:120,1,68,0|2,3:0|0:0,0:0:0:0:
328,200,83108,2,0,L|321:132,1,68,8|0,0:0|0:0,0:0:0:0:
385,38,83466,2,0,P|417:70|425:174,1,136,0|8,3:0|0:0,0:0:0:0:
374,318,84001,2,0,P|342:286|334:182,1,136,0|0,0:0|0:0,0:0:0:0:
168,296,84537,1,8,0:0:0:0:
421,232,84716,1,0,0:0:0:0:
216,152,84894,6,0,L|192:104,1,50.9999984436036,0|0,0:0|0:0,0:0:0:0:
264,96,85251,2,0,L|288:48,1,50.9999984436036,0|0,0:0|0:0,0:0:0:0:
336,104,85608,2,0,L|385:90,1,50.9999984436036
385,163,85966,2,0,L|434:175,1,50.9999984436036,0|0,0:0|0:0,0:0:0:0:
368,248,86323,5,0,0:0:0:0:
168,72,86680,1,0,0:0:0:0:
224,328,87037,1,0,0:0:0:0:
344,88,87394,6,0,L|356:91,11,8.49999974060059,0|0|0|0|0|0|0|0|0|0|0|2,0:0|0:0|0:0|0:0|0:0|0:0|0:0|0:0|0:0|0:0|0:0|0:0,0:0:0:0:
