osu file format v14

[General]
AudioFilename: Ao no Kanata no Four Rhythmtvop.mp3
AudioLeadIn: 0
PreviewTime: 61293
Countdown: 0
SampleSet: Soft
StackLeniency: 0.2
Mode: 0
LetterboxInBreaks: 0
WidescreenStoryboard: 1

[Editor]
Bookmarks: 23466,34894,62037,73466,84894
DistanceSpacing: 2
BeatDivisor: 4
GridSize: 4
TimelineZoom: 4.599998

[Metadata]
Title:Contrail ~Kiseki~
TitleUnicode:Contrail~軌跡~
Artist:Mami Kawada
ArtistUnicode:川田まみ
Creator:ByBy
Version:RenBy's Insane
Source:蒼の彼方のフォーリズム
Tags:ao no kanata four rhythm beyond the sky into the firmament sprite opening op tv size collab collaboration wajinshu Dream117er m1223961117 MkGuh Starset HB24 Sotarks DeRandom Otaku ByBy_ChAn ByBy13
BeatmapID:1037457
BeatmapSetID:425986

[Difficulty]
HPDrainRate:5.5
CircleSize:4
OverallDifficulty:6.6
ApproachRate:8.5
SliderMultiplier:1.7
SliderTickRate:1

[Events]
//Background and Video events
0,0,"bg.jpg",0,0
Video,180,"optc.flv"
//Break Periods
//Storyboard Layer 0 (Background)
//Storyboard Layer 1 (Fail)
//Storyboard Layer 2 (Pass)
//Storyboard Layer 3 (Foreground)
Sprite,Foreground,Centre,"names\byby.png",320,240 M,0,609,,537,435 S,0,609,966,0.2425153,0.9313403 R,0,609,966,0,5.953981 S,0,966,23466,0.9313403,1.058021 R,0,966,23466,5.953981,6.536507 F,0,23108,23466,1,0.1053197
Sprite,Foreground,Centre,"names\ren.png",320,240 F,0,23466,,1 S,0,23466,,0.6120412 M,0,23466,23823,130,-16,122,91 R,0,23466,23823,0.3958765,-0.3008659 R,0,23823,34537,-0.3008659,-0.2089193 M,0,23823,34894,122,91,180,100 F,0,34537,34894,1,0 R,0,34537,34894,-0.2089193,0.8678643
Sprite,Foreground,Centre,"names\byby.png",320,240 F,0,34894,35251,0,1 R,0,34894,52037,-0.2850305,0.5605191 M,0,34894,60966,569,422,542,435 F,0,51680,52037,1,0 R,0,52037,60966,0.5605191,-0.3958759 F,0,52394,53108,0,1 F,0,60608,60966,1,0
Sprite,Foreground,Centre,"names\ren.png",320,240 M,0,62037,62394,87,437,107,429 S,0,62037,62394,0.2874225,0.7228866 R,0,62037,62394,0,6.619051 M,0,62394,73287,107,429,127,441 R,0,62394,73287,6.619051,6.318186 F,0,72751,73287,1,0.04197952
Sprite,Foreground,Centre,"names\byby.png",320,240 R,0,73466,,0.1108469 F,0,73466,74180,0,1 M,0,73466,87751,244,88,553,132 F,0,84894,87751,1,0
//Storyboard Sound Samples

[TimingPoints]
609,357.142857142857,4,2,69,50,1,0
609,-166.666666666667,4,2,69,50,0,0
3466,-133.333333333333,4,2,69,50,0,0
6323,-117.647058823529,4,2,69,60,0,0
10430,-100,4,2,69,60,0,0
12037,-100,4,2,69,70,0,0
23466,-133.333333333333,4,2,69,40,0,0
24091,-133.333333333333,4,2,69,5,0,0
24180,-133.333333333333,4,2,69,40,0,0
29001,-105.263157894737,4,2,69,65,0,0
34894,-117.647058823529,4,2,69,55,0,0
40430,-105.263157894737,4,2,69,65,0,0
46323,-133.333333333333,4,2,69,50,0,0
52037,-100,4,2,69,50,0,0
52394,-100,4,2,69,70,0,0
57037,-100,4,2,69,75,0,0
57394,-100,4,2,69,80,0,0
62037,-100,4,2,69,80,0,1
73287,-100,4,2,69,80,0,0
73466,-100,4,2,69,80,0,1
79001,-100,4,2,69,80,0,0
79180,-100,4,2,69,70,0,0
84894,-100,4,2,69,50,0,0
87722,-100,4,2,69,40,0,0

[Colours]
Combo1 : 0,0,198
Combo2 : 136,2,109
Combo3 : 196,64,0
Combo4 : 175,10,34
SliderTrackOverride : 50,4,73

[HitObjects]
146,95,609,6,0,P|209:88|259:116,1,101.999996887207,2|0,0:0|0:0,0:0:0:0:
193,266,1144,2,0,B|174:212|174:212|196:148,1,101.999996887207,2|0,0:0|0:0,0:0:0:0:
188,169,1858,5,2,0:0:0:0:
274,307,2216,1,0,0:0:0:0:
274,307,2573,2,0,B|327:287|374:311|374:311|419:333|485:305,1,203.999993774414,2|0,0:0|0:0,0:0:0:0:
418,223,3466,6,0,P|404:182|452:111,1,127.500004863739,2|0,0:0|0:0,0:0:0:0:
330,224,4001,2,0,B|283:218|283:218|241:227|241:227|183:218,1,127.500004863739,2|0,0:0|0:0,0:0:0:0:
204,221,4716,5,2,0:0:0:0:
80,62,5073,1,0,0:0:0:0:
79,62,5430,2,0,B|109:131|66:184|66:184|28:243|68:317,1,255.000009727478,2|0,0:0|0:0,0:0:0:0:
164,357,6323,6,0,L|245:338,1,72.2500013780594,4|0,0:0|0:0,0:0:0:0:
325,247,6680,2,0,L|213:231,1,108.375002067089,2|0,0:0|0:0,0:0:0:0:
166,179,7037,1,2,0:0:0:0:
205,39,7216,1,0,0:0:0:0:
290,154,7394,1,0,0:0:0:0:
205,39,7573,6,0,P|265:31|346:68,1,144.500002756119,2|0,0:0|0:0,0:0:0:0:
449,157,8108,1,2,0:0:0:0:
337,224,8287,1,0,0:0:0:0:
449,157,8466,2,0,P|413:156|334:241,1,144.500002756119,2|0,0:0|0:0,0:0:0:0:
365,361,9001,1,0,0:0:0:0:
365,361,9091,1,0,0:0:0:0:
365,361,9180,6,0,L|277:357,1,72.2500013780594,2|0,0:0|0:0,0:0:0:0:
179,293,9537,2,0,P|231:278|290:218,1,108.375002067089,2|0,0:0|0:0,0:0:0:0:
293,174,9894,1,2,0:0:0:0:
168,100,10073,1,0,0:0:0:0:
298,38,10251,1,0,0:0:0:0:
383,185,10430,6,0,P|379:255|385:281,1,85,8|0,0:0|0:0,0:0:0:0:
419,102,10787,1,8,0:0:0:0:
299,223,10966,1,8,0:0:0:0:
466,251,11144,1,8,0:0:0:0:
142,355,11501,1,0,0:0:0:0:
142,355,11591,1,0,0:0:0:0:
142,355,11680,2,0,P|111:304|166:316,1,127.5,8|0,0:0|0:0,0:0:0:0:
155,299,12037,6,0,L|248:295,1,85,4|0,0:0|0:0,0:0:0:0:
91,212,12394,1,8,0:0:0:0:
210,372,12573,1,0,0:0:0:0:
273,214,12751,2,0,L|369:210,1,85,0|0,3:0|0:0,0:0:0:0:
208,128,13108,1,8,0:0:0:0:
321,291,13287,1,0,0:0:0:0:
208,128,13466,6,0,P|150:122|116:133,1,85,0|0,3:0|0:0,0:0:0:0:
293,95,13823,2,0,P|255:54|207:40,1,85,8|0,0:0|0:0,0:0:0:0:
272,207,14180,1,0,3:0:0:0:
391,87,14358,1,0,0:0:0:0:
272,207,14537,2,0,P|275:278|274:342,1,127.5,8|0,0:0|0:0,0:0:0:0:
191,357,14894,5,0,3:0:0:0:
353,275,15073,1,0,0:0:0:0:
188,235,15251,1,8,0:0:0:0:
339,372,15430,1,0,0:0:0:0:
432,230,15608,2,0,P|438:174|430:140,1,85,0|0,3:0|0:0,0:0:0:0:
329,9,15966,1,8,0:0:0:0:
329,9,16144,1,0,0:0:0:0:
221,141,16323,6,0,P|262:143|312:145,1,85,0|0,3:0|0:0,0:0:0:0:
175,254,16680,2,0,P|217:251|259:247,1,85,8|0,0:0|0:0,0:0:0:0:
90,229,17037,1,0,3:0:0:0:
227,329,17216,1,0,0:0:0:0:
90,229,17394,2,0,P|70:160|109:102,1,127.5,8|0,0:0|3:0,0:0:0:0:
163,63,17751,6,0,P|207:61|252:63,1,85,4|0,3:2|0:0,0:0:0:0:
396,150,18108,2,0,P|352:153|287:147,1,85,8|0,0:0|0:0,0:0:0:0:
467,79,18466,1,0,3:0:0:0:
345,229,18644,1,0,0:0:0:0:
344,46,18823,1,8,0:0:0:0:
468,199,19001,1,0,0:0:0:0:
263,290,19180,6,0,B|250:333|250:333|260:376,1,85,0|0,3:0|0:0,0:0:0:0:
146,244,19537,2,0,B|159:201|159:201|149:158,1,85,8|0,0:0|0:0,0:0:0:0:
63,309,19894,1,0,3:0:0:0:
111,89,20073,1,0,0:0:0:0:
272,247,20251,2,0,P|206:251|132:240,1,127.5,8|0,0:0|0:0,0:0:0:0:
66,209,20608,5,8,0:0:0:0:
218,68,20787,1,8,0:0:0:0:
66,209,21144,5,8,0:0:0:0:
218,68,21323,1,8,0:0:0:0:
218,68,21680,5,8,0:0:0:0:
421,62,21858,1,8,0:0:0:0:
218,68,22215,5,8,0:0:0:0:
421,62,22394,1,8,0:0:0:0:
349,207,22573,1,0,3:0:0:0:
349,207,22662,1,0,3:0:0:0:
349,207,22751,2,0,P|296:208|247:205,1,85,0|8,3:0|0:0,0:0:0:0:
120,172,23108,2,0,P|134:91|97:39,1,127.5,8|0,0:0|0:0,0:0:0:0:
217,97,23466,6,0,P|217:136|208:178,1,63.7500024318696,4|0,0:0|0:0,0:0:0:0:
139,248,23823,2,0,P|178:248|220:257,1,63.7500024318696
267,320,24180,2,0,P|298:324|330:324,1,63.7500024318696
415,282,24537,1,0,0:0:0:0:
415,282,24894,6,0,P|406:221|414:141,1,127.500004863739,0|0,0:0|0:0,0:0:0:0:
421,53,25430,2,0,P|360:62|280:54,1,127.500004863739,0|0,0:0|0:0,0:0:0:0:
197,24,25966,2,0,P|204:56|197:88,1,63.7500024318696,0|0,0:0|0:0,0:0:0:0:
185,238,26323,6,0,L|210:314,2,63.7500024318696,0|0|0,0:0|0:0|0:0,0:0:0:0:
156,159,26858,1,0,0:0:0:0:
197,85,27037,2,0,B|263:75|263:75|342:89,1,127.500004863739,0|0,0:0|0:0,0:0:0:0:
412,120,27573,1,0,0:0:0:0:
332,172,27751,6,0,P|332:205|343:247,1,63.7500024318696,0|0,0:0|0:0,0:0:0:0:
220,232,28108,2,0,P|243:255|280:277,1,63.7500024318696,0|0,0:0|0:0,0:0:0:0:
174,351,28466,2,0,P|207:351|249:340,1,63.7500024318696,0|0,0:0|0:0,0:0:0:0:
328,327,28823,1,8,0:0:0:0:
220,232,29001,6,0,P|214:152|228:59,1,161.499995687485,4|0,0:0|0:0,0:0:0:0:
433,190,29537,2,0,P|443:151|435:112,1,80.7499978437424,8|0,0:0|0:0,0:0:0:0:
298,190,29894,2,0,P|287:151|295:112,1,80.7499978437424,2|2,0:0|0:0,0:0:0:0:
365,150,30251,1,8,0:0:0:0:
445,264,30430,6,0,P|407:324|314:319,1,161.499995687485,2|2,0:0|0:0,0:0:0:0:
223,239,30966,2,0,B|218:200|218:200|220:139,1,80.7499978437424,8|0,0:0|0:0,0:0:0:0:
292,34,31323,1,2,0:0:0:0:
292,34,31501,1,2,0:0:0:0:
219,158,31680,1,8,0:0:0:0:
380,142,31858,6,0,P|417:215|381:289,1,161.499995687485,0|2,0:0|0:0,0:0:0:0:
307,135,32394,2,0,P|325:95|364:69,1,80.7499978437424,8|0,0:0|0:0,0:0:0:0:
340,213,32751,2,0,P|322:253|283:279,1,80.7499978437424,0|2,0:0|0:0,0:0:0:0:
170,301,33108,1,8,0:0:0:0:
262,205,33287,6,0,P|187:167|101:189,1,161.499995687485,2|0,0:0|0:0,0:0:0:0:
170,301,33823,1,8,0:0:0:0:
262,205,34001,2,0,B|290:127|225:127|270:35,1,161.499995687485,2|0,0:0|0:0,0:0:0:0:
421,34,34537,1,10,0:0:0:0:
329,91,34716,1,0,0:0:0:0:
425,187,34894,6,0,P|436:227|430:268,1,72.2500013780594,6|0,0:0|0:0,0:0:0:0:
482,123,35251,1,8,0:0:0:0:
359,231,35430,1,0,0:0:0:0:
478,354,35608,2,0,P|442:350|406:353,1,72.2500013780594,2|0,0:0|0:0,0:0:0:0:
267,360,35966,2,0,P|233:346|207:322,1,72.2500013780594,8|0,0:0|0:0,0:0:0:0:
71,347,36323,6,0,P|64:290|112:221,1,144.500002756119,2|8,0:0|0:0,0:0:0:0:
217,95,36858,1,0,0:0:0:0:
217,95,37037,2,0,P|168:93|130:98,1,72.2500013780594,2|2,0:0|0:0,0:0:0:0:
295,41,37394,2,0,P|254:17|223:7,1,72.2500013780594,8|0,0:0|0:0,0:0:0:0:
390,127,37751,6,0,P|315:96|296:24,1,144.500002756119,2|8,0:0|0:0,0:0:0:0:
383,42,38287,1,0,0:0:0:0:
297,193,38466,2,0,P|301:240|299:275,1,72.2500013780594,2|2,0:0|0:0,0:0:0:0:
205,155,38823,1,8,0:0:0:0:
248,334,39001,1,0,0:0:0:0:
248,334,39180,6,0,P|321:343|385:293,1,144.500002756119,2|8,0:0|0:0,0:0:0:0:
447,179,39716,1,0,0:0:0:0:
447,179,39894,1,2,0:0:0:0:
461,340,40073,1,2,0:0:0:0:
300,267,40251,1,8,0:0:0:0:
391,86,40430,6,0,B|433:71|433:71|487:76,1,80.7499978437424,4|0,0:0|0:0,0:0:0:0:
469,75,40787,1,2,0:0:0:0:
320,142,40966,2,0,P|300:88|305:55,1,80.7499978437424,8|0,0:0|0:0,0:0:0:0:
393,199,41323,1,2,0:0:0:0:
233,178,41501,1,2,0:0:0:0:
391,86,41680,1,8,0:0:0:0:
258,189,41858,6,0,B|237:234|254:275|254:275|269:312|255:349,1,161.499995687485,2|2,0:0|0:0,0:0:0:0:
169,209,42394,1,8,0:0:0:0:
338,329,42573,1,0,0:0:0:0:
335,146,42751,1,2,0:0:0:0:
186,308,42930,1,2,0:0:0:0:
126,124,43108,1,0,0:0:0:0:
186,308,43287,6,0,P|136:304|76:311,1,80.7499978437424,2|0,0:0|0:0,0:0:0:0:
273,333,43644,1,2,0:0:0:0:
273,333,43823,2,0,P|271:293|257:256,1,80.7499978437424,8|0,0:0|0:0,0:0:0:0:
148,133,44180,1,2,0:0:0:0:
340,151,44358,1,2,0:0:0:0:
199,303,44537,1,8,0:0:0:0:
307,183,44716,6,0,B|318:123|318:123|309:67|309:67|319:18,1,161.499995687485,2|0,0:0|0:0,0:0:0:0:
391,167,45251,1,8,0:0:0:0:
221,83,45430,2,0,P|150:83|84:4,1,161.499995687485,2|2,0:0|0:0,0:0:0:0:
180,3,45966,1,8,0:0:0:0:
109,165,46144,1,0,0:0:0:0:
48,277,46323,6,0,P|149:269|192:273,1,127.500004863739,4|0,0:0|0:0,0:0:0:0:
274,290,46858,1,2,0:0:0:0:
274,290,47215,1,2,0:0:0:0:
374,345,47394,1,0,0:0:0:0:
377,217,47572,1,0,0:0:0:0:
400,96,47751,6,0,P|380:130|382:230,1,127.500004863739,2|0,0:0|0:0,0:0:0:0:
460,171,48287,1,2,0:0:0:0:
295,220,48466,2,0,B|260:208|231:218|231:218|196:234|156:222,1,127.500004863739,2|0,0:0|0:0,0:0:0:0:
170,225,49001,1,0,0:0:0:0:
243,308,49180,6,0,P|331:305|385:305,1,127.500004863739,2|0,0:0|0:0,0:0:0:0:
472,221,49716,1,2,0:0:0:0:
472,221,50252,1,2,0:0:0:0:
403,129,50430,1,0,0:0:0:0:
278,140,50608,6,0,P|353:143|415:123,1,127.500004863739,2|0,0:0|0:0,0:0:0:0:
327,42,51144,1,0,0:0:0:0:
348,225,51323,2,0,B|341:275|341:275|360:354,1,127.500004863739,2|0,0:0|0:0,0:0:0:0:
359,349,52037,1,0,0:0:0:0:
218,253,52216,1,2,0:0:0:0:
218,253,52305,1,2,0:0:0:0:
218,253,52394,6,0,L|118:256,1,85,4|0,0:0|0:0,0:0:0:0:
290,190,52751,1,2,0:0:0:0:
173,335,52930,1,2,0:0:0:0:
46,221,53108,1,8,0:0:0:0:
46,221,53287,6,0,B|35:160|35:160|50:95|50:95|41:34,1,170,4|0,0:0|0:0,0:0:0:0:
158,180,53823,2,0,P|205:194|248:189,1,85,8|0,0:0|0:0,0:0:0:0:
318,39,54180,2,0,P|298:99|304:130,1,85,2|2,0:0|0:0,0:0:0:0:
448,204,54537,2,0,P|401:190|312:233,1,127.5,8|0,0:0|0:0,0:0:0:0:
395,269,54894,5,4,0:0:0:0:
375,99,55073,1,0,0:0:0:0:
239,201,55251,1,8,0:0:0:0:
239,201,55430,2,0,B|175:201|175:201|114:216|114:216|58:215,1,170,4|0,0:0|0:0,0:0:0:0:
198,101,55966,1,8,0:0:0:0:
184,295,56144,6,0,P|268:295|339:365,1,170,2|0,0:0|0:0,0:0:0:0:
379,185,56680,2,0,P|368:246|379:284,1,85,8|0,0:0|0:0,0:0:0:0:
386,97,57037,2,0,P|327:111|303:132,1,85,2|0,0:0|0:0,0:0:0:0:
187,141,57394,2,0,P|289:137|325:113,1,127.5,8|0,0:0|0:0,0:0:0:0:
236,62,57751,5,12,0:0:0:0:
201,246,57930,1,0,0:0:0:0:
352,110,58108,1,8,0:0:0:0:
149,141,58287,1,0,0:0:0:0:
356,217,58466,1,8,0:0:0:0:
230,36,58644,1,0,0:0:0:0:
281,268,58823,1,8,0:0:0:0:
230,36,59001,6,0,B|303:37|303:37|334:46|334:46|408:46,1,170,4|2,0:0|0:0,0:0:0:0:
499,183,59537,1,2,0:0:0:0:
499,183,59894,1,2,0:0:0:0:
416,331,60073,2,0,P|350:321|266:336,1,127.5,2|0,0:0|0:0,0:0:0:0:
209,357,60430,1,2,0:0:0:0:
209,357,60519,1,2,0:0:0:0:
209,357,60608,6,0,P|198:322|191:283,1,42.5,0|0,1:0|0:0,0:0:0:0:
242,179,60787,2,0,P|249:206|253:229,1,42.5,0|0,1:0|0:0,0:0:0:0:
113,249,60966,1,0,1:0:0:0:
159,67,61144,1,0,1:0:0:0:
159,67,61323,6,0,P|240:92|323:49,1,170
357,192,61858,1,2,0:0:0:0:
357,192,62037,6,0,P|272:192|196:264,1,170,4|8,0:0|0:0,0:0:0:0:
317,318,62573,1,0,0:0:0:0:
421,235,62751,2,0,P|430:193|407:135,1,85,0|2,3:0|0:0,0:0:0:0:
351,36,63108,1,8,0:0:0:0:
255,150,63287,6,0,B|169:186|169:124|53:168,1,170,0|0,0:0|0:0,0:0:0:0:
204,78,63823,1,8,0:0:0:0:
129,242,64001,1,2,0:0:0:0:
204,78,64180,2,0,P|246:68|293:69,1,85,0|2,3:0|0:0,0:0:0:0:
426,116,64537,1,8,0:0:0:0:
255,150,64716,6,0,P|230:229|257:319,1,170,0|0,0:0|0:0,0:0:0:0:
370,233,65251,1,8,0:0:0:0:
370,233,65430,1,0,0:0:0:0:
255,150,65608,2,0,P|211:150|149:176,1,85,0|2,3:0|0:0,0:0:0:0:
77,242,65966,1,8,0:0:0:0:
251,311,66144,6,0,B|327:311|327:311|348:315|348:315|420:315,1,170,2|0,0:0|0:0,0:0:0:0:
311,185,66680,1,8,0:0:0:0:
251,311,66858,1,0,0:0:0:0:
191,185,67037,1,0,3:0:0:0:
131,311,67216,1,2,0:0:0:0:
71,185,67394,1,8,0:0:0:0:
71,185,67573,1,2,0:0:0:0:
184,38,67751,6,0,P|224:112|171:197,1,170,4|8,0:0|0:0,0:0:0:0:
101,297,68287,1,2,0:0:0:0:
131,113,68466,1,0,0:0:0:0:
189,307,68644,1,2,0:0:0:0:
47,112,68823,1,8,0:0:0:0:
190,184,69001,6,0,P|266:211|351:179,1,170,4|2,0:0|0:0,0:0:0:0:
461,78,69537,1,8,0:0:0:0:
277,33,69716,2,0,P|265:73|268:115,1,85,2|0,0:0|0:0,0:0:0:0:
321,281,70073,1,2,0:0:0:0:
358,86,70251,1,8,0:0:0:0:
190,184,70430,6,0,P|163:262|197:343,1,170,2|2,0:0|0:0,0:0:0:0:
347,182,70966,1,8,0:0:0:0:
82,260,71144,1,2,0:0:0:0:
284,261,71323,1,0,3:0:0:0:
107,157,71501,1,2,0:0:0:0:
194,339,71680,1,8,0:0:0:0:
277,130,71858,6,0,P|341:100|427:148,1,170,4|0,0:0|0:0,0:0:0:0:
489,259,72394,1,8,0:0:0:0:
353,343,72573,2,0,P|327:262|346:181,1,170,4|0,0:0|0:0,0:0:0:0:
451,60,73108,1,8,0:0:0:0:
489,259,73287,1,0,0:0:0:0:
294,119,73466,6,0,P|219:116|154:46,1,170,4|8,0:0|0:0,0:0:0:0:
251,34,74001,1,0,0:0:0:0:
172,204,74180,1,0,3:0:0:0:
335,115,74358,1,2,0:0:0:0:
155,50,74537,1,8,0:0:0:0:
178,235,74716,6,0,B|245:239|245:239|281:232|281:232|349:238,1,170,2|0,0:0|0:0,0:0:0:0:
201,150,75251,1,8,0:0:0:0:
310,311,75430,1,0,0:0:0:0:
306,124,75608,1,0,3:0:0:0:
205,313,75787,1,2,0:0:0:0:
306,124,75966,2,0,P|282:74|259:50,1,85,8|2,0:0|0:0,0:0:0:0:
360,212,76323,6,0,P|394:175|406:134,2,85,4|0|8,0:0|0:0|0:0,0:0:0:0:
207,318,76858,2,0,B|136:317|136:317|99:328|99:328|32:326,1,170,2|2,0:0|0:0,0:0:0:0:
174,197,77394,1,8,0:0:0:0:
323,141,77573,6,0,P|243:143|167:206,1,170,4|0,0:0|3:0,0:0:0:0:
277,235,78108,1,8,0:0:0:0:
196,65,78287,1,0,0:0:0:0:
277,235,78466,2,0,P|321:234|368:228,1,85,2|0,0:0|0:0,0:0:0:0:
509,343,78823,2,0,P|464:344|424:349,1,85,8|0,0:0|0:0,0:0:0:0:
255,340,79180,6,0,B|331:339|331:339|363:349|363:349|424:349,1,170,4|8,0:0|0:0,0:0:0:0:
292,240,79716,1,0,0:0:0:0:
172,120,79894,2,0,P|158:69|168:32,1,85,0|2,3:0|0:0,0:0:0:0:
150,211,80251,2,0,P|95:182|76:145,1,85,8|2,0:0|0:0,0:0:0:0:
252,150,80608,5,0,3:0:0:0:
252,150,80787,2,0,B|303:167|353:152|353:152|388:143|428:153,1,170,0|0,0:0|0:0,0:0:0:0:
350,358,81323,2,0,P|329:312|398:220,1,170,0|8,3:0|0:0,0:0:0:0:
422,307,81858,1,0,0:0:0:0:
254,337,82037,6,0,B|186:336|186:336|151:347|151:347|77:346,1,170,4|8,0:0|0:0,0:0:0:0:
220,241,82573,1,0,0:0:0:0:
102,118,82751,2,0,P|150:114|190:113,1,85,0|2,3:0|0:0,0:0:0:0:
335,30,83108,2,0,P|286:26|247:25,1,85,8|0,0:0|0:0,0:0:0:0:
342,176,83466,6,0,P|306:129|364:14,1,170,0|8,3:0|0:0,0:0:0:0:
196,127,84001,2,0,P|232:174|174:289,1,170,0|0,0:0|0:0,0:0:0:0:
34,193,84537,2,0,B|93:193|93:193|116:202|116:202|164:202,1,127.5,8|0,0:0|0:0,0:0:0:0:
159,202,84894,6,0,P|128:256|178:355,1,170,0|0,0:0|0:0,0:0:0:0:
476,207,85608,2,0,B|476:134|476:134|466:106|466:106|466:36,1,170,0|0,0:0|0:0,0:0:0:0:
294,333,86323,1,0,0:0:0:0:
294,333,86680,1,0,0:0:0:0:
93,58,87037,1,0,0:0:0:0:
93,58,87394,6,0,L|99:83,11,14.1666666666667,0|0|0|0|0|0|0|0|0|0|0|2,0:0|0:0|0:0|0:0|0:0|0:0|0:0|0:0|0:0|0:0|0:0|0:0,0:0:0:0:
