osu file format v14

[General]
AudioFilename: Ao no Kanata no Four Rhythmtvop.mp3
AudioLeadIn: 0
PreviewTime: 61293
Countdown: 0
SampleSet: Soft
StackLeniency: 0.7
Mode: 0
LetterboxInBreaks: 0
WidescreenStoryboard: 1

[Editor]
Bookmarks: 6323
DistanceSpacing: 1
BeatDivisor: 2
GridSize: 4
TimelineZoom: 1.4

[Metadata]
Title:Contrail ~Kiseki~
TitleUnicode:Contrail~軌跡~
Artist:Mami Kawada
ArtistUnicode:川田まみ
Creator:ByBy
Version:117's Normal
Source:蒼の彼方のフォーリズム
Tags:ao no kanata four rhythm beyond the sky into the firmament sprite opening op tv size collab collaboration wajinshu Dream117er m1223961117 MkGuh Starset HB24 Sotarks DeRandom Otaku ByBy_ChAn ByBy13
BeatmapID:951946
BeatmapSetID:425986

[Difficulty]
HPDrainRate:3
CircleSize:3
OverallDifficulty:3
ApproachRate:4
SliderMultiplier:1.1
SliderTickRate:1

[Events]
//Background and Video events
Video,180,"optc.flv"
0,0,"bg.jpg",0,0
//Break Periods
//Storyboard Layer 0 (Background)
//Storyboard Layer 1 (Fail)
//Storyboard Layer 2 (Pass)
//Storyboard Layer 3 (Foreground)
//Storyboard Sound Samples

[TimingPoints]
609,357.142857142857,4,2,1,50,1,0
12037,-100,4,2,69,60,0,0
23108,-125,4,2,69,40,0,0
29001,-100,4,2,69,60,0,0
34894,-100,4,2,69,55,0,0
40430,-100,4,2,69,60,0,0
46323,-100,4,2,1,45,0,0
52394,-100,4,2,69,60,0,0
62037,-100,4,2,69,70,0,1
73287,-100,4,2,69,70,0,0
73466,-100,4,2,69,70,0,1
79001,-100,4,2,69,70,0,0
87722,-100,4,2,69,40,0,0

[Colours]
Combo1 : 0,0,198
Combo2 : 136,2,109
Combo3 : 196,64,0
Combo4 : 175,10,34
SliderTrackOverride : 50,4,73

[HitObjects]
300,44,6323,6,0,P|290:100|283:176,1,110,4|2,0:0|0:0,0:0:0:0:
195,217,7037,2,0,L|199:271,1,55,0|0,0:0|0:0,0:0:0:0:
117,344,7573,2,0,P|66:353|19:314,1,110,0|0,0:0|0:0,0:0:0:0:
1,268,8108,2,0,P|10:213|16:159,1,110,2|0,0:0|0:0,0:0:0:0:
21,104,8644,1,0,0:0:0:0:
158,12,9180,6,0,P|163:66|173:120,1,110,0|2,0:0|0:0,0:0:0:0:
245,204,9894,2,0,L|239:258,1,55,0|0,0:0|0:0,0:0:0:0:
294,354,10430,1,8,0:0:0:0:
403,365,10787,2,0,L|468:358,1,55,8|8,0:0|0:0,0:0:0:0:
508,337,11144,2,0,P|502:282|492:228,1,110,8|0,0:0|0:0,0:0:0:0:
474,176,11680,1,8,0:0:0:0:
416,82,12037,6,0,P|475:83|516:42,2,110,4|8|0,0:0|0:0|3:0,0:0:0:0:
317,131,13108,1,8,0:0:0:0:
218,80,13466,2,0,P|162:75|91:56,1,110,0|8,3:0|0:0,0:0:0:0:
54,62,14001,2,0,P|17:103|24:177,1,110,0|0,0:0|0:0,0:0:0:0:
34,206,14537,1,8,0:0:0:0:
128,262,14894,6,0,P|115:349|112:397,2,110,0|8|0,3:0|0:0|3:0,0:0:0:0:
217,197,15966,1,8,0:0:0:0:
302,265,16323,2,0,P|376:256|440:251,1,110,0|8,3:0|0:0,0:0:0:0:
464,266,16858,2,0,P|495:221|488:155,1,110,0|0,0:0|0:0,0:0:0:0:
471,117,17394,1,8,0:0:0:0:
378,58,17751,6,0,P|313:92|260:79,1,110,4|8,3:2|0:0,0:0:0:0:
170,70,18466,2,0,L|158:6,2,55,0|0|8,3:0|0:0|0:0,0:0:0:0:
118,166,19180,2,0,P|130:248|134:311,1,110,0|8,3:0|0:0,0:0:0:0:
133,330,19716,2,0,P|187:321|242:315,1,110,0|0,0:0|0:0,0:0:0:0:
296,318,20251,1,8,0:0:0:0:
256,192,20608,12,8,23108,0:0:0:0:
234,292,24537,5,2,0:0:0:0:
158,246,24894,2,0,P|93:269|26:259,2,132,2|2|2,0:0|0:0|0:0,0:0:0:0:
211,176,26323,6,0,P|202:110|194:45,2,132,2|2|2,0:0|0:0|0:0,0:0:0:0:
228,216,27573,2,0,P|288:206|376:198,1,132,2|0,0:0|0:0,0:0:0:0:
464,57,28823,1,8,0:0:0:0:
464,57,29001,6,0,P|407:52|332:39,1,110,4|0,0:0|0:0,0:0:0:0:
301,30,29537,1,8,0:0:0:0:
206,86,29894,2,0,P|154:56|99:61,1,110,2|8,0:0|0:0,0:0:0:0:
58,86,30430,2,0,P|64:166|68:211,1,110,2|2,0:0|0:0,0:0:0:0:
76,249,30966,1,8,0:0:0:0:
174,298,31323,2,0,L|181:238,2,55,2|2|8,0:0|0:0|0:0,0:0:0:0:
187,351,31858,6,0,P|243:345|315:335,1,110,0|2,0:0|0:0,0:0:0:0:
350,326,32394,1,8,0:0:0:0:
455,357,32751,2,0,P|449:301|439:229,1,110,0|8,0:0|0:0,0:0:0:0:
427,194,33287,1,2,0:0:0:0:
342,123,33644,2,0,L|348:63,1,55,0|8,0:0|0:0,0:0:0:0:
353,13,34001,2,0,P|294:21|232:28,1,110,2|0,0:0|0:0,0:0:0:0:
188,28,34537,1,10,0:0:0:0:
108,104,34894,6,0,P|53:96|-1:90,2,110,6|8|2,0:0|0:0|0:0,0:0:0:0:
188,179,35966,1,8,0:0:0:0:
289,136,36323,2,0,P|339:162|402:153,1,110,2|8,0:0|0:0,0:0:0:0:
489,109,37037,2,0,L|496:45,2,55,2|2|8,0:0|0:0|0:0,0:0:0:0:
501,218,37751,6,0,P|502:284|468:326,1,110,2|8,0:0|0:0,0:0:0:0:
431,348,38287,2,0,P|365:336|260:318,1,165,0|8,0:0|0:0,0:0:0:0:
220,291,39001,2,0,P|179:321|108:313,1,110,0|2,0:0|0:0,0:0:0:0:
75,290,39537,1,8,0:0:0:0:
53,182,39894,2,0,L|-4:173,2,55,2|2|8,0:0|0:0|0:0,0:0:0:0:
105,199,40430,6,0,P|153:193|220:186,1,110,4|2,0:0|0:0,0:0:0:0:
267,173,40966,1,8,0:0:0:0:
352,104,41323,2,0,P|393:134|464:126,1,110,2|8,0:0|0:0,0:0:0:0:
500,110,41858,2,0,P|494:182|488:248,1,110,2|2,0:0|0:0,0:0:0:0:
488,274,42394,1,8,0:0:0:0:
384,312,42751,2,0,L|375:244,2,55,2|2|8,0:0|0:0|0:0,0:0:0:0:
375,366,43287,6,0,P|307:359|244:349,1,110,2|2,0:0|0:0,0:0:0:0:
211,342,43823,1,8,0:0:0:0:
102,362,44180,2,0,P|109:294|119:231,1,110,2|8,0:0|0:0,0:0:0:0:
156,216,44716,2,0,P|130:169|141:103,1,110,2|0,0:0|0:0,0:0:0:0:
165,68,45251,1,8,0:0:0:0:
165,68,45430,2,0,P|228:78|289:84,1,110,2|2,0:0|0:0,0:0:0:0:
328,86,45966,1,8,0:0:0:0:
436,66,46323,6,0,P|426:150|421:208,1,110,4|0,0:0|0:0,0:0:0:0:
421,230,46858,1,2,0:0:0:0:
390,336,47216,2,0,L|317:328,1,55,2|0,0:0|0:0,0:0:0:0:
229,353,47751,2,0,B|179:327|121:319|121:319|47:338,1,165,2|2,0:0|0:0,0:0:0:0:
19,349,48466,2,0,P|13:294|6:239,1,110,2|0,0:0|0:0,0:0:0:0:
29,132,49180,6,0,P|31:78|67:38,1,110,2|0,0:0|0:0,0:0:0:0:
120,22,49716,1,2,0:0:0:0:
207,87,50073,2,0,L|278:94,1,55,2|2,0:0|0:0,0:0:0:0:
360,45,50608,2,0,P|416:31|502:158,1,220,2|2,0:0|0:0,0:0:0:0:
474,248,51680,1,0,0:0:0:0:
284,359,52394,5,4,0:0:0:0:
174,368,52751,2,0,P|119:363|65:352,1,110,2|8,0:0|0:0,0:0:0:0:
11,362,53287,2,0,P|18:312|32:237,1,110,4|0,0:0|0:0,0:0:0:0:
49,202,53823,2,0,P|22:158|30:91,2,110,8|2|8,0:0|0:0|0:0,0:0:0:0:
148,248,54894,6,0,P|202:243|256:232,1,110,4|8,0:0|0:0,0:0:0:0:
309,248,55430,2,0,P|302:198|288:123,1,110,4|0,0:0|0:0,0:0:0:0:
273,87,55966,1,8,0:0:0:0:
273,87,56144,2,0,P|225:113|156:99,1,110,2|0,0:0|0:0,0:0:0:0:
118,123,56680,2,0,P|125:73|139:-2,2,110,8|2|8,0:0|0:0|0:0,0:0:0:0:
140,232,57751,5,12,0:0:0:0:
247,247,58108,1,8,0:0:0:0:
300,344,58466,1,8,0:0:0:0:
407,329,58823,1,8,0:0:0:0:
407,329,59001,6,0,P|400:256|392:208,1,110,4|2,0:0|0:0,0:0:0:0:
383,165,59537,1,2,0:0:0:0:
394,55,59894,1,2,0:0:0:0:
394,55,60073,2,0,P|334:86|273:70,1,110,2|2,0:0|0:0,0:0:0:0:
241,63,60608,2,0,L|246:8,2,55,0|0|0,1:0|1:0|1:0,0:0:0:0:
236,117,61144,1,0,1:0:0:0:
108,364,62037,6,0,P|52:355|-16:348,2,110,4|8|0,0:0|0:0|3:0,0:0:0:0:
205,313,63108,1,8,0:0:0:0:
302,365,63466,2,0,P|360:366|403:336,1,110,0|8,3:0|0:0,0:0:0:0:
455,241,64180,1,0,3:0:0:0:
415,138,64537,1,8,0:0:0:0:
310,172,64894,6,0,P|255:162|201:157,1,110,0|8,3:0|0:0,0:0:0:0:
94,185,65608,2,0,L|82:119,2,55,0|2|8,3:0|0:0|0:0,0:0:0:0:
120,233,66144,1,2,0:0:0:0:
120,233,66323,2,0,P|127:286|167:322,1,110,0|8,3:0|0:0,0:0:0:0:
223,328,66858,2,0,P|277:323|331:313,1,110,0|2,0:0|0:0,0:0:0:0:
384,296,67394,1,8,0:0:0:0:
480,242,67751,6,0,P|492:319|502:378,2,110,4|8|0,0:0|0:0|0:0,0:0:0:0:
422,147,68823,1,8,0:0:0:0:
448,40,69180,2,0,P|393:44|338:51,1,110,0|8,0:0|0:0,0:0:0:0:
285,67,69716,1,2,0:0:0:0:
285,67,69894,2,0,P|319:126|303:184,1,110,0|8,0:0|0:0,0:0:0:0:
235,242,70608,6,0,P|201:183|217:125,2,110,4|8|0,0:0|0:0|3:0,0:0:0:0:
338,279,71680,1,8,0:0:0:0:
338,279,71858,2,0,P|397:268|451:262,1,110,4|0,0:0|0:0,0:0:0:0:
501,267,72394,1,8,0:0:0:0:
501,267,72573,2,0,P|490:208|484:154,1,110,4|0,0:0|0:0,0:0:0:0:
480,103,73108,1,8,0:0:0:0:
417,12,73466,6,0,P|358:50|307:41,1,110,4|8,0:0|0:0,0:0:0:0:
229,108,74180,1,0,3:0:0:0:
126,67,74537,1,8,0:0:0:0:
28,118,74894,2,0,P|34:173|46:247,1,110,0|8,0:0|0:0,0:0:0:0:
90,326,75608,2,0,L|27:336,2,55,0|2|8,3:0|0:0|0:0,0:0:0:0:
193,364,76323,6,0,P|250:356|318:349,1,110,4|8,0:0|0:0,0:0:0:0:
356,356,76858,2,0,P|391:294|376:237,1,110,2|2,0:0|0:0,0:0:0:0:
359,209,77394,1,8,0:0:0:0:
359,209,77573,2,0,P|281:202|251:167,1,110,4|0,0:0|3:0,0:0:0:0:
232,135,78108,1,8,0:0:0:0:
219,25,78466,2,0,L|150:20,2,55,2|0|8,0:0|0:0|0:0,0:0:0:0:
322,63,79180,6,0,P|381:57|444:52,1,110,4|8,0:0|0:0,0:0:0:0:
509,130,79894,1,0,3:0:0:0:
464,230,80251,1,8,0:0:0:0:
480,338,80608,2,0,P|425:333|370:327,1,110,0|8,3:0|0:0,0:0:0:0:
321,301,81144,2,0,P|277:330|218:323,1,110,0|2,0:0|0:0,0:0:0:0:
176,293,81680,1,8,0:0:0:0:
124,195,82037,6,0,P|193:178|251:175,2,110,4|8|0,0:0|0:0|3:0,0:0:0:0:
41,123,83108,1,8,0:0:0:0:
89,24,83466,2,0,P|172:35|236:41,1,110,0|8,3:0|0:0,0:0:0:0:
297,84,84180,2,0,L|307:19,2,55,0|0|8,0:0|0:0|0:0,0:0:0:0:
256,192,84894,12,2,87722,0:0:0:0:
