osu file format v14

[General]
AudioFilename: audio.mp3
AudioLeadIn: 0
PreviewTime: 44695
Countdown: 0
SampleSet: Soft
StackLeniency: 0.7
Mode: 0
LetterboxInBreaks: 0
WidescreenStoryboard: 1

[Editor]
Bookmarks: 22923,33895,44866,55838,66809,77781,88752,99723,110695,121666,132638,154581,165552,176523,187495,198466,209438,220409
DistanceSpacing: 1.1
BeatDivisor: 4
GridSize: 32
TimelineZoom: 1.16

[Metadata]
Title:Wave feat. Aitsuki Nakuru
TitleUnicode:Wave feat. 藍月なくる
Artist:Mameyudoufu
ArtistUnicode:Mameyudoufu
Creator:Hinsvar
Version:Normal
Source:
Tags:Electronic Japanese future core MEGAREX FUTURE EVANGELIX Featured Artist FA Mappers' Guild MG MPG
BeatmapID:4401473
BeatmapSetID:2097481

[Difficulty]
HPDrainRate:3
CircleSize:2.8
OverallDifficulty:4.2
ApproachRate:5.6
SliderMultiplier:1.12
SliderTickRate:1

[Events]
//Background and Video events
0,0,"BG.jpg",0,0
//Break Periods
2,132838,152956
//Storyboard Layer 0 (Background)
//Storyboard Layer 1 (Fail)
//Storyboard Layer 2 (Pass)
//Storyboard Layer 3 (Foreground)
//Storyboard Layer 4 (Overlay)
//Storyboard Sound Samples

[TimingPoints]
981,342.857142857143,4,2,1,50,1,0
22238,-125,4,2,1,50,0,0
44866,-111.111111111111,4,2,1,60,0,0
55838,-100,4,2,1,65,0,0
66809,-111.111111111111,4,2,1,65,0,0
77781,-100,4,2,1,70,0,0
88752,-100,4,2,1,70,0,0
89095,-111.111111111111,4,2,1,70,0,0
91495,-90.9090909090909,4,2,1,80,0,1
109323,-111.111111111111,4,2,1,70,0,0
110695,-90.9090909090909,4,2,1,80,0,1
131266,-111.111111111111,4,2,1,70,0,0
154581,-111.111111111111,4,2,1,60,0,0
165552,-100,4,2,1,65,0,0
176523,-111.111111111111,4,2,1,65,0,0
187495,-100,4,2,1,70,0,0
198466,-90.9090909090909,4,2,1,80,0,1
219038,-111.111111111111,4,2,1,70,0,0
220409,-111.111111111111,4,2,1,70,0,0

[Colours]
Combo1 : 103,189,207
Combo2 : 99,189,243
Combo3 : 132,236,236
Combo4 : 60,132,221

[HitObjects]
256,192,17438,12,2,21552,3:2:0:0:
33,354,22238,5,2,0:0:0:0:
144,346,22581,1,2,0:0:0:0:
255,338,22923,2,0,B|296:321|320:348|320:351|342:378|389:355,1,134.4,6|2,3:2|0:0,0:0:0:0:
411,179,23952,2,0,B|342:150|302:195|302:201|265:245|187:207,1,224,2|0,0:0|0:0,0:0:0:0:
95,240,25152,1,2,0:0:0:0:
95,240,25323,1,2,0:0:0:0:
68,134,25666,6,0,P|60:90|76:39,1,89.6,2|0,0:0|0:0,0:0:0:0:
122,22,26181,1,2,0:0:0:0:
223,69,26523,1,2,0:0:0:0:
329,33,26866,2,0,P|341:99|317:175,1,134.4,2|0,0:0|0:0,0:0:0:0:
235,231,27723,2,0,P|191:239|140:223,1,89.6,2|2,0:0|0:0,0:0:0:0:
107,332,28409,6,0,B|154:327|172:352|170:354|191:380|248:362,1,134.4,2|2,0:0|0:0,0:0:0:0:
459,350,29609,1,0,0:0:0:0:
459,350,29781,2,0,B|455:318|472:306|473:308|490:294|478:256,1,89.6,2|0,0:0|0:0,0:0:0:0:
384,211,30466,1,2,0:0:0:0:
479,152,30809,2,0,B|480:136|472:130|471:131|463:124|469:105,1,44.8,2|2,0:0|0:0,0:0:0:0:
461,54,31152,6,0,P|399:52|329:10,2,134.4,2|2|2,0:0|0:0|0:0,0:0:0:0:
402,226,32695,2,0,P|344:259|308:315,1,134.4,2|2,0:0|0:0,0:0:0:0:
207,363,33552,1,0,0:0:0:0:
100,327,33895,6,0,P|78:269|44:199,1,134.4,2|0,3:2|0:0,0:0:0:0:
205,116,34923,2,0,P|219:77|242:30,1,89.6,2|0,0:0|0:0,0:0:0:0:
426,35,35780,1,2,0:0:0:0:
426,35,35952,2,0,P|445:75|461:117,1,89.6,0|2,0:0|0:0,0:0:0:0:
412,218,36638,6,0,L|312:220,1,89.6,2|0,0:0|0:0,0:0:0:0:
266,220,37152,1,2,0:0:0:0:
170,278,37495,1,2,0:0:0:0:
74,337,37838,2,0,P|32:293|16:168,1,179.2,2|0,0:0|0:0,0:0:0:0:
128,48,39038,2,0,P|138:59|142:90,1,44.8,2|0,0:0|0:0,0:0:0:0:
148,143,39381,5,2,0:0:0:0:
370,162,40066,2,0,L|473:171,1,89.6,2|0,0:0|0:0,0:0:0:0:
447,281,40752,2,0,L|343:271,1,89.6,2|0,0:0|0:0,0:0:0:0:
246,255,41437,2,0,P|181:265|138:319,1,134.4,2|2,0:0|0:0,0:0:0:0:
111,364,42123,2,0,P|112:298|87:227,2,134.4,2|2|2,0:0|0:0|0:0,0:0:0:0:
15,316,43495,5,2,0:0:0:0:
15,316,43666,1,2,0:0:0:0:
240,357,44352,1,0,3:0:0:0:
240,357,44523,2,0,L|298:362,1,44.8,4|0,1:2|3:0,0:0:0:0:
340,364,44866,6,0,P|417:332|435:263,1,151.199995385742,6|2,3:2|0:0,0:0:0:0:
382,258,45552,2,0,P|305:226|287:157,1,151.199995385742,10|2,0:0|0:0,0:0:0:0:
282,110,46238,2,0,L|278:56,2,50.3999984619141,10|0|10,0:0|0:0|0:0,0:0:0:0:
387,74,46923,1,10,0:0:0:0:
454,163,47266,1,10,0:0:0:0:
390,254,47609,6,0,L|287:271,1,100.799996923828,10|8,0:0|0:0,0:0:0:0:
247,305,48123,2,0,L|195:296,1,50.3999984619141,2|8,0:0|0:0,0:0:0:0:
99,350,48638,2,0,P|47:322|27:231,1,151.199995385742,10|0,0:0|0:0,0:0:0:0:
31,182,49323,1,10,0:0:0:0:
41,71,49666,1,10,0:0:0:0:
152,81,50009,1,10,0:0:0:0:
142,192,50352,6,0,B|187:186|208:226|207:231|232:265|283:251,1,151.199995385742,10|2,0:0|0:0,0:0:0:0:
316,286,51038,2,0,B|345:289|359:263|359:260|375:237|409:246,1,100.799996923828,10|8,0:0|0:0,0:0:0:0:
485,170,51723,2,0,P|473:110|457:72,1,100.799996923828,10|8,0:0|0:0,0:0:0:0:
348,96,52409,1,10,0:0:0:0:
260,164,52752,2,0,P|263:188|273:212,1,50.3999984619141,10|0,0:0|0:0,0:0:0:0:
257,265,53095,6,0,P|182:252|136:307,2,151.199995385742,10|2|10,0:0|0:0|0:0,0:0:0:0:
336,342,54466,2,0,P|352:359|376:355,1,50.3999984619141,10|0,0:0|0:0,0:0:0:0:
430,342,54809,1,10,0:0:0:0:
504,259,55152,1,10,0:0:0:0:
447,162,55495,1,10,0:0:0:0:
337,186,55838,6,0,L|341:75,1,112,2|0,1:2|1:0,0:0:0:0:
346,22,56352,1,0,3:0:0:0:
346,22,56523,1,2,1:2:0:0:
237,50,56866,1,0,1:0:0:0:
128,78,57209,1,2,1:2:0:0:
156,187,57552,2,0,P|187:192|225:195,2,56,2|0|2,1:2|3:0|1:2,0:0:0:0:
48,157,58238,1,2,1:2:0:0:
76,266,58581,5,2,1:2:0:0:
180,304,58923,2,0,L|186:367,2,56,2|0|2,1:2|3:0|1:2,0:0:0:0:
290,321,59609,1,2,1:2:0:0:
394,283,59951,2,0,L|400:220,1,56,0|0,1:0|3:0,0:0:0:0:
401,169,60295,2,0,P|460:142|466:88,1,112,2|2,1:2|1:2,0:0:0:0:
385,27,60981,1,2,1:2:0:0:
303,103,61323,6,0,L|185:93,1,112,2|0,1:2|1:0,0:0:0:0:
149,65,61838,1,0,1:0:0:0:
149,65,62009,2,0,L|139:183,1,112,2|0,1:2|1:0,0:0:0:0:
78,271,62695,2,0,L|196:281,1,112,2|0,1:2|1:0,0:0:0:0:
232,309,63210,1,0,1:0:0:0:
232,309,63381,2,0,L|242:191,1,112,2|0,1:2|1:0,0:0:0:0:
349,167,64066,6,0,P|352:137|341:110,2,56,2|0|0,1:2|3:0|3:0,0:0:0:0:
395,199,64581,2,0,P|422:186|440:163,2,56,2|0|0,1:2|3:0|3:0,0:0:0:0:
390,254,65095,1,2,1:2:0:0:
337,352,65438,5,0,3:0:0:0:
341,357,65609,1,2,0:3:0:0:
121,357,66295,1,0,3:0:0:0:
121,357,66466,2,0,L|99:301,1,56,4|0,1:2|3:0,0:0:0:0:
82,251,66809,6,0,B|59:195|94:152|101:157|139:112|120:55,1,201.599993847656,6|0,3:2|0:0,0:0:0:0:
342,32,68181,2,0,P|389:38|440:54,1,100.799996923828,6|0,3:2|0:0,0:0:0:0:
505,143,68866,2,0,P|499:190|483:241,1,100.799996923828,6|0,3:2|0:0,0:0:0:0:
394,306,69552,2,0,P|347:300|296:284,1,100.799996923828,6|0,3:2|0:0,0:0:0:0:
215,360,70238,6,0,P|63:290|177:35,1,503.999984619141,2|2,0:0|0:0,0:0:0:0:
267,89,72295,6,0,B|233:139|271:185|277:184|310:221|279:284,1,201.599993847656,6|0,3:2|0:0,0:0:0:0:
489,357,73666,2,0,P|481:316|489:251,1,100.799996923828,6|0,3:2|0:0,0:0:0:0:
483,146,74352,2,0,P|443:132|391:93,1,100.799996923828,6|0,3:2|0:0,0:0:0:0:
297,45,75038,2,0,P|265:72|205:97,1,100.799996923828,6|0,3:2|0:0,0:0:0:0:
116,155,75723,6,0,B|188:193|206:274|199:276|211:340|310:375,1,302.399990771485,2|2,0:0|0:0,0:0:0:0:
408,326,77095,2,0,P|442:319|488:317,2,75.5999976928712,8|8|8,3:0|3:0|3:0,0:0:0:0:
368,286,77781,6,0,L|355:175,1,112,2|0,1:2|1:0,0:0:0:0:
351,123,78295,1,2,0:0:0:0:
351,123,78466,1,0,1:0:0:0:
239,133,78809,2,0,L|232:77,1,56,0|2,1:0|0:0,0:0:0:0:
184,48,79152,2,0,P|127:47|70:22,1,112,2|0,1:2|1:0,0:0:0:0:
31,57,79666,1,2,0:0:0:0:
31,57,79838,1,0,1:0:0:0:
79,157,80181,2,0,P|107:157|136:170,1,56,0|2,1:0|0:0,0:0:0:0:
141,222,80523,6,0,P|142:282|162:337,1,112,2|0,1:2|1:0,0:0:0:0:
211,364,81038,1,2,0:0:0:0:
211,364,81209,1,0,1:0:0:0:
288,283,81552,1,2,1:2:0:0:
391,325,81895,2,0,P|399:351|399:379,2,56,0|2|0,1:0|0:0|1:0,0:0:0:0:
373,214,82581,1,2,1:2:0:0:
270,172,82923,2,0,P|261:145|261:117,1,56,0|2,1:0|0:0,0:0:0:0:
289,69,83266,6,0,L|400:55,1,112,2|0,1:2|1:0,0:0:0:0:
454,88,83781,1,0,1:0:0:0:
454,88,83952,2,0,L|467:199,1,112,2|0,1:2|1:0,0:0:0:0:
507,303,84638,2,0,L|395:316,1,112,2|0,1:2|1:0,0:0:0:0:
343,285,85153,1,0,1:0:0:0:
343,285,85324,2,0,L|329:173,1,112,2|2,1:2|1:2,0:0:0:0:
222,138,86009,6,0,P|194:152|168:162,1,56,2|0,1:2|3:0,0:0:0:0:
157,215,86352,2,0,P|185:229|211:239,1,56,2|0,1:2|3:0,0:0:0:0:
222,292,86695,2,0,P|194:306|168:316,1,56,2|0,1:2|3:0,0:0:0:0:
117,332,87038,1,2,1:2:0:0:
51,248,87381,5,0,3:0:0:0:
51,248,87552,1,2,0:3:0:0:
134,40,88238,1,0,3:0:0:0:
134,40,88409,2,0,P|163:40|194:64,1,56,4|0,1:2|3:0,0:0:0:0:
233,82,88752,6,0,P|284:87|339:51,1,112,6|8,3:2|0:1,0:0:0:0:
442,83,89438,2,0,P|473:103|488:137,2,75.5999976928712,8|0|0,0:1|0:0|0:0,0:0:0:0:
401,121,90123,2,0,P|391:174|390:223,1,100.799996923828,8|8,0:1|0:1,0:0:0:0:
385,331,90809,1,8,0:1:0:0:
274,321,91152,2,0,P|279:294|279:270,1,50.3999984619141,8|0,0:1|3:0,0:0:0:0:
289,210,91495,6,0,P|252:159|190:150,1,123.200003759766,4|0,3:2|3:0,0:0:0:0:
135,130,92009,1,2,0:0:0:0:
135,130,92181,2,0,L|148:38,2,92.4000028198243,0|0|2,3:0|0:0|0:0,0:0:0:0:
74,144,92866,2,0,L|39:57,2,92.4000028198243,0|0|2,3:0|0:0|0:0,0:0:0:0:
28,186,93552,1,0,3:0:0:0:
20,309,93895,2,0,P|51:307|81:290,1,61.6000018798829,0|2,3:0|0:0,0:0:0:0:
138,304,94238,6,0,L|133:371,2,61.6000018798829,0|2|0,3:0|0:0|3:0,0:0:0:0:
247,246,94923,2,0,L|240:153,2,92.4000028198243,0|0|0,3:0|0:0|0:0,0:0:0:0:
257,306,95609,2,0,P|317:307|381:328,1,123.200003759766,2|0,3:2|3:0,0:0:0:0:
435,358,96123,1,2,0:0:0:0:
435,358,96295,1,0,3:0:0:0:
504,256,96638,1,0,3:0:0:0:
428,158,96981,6,0,P|389:111|373:45,1,123.200003759766,0|0,3:0|3:0,0:0:0:0:
312,38,97495,1,2,0:0:0:0:
312,38,97666,2,0,L|220:22,2,92.4000028198243,0|0|2,3:0|0:0|0:0,0:0:0:0:
285,93,98352,2,0,L|198:124,2,92.4000028198243,0|0|2,3:0|0:0|0:0,0:0:0:0:
289,154,99038,1,0,3:0:0:0:
202,241,99381,2,0,P|192:266|188:305,1,61.6000018798829,0|2,3:0|0:0,0:0:0:0:
130,323,99723,6,0,P|140:347|165:378,2,61.6000018798829,4|2|0,3:2|0:0|3:0,0:0:0:0:
84,207,100409,2,0,P|61:166|15:148,2,92.4000028198243,0|0|0,3:0|0:0|0:0,0:0:0:0:
143,191,101095,2,0,P|136:130|168:79,1,123.200003759766,0|0,3:0|3:0,0:0:0:0:
221,44,101609,1,2,0:0:0:0:
221,44,101781,1,0,3:0:0:0:
342,60,102123,1,0,3:0:0:0:
464,77,102466,6,0,P|476:109|487:206,1,123.200003759766,0|0,3:0|3:0,0:0:0:0:
487,263,102981,1,2,0:0:0:0:
487,263,103152,2,0,L|476:356,2,92.4000028198243,0|0|2,3:0|0:0|0:0,0:0:0:0:
426,273,103838,2,0,L|339:309,2,92.4000028198243,0|0|2,3:0|0:0|0:0,0:0:0:0:
386,225,104523,1,0,3:0:0:0:
358,104,104866,2,0,P|353:72|338:47,1,61.6000018798829,0|2,3:0|0:0,0:0:0:0:
278,34,105209,6,0,P|239:30|220:49,2,61.6000018798829,0|2|0,3:0|0:0|3:0,0:0:0:0:
261,156,105895,2,0,P|255:214|283:243,2,92.4000028198243,0|0|0,3:0|0:0|0:0,0:0:0:0:
199,157,106581,2,0,P|148:189|89:175,1,123.200003759766,0|0,3:0|3:0,0:0:0:0:
37,154,107095,1,2,0:0:0:0:
37,154,107266,1,0,3:0:0:0:
20,276,107609,1,0,3:0:0:0:
117,350,107952,6,0,P|167:329|190:265,1,123.200003759766,0|0,3:0|3:0,0:0:0:0:
171,214,108466,1,2,0:0:0:0:
171,214,108638,2,0,L|129:119,2,92.4000028198243,0|0|2,3:0|0:0|0:0,0:0:0:0:
219,184,109323,5,4,3:2:0:0:
439,157,110009,2,0,L|444:102,1,50.3999984619141,0|0,3:0|3:0,0:0:0:0:
449,51,110352,1,0,1:0:0:0:
329,19,110695,6,0,P|295:15|262:24,2,61.6000018798829,4|2|0,3:2|0:0|3:0,0:0:0:0:
299,139,111381,2,0,P|253:148|208:142,2,92.4000028198243,0|0|0,3:0|0:0|0:0,0:0:0:0:
344,179,112066,2,0,P|335:239|348:299,1,123.200003759766,0|0,3:0|3:0,0:0:0:0:
360,365,112581,1,2,0:0:0:0:
360,365,112752,1,0,3:0:0:0:
244,321,113095,1,0,3:0:0:0:
130,371,113438,6,0,P|79:365|33:303,1,123.200003759766,0|0,3:0|3:0,0:0:0:0:
31,255,113952,1,2,0:0:0:0:
31,255,114123,2,0,L|21:149,2,92.4000028198243,0|0|2,3:0|0:0|0:0,0:0:0:0:
88,232,114809,2,0,L|132:135,2,92.4000028198243,0|0|2,3:0|0:0|0:0,0:0:0:0:
148,240,115495,1,0,3:0:0:0:
240,321,115838,2,0,L|297:279,1,61.6000018798829,0|2,3:0|0:0,0:0:0:0:
351,290,116181,6,0,P|363:319|369:353,2,61.6000018798829,0|2|0,3:0|0:0|3:0,0:0:0:0:
316,171,116866,2,0,P|297:127|288:75,2,92.4000028198243,0|0|0,3:0|0:0|0:0,0:0:0:0:
374,152,117552,2,0,P|397:93|437:35,1,123.200003759766,0|0,3:0|3:0,0:0:0:0:
488,79,118066,1,2,0:0:0:0:
488,79,118238,1,0,3:0:0:0:
507,200,118581,1,0,3:0:0:0:
397,255,118923,6,0,P|345:276|270:254,1,123.200003759766,0|0,3:0|3:0,0:0:0:0:
224,255,119438,1,2,0:0:0:0:
224,255,119609,2,0,L|127:273,2,92.4000028198243,0|0|2,3:0|0:0|0:0,0:0:0:0:
201,197,120295,2,0,L|119:141,2,92.4000028198243,0|0|2,3:0|0:0|0:0,0:0:0:0:
225,139,120981,1,0,3:0:0:0:
346,154,121323,2,0,L|334:89,1,61.6000018798829,0|2,3:0|0:0,0:0:0:0:
323,32,121666,6,0,P|350:16|386:14,2,61.6000018798829,4|2|0,3:2|0:0|3:0,0:0:0:0:
209,80,122352,2,0,P|167:56|138:11,2,92.4000028198243,0|0|0,3:0|0:0|0:0,0:0:0:0:
225,139,123038,2,0,P|225:201|193:265,1,123.200003759766,0|0,3:0|3:0,0:0:0:0:
165,307,123552,1,2,0:0:0:0:
165,307,123723,1,0,3:0:0:0:
68,383,124066,1,0,3:0:0:0:
49,261,124409,6,0,B|59:216|39:201|37:202|20:185|35:125,1,123.200003759766,0|0,3:0|3:0,0:0:0:0:
83,107,124923,1,2,0:0:0:0:
83,107,125095,2,0,L|27:24,2,92.4000028198243,0|0|2,3:0|0:0|0:0,0:0:0:0:
140,134,125781,2,0,L|183:44,2,92.4000028198243,0|0|2,3:0|0:0|0:0,0:0:0:0:
144,195,126466,1,0,3:0:0:0:
224,290,126809,2,0,L|290:285,1,61.6000018798829,0|2,3:0|0:0,0:0:0:0:
293,224,127152,6,0,P|271:197|267:164,2,61.6000018798829,0|2|0,3:0|0:0|3:0,0:0:0:0:
389,146,127838,2,0,P|393:94|425:55,2,92.4000028198243,0|0|0,3:0|0:0|0:0,0:0:0:0:
435,186,128523,2,0,P|490:225|514:287,1,123.200003759766,0|0,1:0|1:0,0:0:0:0:
504,339,129038,1,2,0:0:0:0:
504,339,129209,2,0,L|438:348,1,61.6000018798829,2|0,1:2|3:0,0:0:0:0:
381,356,129552,1,0,1:0:0:0:
269,302,129895,6,0,B|224:294|211:321|213:321|197:348|143:339,1,123.200003759766,0|0,1:0|1:0,0:0:0:0:
132,290,130409,1,2,1:2:0:0:
132,290,130581,2,0,L|36:260,2,92.4000028198243,0|0|0,1:0|1:0|1:0,0:0:0:0:
157,241,131266,5,0,3:0:0:0:
356,144,131952,2,0,P|366:115|368:85,1,50.3999984619141,0|0,3:0|3:0,0:0:0:0:
359,40,132295,1,0,1:0:0:0:
256,77,132638,5,4,3:2:0:0:
256,330,154066,5,0,3:0:0:0:
256,330,154238,2,0,L|264:269,1,50.3999984619141,4|0,1:2|3:0,0:0:0:0:
272,224,154581,6,0,B|288:176|259:149|256:153|227:125|248:74,1,151.199995385742,6|2,3:2|0:0,0:0:0:0:
211,38,155266,2,0,B|161:48|152:86|157:87|147:126|93:133,1,151.199995385742,10|2,0:0|0:0,0:0:0:0:
81,184,155952,2,0,B|92:196|104:192|104:191|117:187|128:202,2,50.3999984619141,10|0|10,0:0|0:0|0:0,0:0:0:0:
8,268,156638,1,10,0:0:0:0:
66,364,156981,1,10,0:0:0:0:
175,338,157323,6,0,P|188:294|225:252,1,100.799996923828,10|8,0:0|0:0,0:0:0:0:
273,277,157838,2,0,P|289:295|297:319,1,50.3999984619141,2|8,0:0|0:0,0:0:0:0:
402,353,158352,2,0,P|459:331|473:248,1,151.199995385742,10|0,0:0|0:0,0:0:0:0:
453,197,159038,1,10,0:0:0:0:
494,93,159381,1,10,0:0:0:0:
390,52,159723,1,10,0:0:0:0:
349,156,160066,6,0,P|259:129|242:78,1,151.199995385742,10|2,0:0|0:0,0:0:0:0:
192,57,160752,2,0,P|149:80|142:128,1,100.799996923828,10|8,0:0|0:0,0:0:0:0:
59,202,161438,2,0,L|1:189,2,50.3999984619141,10|0|10,0:0|0:0|0:0,0:0:0:0:
147,268,162123,1,10,0:0:0:0:
235,335,162466,2,0,L|293:348,1,50.3999984619141,10|0,0:0|0:0,0:0:0:0:
323,306,162809,6,0,B|295:264|315:234|317:236|335:204|316:161,2,151.199995385742,10|2|10,0:0|0:0|0:0,0:0:0:0:
421,358,164181,2,0,B|435:351|445:357|445:358|455:364|469:355,1,50.3999984619141,10|0,0:0|0:0,0:0:0:0:
501,310,164523,1,10,0:0:0:0:
498,199,164866,1,10,0:0:0:0:
495,88,165209,1,10,0:0:0:0:
384,91,165552,6,0,P|328:95|275:66,1,112,2|0,1:2|1:0,0:0:0:0:
249,29,166066,1,0,3:0:0:0:
249,29,166238,1,2,1:2:0:0:
169,108,166581,1,0,1:0:0:0:
90,28,166923,1,2,1:2:0:0:
61,137,167266,2,0,P|28:139|5:133,2,56,2|0|2,1:2|3:0|1:2,0:0:0:0:
140,217,167952,1,2,1:2:0:0:
248,188,168295,5,2,1:2:0:0:
308,281,168638,2,0,L|300:343,2,56,2|0|2,1:2|3:0|1:2,0:0:0:0:
414,252,169323,1,2,1:2:0:0:
419,142,169666,2,0,L|461:96,1,56,0|0,1:0|3:0,0:0:0:0:
475,48,170009,2,0,P|417:45|366:9,1,112,2|2,1:2|1:2,0:0:0:0:
268,59,170695,1,2,1:2:0:0:
159,29,171038,6,0,L|44:19,1,112,2|0,1:2|1:0,0:0:0:0:
15,66,171552,1,0,1:0:0:0:
15,66,171723,2,0,L|5:181,1,112,2|0,1:2|1:0,0:0:0:0:
7,289,172409,2,0,L|122:299,1,112,2|0,1:2|1:0,0:0:0:0:
151,252,172923,1,0,1:0:0:0:
151,252,173094,2,0,L|161:137,1,112,2|0,1:2|1:0,0:0:0:0:
262,92,173781,6,0,P|286:72|327:75,2,56,2|0|0,1:2|3:0|3:0,0:0:0:0:
283,150,174295,2,0,P|312:160|330:197,2,56,2|0|0,1:2|3:0|3:0,0:0:0:0:
243,197,174809,1,2,1:2:0:0:
300,299,175152,5,0,3:0:0:0:
300,299,175323,1,2,0:3:0:0:
494,184,176009,1,0,3:0:0:0:
494,184,176181,2,0,P|497:155|504:129,1,56,4|0,1:2|3:0,0:0:0:0:
476,85,176523,6,0,B|416:108|380:62|389:57|360:18|295:30,1,201.599993847656,6|0,3:2|0:0,0:0:0:0:
199,208,177895,2,0,P|212:258|215:318,1,100.799996923828,6|0,3:2|0:0,0:0:0:0:
140,374,178581,2,0,P|90:360|36:332,1,100.799996923828,6|0,3:2|0:0,0:0:0:0:
25,239,179266,2,0,P|61:202|112:170,1,100.799996923828,6|0,3:2|0:0,0:0:0:0:
88,75,179952,6,0,P|290:36|484:240,1,503.999984619141,2|2,0:0|0:0,0:0:0:0:
449,339,182009,6,0,B|379:342|369:288|378:282|362:218|305:226,1,201.599993847656,6|0,3:2|0:0,0:0:0:0:
89,284,183381,2,0,P|57:246|27:194,1,100.799996923828,6|0,3:2|0:0,0:0:0:0:
139,178,184066,2,0,P|143:128|158:70,1,100.799996923828,6|0,3:2|0:0,0:0:0:0:
249,138,184752,2,0,P|287:106|339:75,1,100.799996923828,6|0,3:2|0:0,0:0:0:0:
436,45,185438,6,0,B|480:102|437:194|432:190|388:268|427:336,1,302.399990771485,2|2,0:0|0:0,0:0:0:0:
316,347,186809,2,0,P|275:359|241:393,2,75.5999976928712,8|8|8,3:0|3:0|3:0,0:0:0:0:
313,290,187495,6,0,P|256:287|199:268,1,112,2|0,1:2|1:0,0:0:0:0:
155,256,188009,1,2,0:0:0:0:
155,256,188181,1,0,1:0:0:0:
43,254,188523,2,0,P|44:225|54:197,1,56,0|2,1:0|0:0,0:0:0:0:
74,147,188866,2,0,L|64:31,1,112,2|0,1:2|1:0,0:0:0:0:
125,36,189381,1,2,0:0:0:0:
125,36,189552,1,0,1:0:0:0:
235,56,189895,2,0,L|240:114,1,56,0|2,1:0|0:0,0:0:0:0:
244,167,190238,6,0,P|300:172|343:217,1,112,2|0,1:2|1:0,0:0:0:0:
357,267,190752,1,2,0:0:0:0:
357,267,190923,1,0,1:0:0:0:
462,228,191266,1,2,1:2:0:0:
432,119,191609,2,0,P|452:100|479:98,2,56,0|2|0,1:0|0:0|1:0,0:0:0:0:
324,87,192295,1,2,1:2:0:0:
215,54,192638,2,0,P|188:52|168:34,1,56,0|2,1:0|0:0,0:0:0:0:
112,25,192981,6,0,L|5:77,1,112,2|0,1:2|1:0,0:0:0:0:
9,133,193495,1,0,1:0:0:0:
9,133,193666,2,0,L|61:240,1,112,2|0,1:2|1:0,0:0:0:0:
71,345,194352,2,0,L|178:293,1,112,2|0,1:2|1:0,0:0:0:0:
174,237,194866,1,0,1:0:0:0:
174,237,195037,2,0,L|122:130,1,112,2|2,1:2|1:2,0:0:0:0:
214,68,195723,6,0,P|237:70|269:48,1,56,2|0,1:2|3:0,0:0:0:0:
315,29,196066,2,0,P|329:46|368:53,1,56,2|0,1:2|3:0,0:0:0:0:
413,72,196409,2,0,P|411:95|433:127,1,56,2|0,1:2|3:0,0:0:0:0:
451,171,196752,1,2,1:2:0:0:
478,284,197095,5,0,3:0:0:0:
478,284,197266,1,2,0:3:0:0:
308,357,197781,2,0,L|244:350,1,56,2|0,0:0|0:0,0:0:0:0:
208,316,198123,2,0,L|215:252,1,56,0|0,1:0|0:0,0:0:0:0:
219,198,198466,6,0,B|223:151|204:141|204:143|187:128|192:76,1,123.200003759766,6|2,3:2|3:2,0:0:0:0:
70,105,199152,2,0,B|66:152|85:162|85:160|102:175|97:227,1,123.200003759766,2|2,3:2|3:2,0:0:0:0:
28,324,199838,2,0,P|80:344|147:328,1,123.200003759766,2|0,3:2|3:0,0:0:0:0:
205,311,200352,1,2,0:0:0:0:
205,311,200523,1,0,3:0:0:0:
324,340,200866,2,0,P|334:311|326:281,1,61.6000018798829,2|0,3:2|3:0,0:0:0:0:
347,223,201209,6,0,L|476:233,1,123.200003759766,2|0,3:2|3:0,0:0:0:0:
495,178,201723,1,2,0:0:0:0:
495,178,201895,1,0,3:0:0:0:
483,55,202238,2,0,L|354:45,1,123.200003759766,2|2,3:2|3:2,0:0:0:0:
256,111,202923,1,2,3:2:0:0:
152,45,203266,2,0,P|131:29|96:23,1,61.6000018798829,0|2,3:0|3:2,0:0:0:0:
37,38,203609,2,0,P|21:59|15:94,1,61.6000018798829,0|2,3:0|3:2,0:0:0:0:
30,153,203952,6,0,P|82:179|97:247,1,123.200003759766,2|2,3:2|3:2,0:0:0:0:
222,245,204638,2,0,P|248:193|316:178,1,123.200003759766,2|2,3:2|3:2,0:0:0:0:
428,197,205323,2,0,L|454:324,1,123.200003759766,2|0,3:2|3:0,0:0:0:0:
408,360,205838,1,2,0:0:0:0:
408,360,206009,1,0,3:0:0:0:
284,362,206352,2,0,L|296:301,1,61.6000018798829,2|0,3:2|3:0,0:0:0:0:
265,248,206695,6,0,B|241:238|207:266|207:267|172:293|139:282,1,123.200003759766,2|0,3:2|3:0,0:0:0:0:
93,282,207209,1,2,0:0:0:0:
93,282,207381,1,0,3:0:0:0:
14,187,207723,2,0,B|35:195|70:169|70:168|104:140|128:150,1,123.200003759766,2|2,3:2|3:2,0:0:0:0:
248,127,208409,1,2,3:2:0:0:
265,248,208752,2,0,P|267:280|259:317,1,61.6000018798829,0|2,3:0|3:2,0:0:0:0:
308,349,209095,2,0,P|340:347|377:355,1,61.6000018798829,0|2,3:0|3:2,0:0:0:0:
409,306,209438,6,0,P|407:274|479:220,1,123.200003759766,6|2,3:2|3:2,0:0:0:0:
474,96,210123,2,0,P|442:98|388:26,1,123.200003759766,2|2,3:2|3:2,0:0:0:0:
263,31,210809,2,0,P|206:45|138:50,1,123.200003759766,2|0,3:2|3:0,0:0:0:0:
85,58,211323,1,2,0:0:0:0:
85,58,211495,1,0,3:0:0:0:
63,179,211838,2,0,P|91:172|125:169,1,61.6000018798829,2|0,3:2|3:0,0:0:0:0:
185,168,212181,6,0,P|239:204|241:259,1,123.200003759766,2|0,3:2|3:0,0:0:0:0:
224,319,212695,1,2,0:0:0:0:
224,319,212866,2,0,L|166:339,1,61.6000018798829,0|0,3:0|0:0,0:0:0:0:
107,359,213209,2,0,P|53:323|51:268,1,123.200003759766,2|2,3:2|3:2,0:0:0:0:
63,146,213895,1,2,3:2:0:0:
185,168,214238,2,0,P|211:165|253:145,1,61.6000018798829,0|2,3:0|3:2,0:0:0:0:
300,176,214581,2,0,P|316:155|331:111,1,61.6000018798829,0|2,3:0|3:2,0:0:0:0:
386,100,214923,6,0,P|440:116|510:117,1,123.200003759766,2|2,3:2|3:2,0:0:0:0:
507,241,215609,2,0,P|453:225|383:224,1,123.200003759766,2|2,3:2|3:2,0:0:0:0:
263,238,216295,2,0,L|275:367,1,123.200003759766,2|0,3:2|3:0,0:0:0:0:
340,362,216809,1,2,0:0:0:0:
340,362,216981,1,2,3:2:0:0:
461,379,217323,2,0,L|466:317,1,61.6000018798829,2|0,3:2|3:0,0:0:0:0:
472,256,217666,5,2,3:2:0:0:
480,133,218009,2,0,P|457:114|445:81,1,61.6000018798829,2|0,3:2|3:0,0:0:0:0:
395,48,218352,2,0,P|370:64|335:65,1,61.6000018798829,2|0,3:2|3:0,0:0:0:0:
287,102,218695,2,0,P|294:131|285:165,1,61.6000018798829,2|0,3:2|3:0,0:0:0:0:
308,225,219038,5,0,3:0:0:0:
308,225,219209,1,2,0:0:0:0:
139,336,219895,1,0,3:0:0:0:
139,336,220066,2,0,L|90:328,1,50.3999984619141,4|2,1:2|0:0,0:0:0:0:
34,318,220409,5,4,3:2:0:0:
256,192,220581,12,0,225895,3:0:0:0:
