osu file format v14

[General]
AudioFilename: audio.mp3
AudioLeadIn: 0
PreviewTime: 44695
Countdown: 0
SampleSet: Soft
StackLeniency: 0.7
Mode: 0
LetterboxInBreaks: 0
WidescreenStoryboard: 1

[Editor]
Bookmarks: 22923,33895,44866,55838,66809,77781,88752,99723,110695,121666,132638,154581,165552,176523,187495,198466,209438,220409
DistanceSpacing: 2
BeatDivisor: 4
GridSize: 32
TimelineZoom: 1.46

[Metadata]
Title:Wave feat. Aitsuki Nakuru
TitleUnicode:Wave feat. 藍月なくる
Artist:Mameyudoufu
ArtistUnicode:Mameyudoufu
Creator:Hinsvar
Version:Insane
Source:
Tags:Electronic Japanese future core MEGAREX FUTURE EVANGELIX Featured Artist FA Mappers' Guild MG MPG
BeatmapID:4399153
BeatmapSetID:2097481

[Difficulty]
HPDrainRate:5
CircleSize:4
OverallDifficulty:8
ApproachRate:9
SliderMultiplier:1.6
SliderTickRate:1

[Events]
//Background and Video events
0,0,"BG.jpg",0,0
//Break Periods
2,132838,153466
//Storyboard Layer 0 (Background)
//Storyboard Layer 1 (Fail)
//Storyboard Layer 2 (Pass)
//Storyboard Layer 3 (Foreground)
//Storyboard Layer 4 (Overlay)
//Storyboard Sound Samples

[TimingPoints]
981,342.857142857143,4,2,1,50,1,0
22238,-250,4,2,1,50,0,0
44866,-166.666666666667,4,2,1,60,0,0
55838,-125,4,2,1,65,0,0
66809,-100,4,2,1,65,0,0
68181,-125,4,2,1,65,0,0
68866,-166.666666666667,4,2,1,65,0,0
69552,-250,4,2,1,65,0,0
70923,-100,4,2,1,65,0,0
72295,-83.3333333333333,4,2,1,65,0,0
73666,-100,4,2,1,65,0,0
74352,-125,4,2,1,65,0,0
75038,-166.666666666667,4,2,1,65,0,0
76409,-100,4,2,1,65,0,0
77095,-83.3333333333333,4,2,1,65,0,0
77781,-100,4,2,1,70,0,0
88752,-100,4,2,1,70,0,0
89095,-250,4,2,1,70,0,0
90809,-125,4,2,1,70,0,0
91495,-83.3333333333333,4,2,1,80,0,1
109323,-250,4,2,1,70,0,0
110009,-125,4,2,1,70,0,0
110695,-83.3333333333333,4,2,1,80,0,1
131266,-250,4,2,1,70,0,0
131952,-125,4,2,1,70,0,0
132638,-250,4,2,1,70,0,0
154581,-166.666666666667,4,2,1,60,0,0
165552,-125,4,2,1,65,0,0
176523,-100,4,2,1,65,0,0
177895,-125,4,2,1,65,0,0
178581,-166.666666666667,4,2,1,65,0,0
179266,-250,4,2,1,65,0,0
180638,-100,4,2,1,65,0,0
182009,-83.3333333333333,4,2,1,65,0,0
183381,-100,4,2,1,65,0,0
184066,-125,4,2,1,65,0,0
184752,-166.666666666667,4,2,1,65,0,0
186123,-100,4,2,1,65,0,0
186809,-83.3333333333333,4,2,1,65,0,0
187495,-100,4,2,1,70,0,0
198466,-83.3333333333333,4,2,1,80,0,1
219038,-250,4,2,1,70,0,0
220409,-250,4,2,1,70,0,0

[Colours]
Combo1 : 103,189,207
Combo2 : 99,189,243
Combo3 : 132,236,236
Combo4 : 60,132,221

[HitObjects]
256,192,17438,12,2,21552,3:2:0:0:
39,264,22238,5,2,0:0:0:0:
39,264,22581,1,2,0:0:0:0:
137,99,22923,6,0,B|159:95|176:124|173:128|195:151|220:143,1,96,6|2,3:2|0:0,0:0:0:0:
328,358,23952,2,0,B|363:369|400:331|395:324|423:276|460:283,1,160,2|0,0:0|0:0,0:0:0:0:
459,282,25152,1,2,0:0:0:0:
500,213,25323,2,0,P|502:194|499:174,1,32,2|0,0:0|0:0,0:0:0:0:
439,69,25666,6,0,L|362:78,1,64,2|0,0:0|0:0,0:0:0:0:
288,137,26181,2,0,L|300:107,1,32,2|0,0:0|0:0,0:0:0:0:
291,1,26523,2,0,L|310:26,1,32,2|0,0:0|0:0,0:0:0:0:
206,114,26866,2,0,P|162:113|132:70,1,96,2|0,0:0|0:0,0:0:0:0:
132,74,27723,2,0,P|122:61|107:60,2,32,2|0|2,0:0|0:0|0:0,0:0:0:0:
198,274,28409,6,0,P|195:318|193:374,1,96,2|2,0:0|0:0,0:0:0:0:
193,369,29438,2,0,P|178:368|159:367,1,32,2|0,0:0|0:0,0:0:0:0:
55,294,29781,2,0,P|84:295|121:297,1,64,2|0,0:0|0:0,0:0:0:0:
118,296,30466,1,2,0:0:0:0:
96,223,30638,1,2,0:0:0:0:
160,176,30809,1,2,0:0:0:0:
225,224,30981,1,2,0:0:0:0:
200,299,31152,6,0,P|221:340|275:354,1,96,2|2,0:0|0:0,0:0:0:0:
428,339,32009,1,2,0:0:0:0:
428,339,32181,1,2,0:0:0:0:
333,206,32523,1,2,0:0:0:0:
333,206,32695,1,2,0:0:0:0:
335,285,32866,2,0,P|334:296|338:310,3,16,2|0|0|0,0:0|0:0|0:0|0:0,0:0:0:0:
345,312,33209,2,0,P|348:343|343:375,1,64,2|0,0:0|0:0,0:0:0:0:
110,235,33895,6,0,P|151:235|191:194,1,96,2|0,3:2|0:0,0:0:0:0:
376,47,34923,2,0,P|348:47|322:74,1,64,2|0,0:0|0:0,0:0:0:0:
323,71,35781,2,0,L|286:62,2,32,2|0|0,0:0|0:0|0:0,0:0:0:0:
306,149,36295,2,0,L|274:141,1,32,2|0,0:0|0:0,0:0:0:0:
176,89,36638,6,0,P|150:104|112:110,1,64,2|0,0:0|0:0,0:0:0:0:
86,201,37152,2,0,P|99:193|118:190,1,32,2|0,0:0|0:0,0:0:0:0:
192,214,37495,2,0,P|191:229|185:246,1,32,2|0,0:0|0:0,0:0:0:0:
210,364,37838,2,0,P|158:333|108:273,1,128,2|0,0:0|0:0,0:0:0:0:
114,282,39038,2,0,L|111:241,1,32,2|0,0:0|0:0,0:0:0:0:
151,180,39381,6,0,P|135:154|93:140,1,64,2|0,0:0|0:0,0:0:0:0:
100,64,39895,1,2,0:0:0:0:
100,64,40066,2,0,P|130:63|163:33,1,64,2|0,0:0|0:0,0:0:0:0:
354,44,40752,2,0,P|380:62|412:63,1,64,2|0,0:0|0:0,0:0:0:0:
406,140,41266,1,2,0:0:0:0:
406,140,41438,2,0,P|377:153|361:180,1,64,2|0,0:0|0:0,0:0:0:0:
296,137,41952,5,2,0:0:0:0:
296,137,42123,2,0,P|299:105|283:78,1,64,2|0,0:0|0:0,0:0:0:0:
132,101,42638,2,0,P|129:133|145:160,1,64,2|0,0:0|0:0,0:0:0:0:
214,119,43153,1,2,0:0:0:0:
298,265,43495,1,2,0:0:0:0:
298,265,43666,1,2,0:0:0:0:
298,265,44352,5,0,3:0:0:0:
298,265,44438,1,0,3:0:0:0:
298,265,44523,1,4,1:2:0:0:
379,365,44695,2,0,P|379:352|384:340,1,16,0|0,3:0|0:0,0:0:0:0:
412,235,44866,6,0,P|458:226|481:175,1,95.9999970703126,6|8,3:2|0:0,0:0:0:0:
480,56,45381,1,2,0:0:0:0:
407,23,45552,2,0,P|361:32|338:83,1,95.9999970703126,10|8,0:0|0:0,0:0:0:0:
339,202,46067,1,2,0:0:0:0:
347,281,46238,6,0,L|342:332,1,47.9999985351563,10|0,0:0|0:0,0:0:0:0:
245,376,46581,2,0,L|240:325,1,47.9999985351563,10|0,0:0|0:0,0:0:0:0:
143,281,46923,2,0,L|138:332,1,47.9999985351563,10|0,0:0|0:0,0:0:0:0:
242,178,47266,1,10,0:0:0:0:
242,178,47609,6,0,P|198:194|155:175,1,95.9999970703126,10|8,0:0|0:0,0:0:0:0:
80,97,48123,2,0,P|102:89|123:98,1,47.9999985351563,2|8,0:0|0:0,0:0:0:0:
123,98,48638,2,0,B|90:129|103:169|106:166|120:198|83:236,1,143.999995605469,10|0,0:0|0:0,0:0:0:0:
23,321,49323,2,0,P|45:313|69:309,1,47.9999985351563,10|0,0:0|0:0,0:0:0:0:
172,370,49666,1,10,0:0:0:0:
172,370,50009,2,0,P|175:346|183:323,1,47.9999985351563,10|0,0:0|0:0,0:0:0:0:
286,293,50352,6,0,P|251:279|238:224,1,95.9999970703126,10|8,0:0|0:0,0:0:0:0:
309,99,50866,1,2,0:0:0:0:
388,84,51038,2,0,P|423:98|436:153,1,95.9999970703126,10|8,0:0|0:0,0:0:0:0:
365,278,51552,1,2,0:0:0:0:
352,356,51723,6,0,L|296:373,1,47.9999985351563,10|0,0:0|0:0,0:0:0:0:
264,256,52066,2,0,L|247:200,1,47.9999985351563,10|0,0:0|0:0,0:0:0:0:
364,168,52409,1,10,0:0:0:0:
364,168,52752,2,0,L|420:151,1,47.9999985351563,10|0,0:0|0:0,0:0:0:0:
508,85,53095,6,0,P|462:84|416:60,1,95.9999970703126,10|8,0:0|0:0,0:0:0:0:
250,63,53609,2,0,P|296:64|342:88,1,95.9999970703126,2|0,0:0|0:0,0:0:0:0:
284,144,54123,1,10,0:0:0:0:
284,144,54466,2,0,L|291:207,1,47.9999985351563,10|0,0:0|0:0,0:0:0:0:
183,176,54809,2,0,L|173:238,1,47.9999985351563,10|0,0:0|0:0,0:0:0:0:
246,261,55152,2,0,P|255:305|255:358,1,95.9999970703126,10|10,0:0|0:0,0:0:0:0:
15,146,55838,6,0,P|48:148|83:123,1,64,2|0,1:2|3:0,0:0:0:0:
193,85,56095,1,0,1:0:0:0:
191,69,56181,2,0,P|158:67|123:92,1,64,0|0,1:0|3:0,0:0:0:0:
66,228,56523,1,2,1:2:0:0:
77,258,56609,1,0,1:0:0:0:
87,288,56695,1,0,1:0:0:0:
243,371,56866,2,0,B|232:342|246:326|249:326|265:305|258:276,1,96,0|0,1:0|0:0,0:0:0:0:
245,209,57209,5,2,1:2:0:0:
351,112,57381,1,0,1:0:0:0:
382,118,57466,1,0,1:0:0:0:
413,124,57552,2,0,L|427:194,1,64,2|0,1:2|3:0,0:0:0:0:
497,311,57895,1,2,1:2:0:0:
466,305,57980,1,0,1:0:0:0:
435,299,58066,1,0,1:0:0:0:
258,279,58238,2,0,B|232:286|232:286|202:308|202:308|170:315,1,96,2|0,1:2|0:0,0:0:0:0:
100,328,58581,5,2,1:2:0:0:
32,183,58752,1,0,1:0:0:0:
59,199,58837,1,0,1:0:0:0:
89,208,58923,2,0,P|106:180|116:142,1,64,2|0,1:2|3:0,0:0:0:0:
244,30,59266,1,2,1:2:0:0:
260,57,59351,1,0,1:0:0:0:
269,87,59437,1,0,1:0:0:0:
435,146,59609,2,0,P|493:160|505:203,1,96,2|0,1:2|0:0,0:0:0:0:
469,253,59952,6,0,L|465:178,1,64,0|0,1:0|3:0,0:0:0:0:
360,47,60295,1,2,1:2:0:0:
358,78,60380,1,0,1:0:0:0:
356,110,60466,1,0,1:0:0:0:
202,153,60638,2,0,L|127:149,1,64,2|0,1:2|3:0,0:0:0:0:
354,255,60981,2,0,B|328:258|328:258|291:283|291:283|266:286,1,96,2|0,1:2|0:0,0:0:0:0:
198,263,61323,6,0,L|189:330,1,64,2|0,1:2|1:0,0:0:0:0:
65,352,61666,2,0,L|56:288,1,64,0|0,1:0|1:0,0:0:0:0:
138,149,62009,5,2,1:2:0:0:
53,102,62181,1,0,1:0:0:0:
136,52,62352,1,0,1:0:0:0:
221,99,62523,1,0,1:0:0:0:
377,29,62695,6,0,L|369:70,1,32,2|0,1:2|0:0,0:0:0:0:
443,73,62866,2,0,L|435:114,1,32,0|0,1:0|0:0,0:0:0:0:
369,132,63038,2,0,L|361:173,1,32,0|0,1:0|0:0,0:0:0:0:
435,176,63209,2,0,L|427:217,1,32,0|0,1:0|0:0,0:0:0:0:
507,310,63381,6,0,P|491:315|476:316,1,32,2|0,1:2|0:0,0:0:0:0:
403,367,63552,2,0,P|386:364|373:357,1,32,0|0,1:0|0:0,0:0:0:0:
360,270,63723,2,0,P|347:259|339:246,1,32,0|0,1:0|0:0,0:0:0:0:
258,208,63894,2,0,P|252:192|251:177,1,32,0|0,1:0|0:0,0:0:0:0:
248,23,64066,5,2,1:2:0:0:
254,37,64151,1,0,3:0:0:0:
258,52,64237,1,0,3:0:0:0:
261,68,64323,1,0,3:0:0:0:
260,84,64409,2,0,P|244:89|229:90,1,32,0|0,3:0|3:0,0:0:0:0:
140,101,64581,5,2,1:2:0:0:
134,87,64666,1,0,3:0:0:0:
130,72,64752,1,0,3:0:0:0:
127,56,64838,1,0,3:0:0:0:
128,40,64924,2,0,P|143:34|158:33,1,32,0|0,3:0|3:0,0:0:0:0:
242,171,65095,6,0,P|247:185|248:201,3,32,2|2|2|2,1:2|3:2|3:2|3:2,0:0:0:0:
265,276,65437,5,0,3:0:0:0:
265,276,65609,1,2,0:3:0:0:
265,276,66295,5,0,3:0:0:0:
265,276,66381,1,0,3:0:0:0:
265,276,66467,1,4,1:2:0:0:
152,336,66638,2,0,P|147:350|146:366,1,32,0|0,3:0|0:0,0:0:0:0:
47,377,66809,6,0,B|-13:285|47:224|52:232|119:156|62:78,1,320,6|0,3:2|0:0,0:0:0:0:
62,79,68181,6,0,B|16:147|62:193|65:187|116:244|73:303,1,224,6|0,3:2|0:0,0:0:0:0:
141,331,68866,6,0,B|106:280|141:245|143:250|181:207|149:163,1,167.999994873047,6|0,3:2|0:0,0:0:0:0:
207,122,69552,6,0,B|248:119|263:143|260:144|271:165|322:156,1,112,6|0,3:2|0:0,0:0:0:0:
402,129,70238,5,2,0:0:0:0:
409,128,70323,1,2,0:0:0:0:
417,127,70409,1,2,0:0:0:0:
424,123,70495,1,2,0:0:0:0:
430,118,70580,1,2,0:0:0:0:
437,113,70666,1,2,0:0:0:0:
444,110,70752,1,2,0:0:0:0:
452,109,70838,1,2,0:0:0:0:
460,109,70923,6,0,P|462:88|468:69,15,40,2|2|2|2|2|2|2|2|2|2|2|2|2|2|2|2,0:0|0:0|0:0|0:0|0:0|0:0|0:0|0:0|0:0|0:0|0:0|0:0|0:0|0:0|0:0|0:0,0:0:0:0:
495,1,72295,6,0,P|437:106|195:86,1,383.99998828125,6|0,3:2|0:0,0:0:0:0:
201,93,73666,6,0,P|203:183|38:260,1,280,6|0,3:2|0:0,0:0:0:0:
71,195,74352,6,0,P|134:229|122:374,1,224,6|0,3:2|0:0,0:0:0:0:
196,333,75038,6,0,P|223:282|339:292,1,167.999994873047,6|0,3:2|0:0,0:0:0:0:
399,339,75723,5,2,0:0:0:0:
402,350,75808,1,2,0:0:0:0:
408,360,75894,1,2,0:0:0:0:
416,369,75980,1,2,0:0:0:0:
427,375,76065,1,2,0:0:0:0:
438,378,76151,1,2,0:0:0:0:
450,378,76237,1,2,0:0:0:0:
462,375,76323,1,2,0:0:0:0:
472,369,76409,6,0,P|499:358|508:360,7,40,2|2|2|2|2|2|2|2,0:0|0:0|0:0|0:0|0:0|0:0|0:0|0:0,0:0:0:0:
474,282,77095,6,0,L|452:139,2,143.999995605469,8|8|8,3:0|3:0|3:0,0:0:0:0:
326,184,77781,6,0,P|317:221|311:270,1,80,2|0,1:2|0:0,0:0:0:0:
257,347,78038,1,2,0:0:0:0:
245,363,78123,2,0,P|231:349|211:335,1,40,0|0,1:0|0:0,0:0:0:0:
160,229,78295,2,0,P|178:223|200:213,1,40,2|0,0:0|0:0,0:0:0:0:
235,87,78466,1,0,1:0:0:0:
235,87,78809,2,0,P|234:57|239:36,1,40,0|0,1:0|0:0,0:0:0:0:
150,20,78981,2,0,P|152:39|150:59,1,40,2|0,0:0|0:0,0:0:0:0:
327,130,79152,6,0,P|320:86|344:46,1,80,2|0,1:2|0:0,0:0:0:0:
444,146,79409,1,2,0:0:0:0:
447,165,79495,2,0,P|429:178|406:178,1,40,0|0,1:0|0:0,0:0:0:0:
417,43,79666,2,0,P|437:51|449:71,1,40,2|0,0:0|0:0,0:0:0:0:
335,215,79838,1,0,1:0:0:0:
335,215,80181,2,0,L|291:221,1,40,0|0,1:0|0:0,0:0:0:0:
304,294,80352,2,0,L|343:288,1,40,2|0,0:0|0:0,0:0:0:0:
472,369,80523,6,0,P|441:349|398:345,1,80,2|0,1:2|0:0,0:0:0:0:
264,365,80781,1,2,0:0:0:0:
245,359,80866,2,0,P|228:367|216:385,1,40,0|0,1:0|0:0,0:0:0:0:
72,309,81038,2,0,P|88:300|100:282,1,40,2|0,0:0|0:0,0:0:0:0:
236,264,81209,1,0,1:0:0:0:
236,264,81552,6,0,B|257:222|229:203|228:206|202:188|219:133,1,120,2|0,1:2|0:0,0:0:0:0:
325,152,81895,2,0,B|318:137|327:131|327:132|336:126|330:108,1,40,0|0,1:0|0:0,0:0:0:0:
242,33,82066,1,2,0:0:0:0:
242,33,82152,1,2,0:0:0:0:
242,33,82238,1,0,1:0:0:0:
242,33,82581,6,0,P|193:66|138:50,1,120,2|0,1:2|0:0,0:0:0:0:
71,18,82923,2,0,P|55:7|37:12,2,40,0|0|2,1:0|0:0|0:0,0:0:0:0:
239,157,83266,6,0,L|325:173,1,80,2|0,1:2|1:0,0:0:0:0:
357,329,83609,2,0,L|271:345,1,80,0|0,1:0|1:0,0:0:0:0:
111,368,83952,5,2,1:2:0:0:
33,274,84123,1,0,1:0:0:0:
78,161,84295,1,0,1:0:0:0:
156,254,84466,1,0,1:0:0:0:
295,333,84638,6,0,L|337:325,1,40,2|0,1:2|0:0,0:0:0:0:
401,351,84809,2,0,L|443:343,1,40,0|0,1:0|0:0,0:0:0:0:
349,252,84981,2,0,L|391:244,1,40,0|0,1:0|0:0,0:0:0:0:
455,270,85152,2,0,L|497:262,1,40,0|0,1:0|0:0,0:0:0:0:
434,142,85323,6,0,P|445:120|446:96,1,40,2|0,1:2|0:0,0:0:0:0:
336,26,85495,2,0,P|325:48|324:72,1,40,0|0,1:0|0:0,0:0:0:0:
188,63,85666,6,0,P|184:43|175:25,1,40,2|0,1:2|0:0,0:0:0:0:
65,104,85838,2,0,P|68:124|78:142,1,40,0|0,1:0|0:0,0:0:0:0:
236,204,86009,6,0,L|276:195,3,40,2|0|0|0,1:2|3:0|3:0|3:0,0:0:0:0:
330,241,86352,2,0,L|339:281,3,40,2|0|0|0,1:2|3:0|3:0|3:0,0:0:0:0:
293,335,86696,5,2,1:2:0:0:
273,340,86781,1,0,3:0:0:0:
253,344,86867,1,0,3:0:0:0:
234,349,86953,1,0,3:0:0:0:
214,353,87038,1,2,1:2:0:0:
195,357,87124,1,0,3:0:0:0:
175,362,87209,2,0,L|135:371,1,40,0|0,3:0|3:0,0:0:0:0:
21,347,87381,5,0,3:0:0:0:
21,347,87552,1,2,0:3:0:0:
21,347,88238,5,0,3:0:0:0:
21,347,88323,1,0,3:0:0:0:
21,347,88409,1,4,1:2:0:0:
169,283,88581,2,0,P|171:256|180:237,1,40,0|0,3:0|0:0,0:0:0:0:
66,241,88752,6,0,P|51:183|1:145,1,120,6|0,3:2|0:0,0:0:0:0:
5,62,89095,5,8,0:1:0:0:
12,65,89181,2,0,L|53:60,1,32,2|0,0:0|0:0,0:0:0:0:
164,35,89438,6,0,P|141:28|108:29,1,48,8|0,0:1|0:0,0:0:0:0:
114,35,89781,2,0,L|119:76,1,32,8|0,0:1|0:0,0:0:0:0:
248,166,90123,6,0,L|253:118,1,48,8|0,0:1|0:0,0:0:0:0:
268,46,90466,1,8,0:1:0:0:
268,46,90552,1,2,0:0:0:0:
268,46,90638,1,2,0:0:0:0:
448,31,90809,6,0,P|420:31|380:51,1,64,8|0,0:1|3:0,0:0:0:0:
340,129,91066,1,0,3:0:0:0:
352,139,91152,2,0,P|380:139|420:119,1,64,8|0,0:1|3:0,0:0:0:0:
512,193,91409,1,0,3:0:0:0:
472,220,91495,6,0,B|452:258|481:291|480:292|508:318|487:365,1,143.999995605469,4|0,3:2|0:0,0:0:0:0:
378,348,91838,2,0,B|364:322|383:300|383:300|401:282|387:251,1,95.9999970703126,0|2,3:0|0:0,0:0:0:0:
228,146,92181,1,0,3:0:0:0:
212,164,92266,2,0,P|168:169|115:189,1,95.9999970703126,2|0,0:0|0:0,0:0:0:0:
233,288,92523,2,0,P|241:267|246:239,1,47.9999985351563,0|0,3:0|0:0,0:0:0:0:
120,269,92695,2,0,P|133:286|155:304,1,47.9999985351563,2|0,0:0|0:0,0:0:0:0:
322,182,92866,5,0,3:0:0:0:
330,159,92952,2,0,B|335:131|323:109|320:110|305:86|310:55,1,95.9999970703126,2|0,0:0|0:0,0:0:0:0:
395,16,93209,1,0,3:0:0:0:
395,16,93295,1,2,0:0:0:0:
395,16,93381,1,2,0:0:0:0:
212,56,93552,6,0,P|185:59|162:43,3,47.9999985351563,0|2|2|2,3:0|0:0|0:0|0:0,0:0:0:0:
97,38,93895,1,0,3:0:0:0:
132,70,93980,1,2,0:0:0:0:
156,111,94066,1,2,0:0:0:0:
167,158,94152,1,2,0:0:0:0:
163,205,94237,1,0,3:0:0:0:
349,205,94409,5,2,0:0:0:0:
349,205,94495,1,2,0:0:0:0:
349,205,94581,2,0,P|337:176|356:111,1,95.9999970703126,0|0,3:0|0:0,0:0:0:0:
332,46,94838,2,0,P|346:40|379:49,1,47.9999985351563,2|0,0:0|3:0,0:0:0:0:
489,150,95009,1,2,0:0:0:0:
470,165,95095,2,0,P|455:171|423:161,1,47.9999985351563,2|0,0:0|0:0,0:0:0:0:
256,133,95266,2,0,B|239:120|210:144|213:145|185:164|163:149,1,95.9999970703126,0|0,3:0|0:0,0:0:0:0:
6,261,95609,6,0,P|16:339|78:378,1,143.999995605469,2|0,3:2|0:0,0:0:0:0:
136,352,95952,1,0,3:0:0:0:
154,307,96037,1,2,0:0:0:0:
189,275,96123,1,2,0:0:0:0:
234,260,96209,1,2,0:0:0:0:
281,266,96295,2,0,P|324:276|355:237,1,95.9999970703126,0|0,3:0|0:0,0:0:0:0:
315,24,96638,6,0,L|322:71,1,47.9999985351563,0|0,3:0|0:0,0:0:0:0:
432,117,96809,1,2,0:0:0:0:
432,117,96895,1,2,0:0:0:0:
432,117,96981,2,0,P|439:167|419:124,1,143.999995605469,0|0,3:0|0:0,0:0:0:0:
356,155,97323,2,0,P|307:157|261:142,1,95.9999970703126,0|2,3:0|0:0,0:0:0:0:
71,43,97666,5,0,3:0:0:0:
91,31,97752,2,0,P|129:44|131:107,1,95.9999970703126,2|0,0:0|0:0,0:0:0:0:
44,183,98009,2,0,P|41:160|59:146,1,47.9999985351563,0|0,3:0|0:0,0:0:0:0:
184,182,98181,2,0,P|165:195|144:187,1,47.9999985351563,2|0,0:0|0:0,0:0:0:0:
22,275,98352,5,0,3:0:0:0:
39,291,98438,2,0,B|62:309|61:331|60:334|61:359|83:377,1,95.9999970703126,2|0,0:0|0:0,0:0:0:0:
183,332,98695,1,0,3:0:0:0:
183,332,98781,1,2,0:0:0:0:
183,332,98866,1,2,0:0:0:0:
329,332,99038,6,0,P|357:336|364:360,3,47.9999985351563,0|2|2|2,3:0|0:0|0:0|0:0,0:0:0:0:
435,363,99381,1,0,3:0:0:0:
402,328,99466,1,2,0:0:0:0:
390,282,99552,1,2,0:0:0:0:
400,235,99638,1,2,0:0:0:0:
432,200,99723,6,0,L|434:152,1,47.9999985351563,4|0,3:2|0:0,0:0:0:0:
318,40,99895,1,2,0:0:0:0:
318,40,99981,1,2,0:0:0:0:
318,40,100066,2,0,P|345:73|350:137,1,95.9999970703126,0|0,3:0|0:0,0:0:0:0:
175,200,100323,2,0,P|161:183|159:151,1,47.9999985351563,2|0,0:0|3:0,0:0:0:0:
277,111,100495,1,2,0:0:0:0:
276,135,100581,2,0,P|259:148|227:151,1,47.9999985351563,2|0,0:0|0:0,0:0:0:0:
105,51,100752,2,0,B|131:47|146:69|145:69|167:89|207:84,1,95.9999970703126,0|0,3:0|0:0,0:0:0:0:
359,226,101095,6,0,P|353:285|350:378,1,143.999995605469,0|0,3:0|0:0,0:0:0:0:
421,354,101438,1,0,3:0:0:0:
382,325,101523,1,2,0:0:0:0:
342,298,101609,1,2,0:0:0:0:
302,272,101695,1,2,0:0:0:0:
261,247,101781,2,0,P|218:269|175:289,1,95.9999970703126,0|0,3:0|0:0,0:0:0:0:
16,366,102123,6,0,P|4:344|7:315,1,47.9999985351563,0|0,3:0|0:0,0:0:0:0:
105,224,102295,1,2,0:0:0:0:
105,224,102380,1,2,0:0:0:0:
105,224,102466,2,0,P|83:256|80:197,1,143.999995605469,0|0,3:0|0:0,0:0:0:0:
55,128,102809,2,0,P|86:157|144:158,1,95.9999970703126,0|2,3:0|0:0,0:0:0:0:
308,25,103152,5,0,3:0:0:0:
304,48,103238,2,0,L|317:148,1,95.9999970703126,2|0,0:0|0:0,0:0:0:0:
258,248,103495,2,0,L|298:217,1,47.9999985351563,0|0,3:0|0:0,0:0:0:0:
415,216,103666,2,0,L|368:196,1,47.9999985351563,2|0,0:0|0:0,0:0:0:0:
348,326,103838,5,0,3:0:0:0:
362,344,103923,2,0,P|408:337|416:280,1,95.9999970703126,2|0,0:0|0:0,0:0:0:0:
473,158,104181,1,0,3:0:0:0:
473,158,104266,1,2,0:0:0:0:
473,158,104352,1,2,0:0:0:0:
331,30,104523,6,0,L|281:15,3,47.9999985351563,0|2|2|2,3:0|0:0|0:0|0:0,0:0:0:0:
258,82,104866,1,0,3:0:0:0:
304,68,104951,1,2,0:0:0:0:
350,54,105037,1,2,0:0:0:0:
396,40,105123,1,2,0:0:0:0:
442,27,105208,1,0,3:0:0:0:
362,179,105381,5,2,0:0:0:0:
362,179,105466,1,2,0:0:0:0:
362,179,105552,2,0,P|347:196|326:281,1,95.9999970703126,0|0,3:0|0:0,0:0:0:0:
300,357,105809,2,0,P|296:346|264:315,1,47.9999985351563,2|0,0:0|3:0,0:0:0:0:
188,233,105981,1,2,0:0:0:0:
204,251,106066,2,0,P|215:253|257:241,1,47.9999985351563,2|0,0:0|0:0,0:0:0:0:
277,146,106238,2,0,P|254:141|170:165,1,95.9999970703126,0|0,3:0|0:0,0:0:0:0:
12,286,106581,6,0,B|4:244|35:219|36:224|69:198|60:141,1,143.999995605469,0|0,3:0|0:0,0:0:0:0:
43,87,106923,1,0,3:0:0:0:
80,115,107008,1,2,0:0:0:0:
99,158,107094,1,2,0:0:0:0:
119,201,107180,1,2,0:0:0:0:
158,229,107266,2,0,P|202:252|256:258,1,95.9999970703126,0|0,3:0|0:0,0:0:0:0:
460,344,107609,6,0,L|404:352,1,47.9999985351563,0|0,3:0|0:0,0:0:0:0:
318,308,107781,1,2,0:0:0:0:
318,308,107866,1,2,0:0:0:0:
318,308,107952,2,0,P|295:271|275:332,1,143.999995605469,0|0,3:0|0:0,0:0:0:0:
215,377,108295,2,0,P|212:327|191:277,1,95.9999970703126,0|2,3:0|0:0,0:0:0:0:
169,82,108638,5,0,3:0:0:0:
160,104,108723,2,0,L|260:83,1,95.9999970703126,2|0,0:0|0:0,0:0:0:0:
328,165,108981,2,0,L|278:175,1,47.9999985351563,0|0,3:0|0:0,0:0:0:0:
140,205,109152,2,0,L|190:194,1,47.9999985351563,2|0,0:0|0:0,0:0:0:0:
317,260,109323,5,4,3:2:0:0:
399,280,109495,1,2,0:0:0:0:
399,280,109581,1,2,0:0:0:0:
481,300,109752,1,2,0:0:0:0:
481,300,109838,1,2,0:0:0:0:
511,173,110009,6,0,P|513:158|511:142,3,32,0|0|0|0,3:0|3:0|3:0|3:0,0:0:0:0:
475,78,110352,2,0,B|429:74|429:74|393:109,1,96,0|0,1:0|0:0,0:0:0:0:
354,170,110695,6,0,L|303:159,1,47.9999985351563,4|0,3:2|0:0,0:0:0:0:
214,65,110866,1,2,0:0:0:0:
214,65,110952,1,2,0:0:0:0:
214,65,111038,2,0,L|112:87,1,95.9999970703126,0|0,3:0|0:0,0:0:0:0:
133,156,111295,2,0,L|144:207,1,47.9999985351563,2|0,0:0|3:0,0:0:0:0:
142,306,111466,1,2,0:0:0:0:
161,319,111552,2,0,L|171:272,1,47.9999985351563,2|0,0:0|0:0,0:0:0:0:
27,310,111723,2,0,P|41:264|94:252,1,95.9999970703126,0|0,3:0|0:0,0:0:0:0:
281,335,112066,6,0,B|326:317|351:349|349:349|371:377|425:352,1,143.999995605469,0|0,3:0|0:0,0:0:0:0:
487,374,112409,1,0,3:0:0:0:
494,327,112494,1,2,0:0:0:0:
476,283,112580,1,2,0:0:0:0:
454,241,112666,1,2,0:0:0:0:
460,193,112752,2,0,P|466:151|461:97,1,95.9999970703126,0|0,3:0|0:0,0:0:0:0:
249,28,113095,6,0,P|258:52|293:75,1,47.9999985351563,0|0,3:0|0:0,0:0:0:0:
380,133,113266,1,2,0:0:0:0:
380,133,113352,1,2,0:0:0:0:
380,133,113438,2,0,P|342:123|376:171,1,143.999995605469,0|0,3:0|0:0,0:0:0:0:
411,235,113781,2,0,P|370:219|314:216,1,95.9999970703126,0|2,3:0|0:0,0:0:0:0:
103,286,114123,5,0,3:0:0:0:
122,272,114209,2,0,L|109:370,1,95.9999970703126,2|0,0:0|0:0,0:0:0:0:
174,217,114466,2,0,L|219:198,1,47.9999985351563,0|0,3:0|0:0,0:0:0:0:
100,199,114638,2,0,L|60:168,1,47.9999985351563,2|0,0:0|0:0,0:0:0:0:
37,63,114809,5,0,3:0:0:0:
27,85,114895,2,0,P|73:88|121:69,1,95.9999970703126,2|0,0:0|0:0,0:0:0:0:
214,115,115152,1,0,3:0:0:0:
214,115,115238,1,2,0:0:0:0:
214,115,115323,1,2,0:0:0:0:
417,35,115495,6,0,P|405:51|393:81,3,47.9999985351563,0|2|2|2,3:0|0:0|0:0|0:0,0:0:0:0:
322,71,115838,1,0,3:0:0:0:
350,108,115923,1,2,0:0:0:0:
375,149,116009,1,2,0:0:0:0:
396,192,116095,1,2,0:0:0:0:
411,238,116180,1,0,3:0:0:0:
232,361,116352,5,2,0:0:0:0:
232,361,116438,1,2,0:0:0:0:
232,361,116523,2,0,P|222:315|248:260,1,95.9999970703126,0|0,3:0|0:0,0:0:0:0:
223,198,116781,2,0,P|246:193|273:206,1,47.9999985351563,2|0,0:0|3:0,0:0:0:0:
144,301,116952,1,2,0:0:0:0:
122,311,117038,2,0,P|99:316|71:303,1,47.9999985351563,2|0,0:0|0:0,0:0:0:0:
28,363,117209,2,0,L|14:262,1,95.9999970703126,0|0,3:0|0:0,0:0:0:0:
155,70,117552,6,0,L|134:221,1,143.999995605469,0|0,3:0|0:0,0:0:0:0:
65,193,117895,1,0,3:0:0:0:
109,174,117980,1,2,0:0:0:0:
153,156,118066,1,2,0:0:0:0:
198,138,118152,1,2,0:0:0:0:
242,120,118238,2,0,P|281:146|299:194,1,95.9999970703126,0|0,3:0|0:0,0:0:0:0:
447,360,118581,6,0,L|504:352,1,47.9999985351563,0|0,3:0|0:0,0:0:0:0:
424,199,118752,1,2,0:0:0:0:
424,199,118838,1,2,0:0:0:0:
424,199,118923,2,0,P|470:173|447:225,1,143.999995605469,0|0,3:0|0:0,0:0:0:0:
503,273,119266,2,0,L|389:289,1,95.9999970703126,0|2,3:0|0:0,0:0:0:0:
273,121,119609,5,0,3:0:0:0:
289,138,119695,2,0,P|334:106|338:66,1,95.9999970703126,2|0,0:0|0:0,0:0:0:0:
196,160,119952,2,0,P|198:187|214:199,1,47.9999985351563,0|0,3:0|0:0,0:0:0:0:
205,29,120123,2,0,P|179:17|161:25,1,47.9999985351563,2|0,0:0|0:0,0:0:0:0:
18,100,120295,5,0,3:0:0:0:
29,121,120381,2,0,P|75:117|134:100,1,95.9999970703126,2|0,0:0|0:0,0:0:0:0:
100,197,120638,1,0,3:0:0:0:
100,197,120723,1,2,0:0:0:0:
100,197,120809,1,2,0:0:0:0:
316,272,120981,6,0,L|314:321,3,47.9999985351563,0|2|2|2,3:0|0:0|0:0|0:0,0:0:0:0:
256,362,121323,1,0,3:0:0:0:
208,360,121408,1,2,0:0:0:0:
160,358,121494,1,2,0:0:0:0:
112,356,121580,1,2,0:0:0:0:
64,354,121666,6,0,L|65:306,1,47.9999985351563,4|0,3:2|0:0,0:0:0:0:
49,182,121838,1,2,0:0:0:0:
49,182,121923,1,2,0:0:0:0:
49,182,122009,2,0,P|88:195|106:260,1,95.9999970703126,0|0,3:0|0:0,0:0:0:0:
213,276,122266,2,0,P|208:255|232:231,1,47.9999985351563,2|0,0:0|3:0,0:0:0:0:
229,71,122438,1,2,0:0:0:0:
212,86,122523,2,0,P|196:99|163:91,1,47.9999985351563,2|0,0:0|0:0,0:0:0:0:
74,15,122695,2,0,P|120:12|174:24,1,95.9999970703126,0|0,3:0|0:0,0:0:0:0:
354,157,123038,6,0,P|411:153|454:75,1,143.999995605469,0|0,3:0|0:0,0:0:0:0:
383,75,123381,1,0,3:0:0:0:
379,122,123466,1,2,0:0:0:0:
397,166,123552,1,2,0:0:0:0:
433,197,123638,1,2,0:0:0:0:
479,208,123723,2,0,P|471:253|470:313,1,95.9999970703126,0|0,3:0|0:0,0:0:0:0:
260,371,124066,6,0,L|253:317,1,47.9999985351563,0|0,3:0|0:0,0:0:0:0:
277,234,124238,1,2,0:0:0:0:
277,234,124323,1,2,0:0:0:0:
277,234,124409,2,0,P|237:247|264:189,1,143.999995605469,0|0,3:0|0:0,0:0:0:0:
324,154,124752,2,0,P|281:142|238:115,1,95.9999970703126,0|2,3:0|0:0,0:0:0:0:
33,38,125095,5,0,3:0:0:0:
53,24,125181,2,0,P|68:64|74:121,1,95.9999970703126,2|0,0:0|0:0,0:0:0:0:
168,60,125438,2,0,P|170:36|178:13,1,47.9999985351563,0|0,3:0|0:0,0:0:0:0:
323,19,125609,2,0,P|320:42|312:65,1,47.9999985351563,2|0,0:0|0:0,0:0:0:0:
234,134,125781,5,0,3:0:0:0:
218,151,125866,2,0,B|240:148|262:168|260:170|282:189|323:186,1,95.9999970703126,2|0,0:0|0:0,0:0:0:0:
412,129,126123,1,0,3:0:0:0:
412,129,126209,1,2,0:0:0:0:
412,129,126295,1,2,0:0:0:0:
478,335,126466,6,0,P|453:335|428:349,3,47.9999985351563,0|2|2|2,3:0|0:0|0:0|0:0,0:0:0:0:
366,372,126809,1,0,3:0:0:0:
318,377,126894,1,2,0:0:0:0:
270,373,126980,1,2,0:0:0:0:
225,357,127066,1,2,0:0:0:0:
184,332,127151,1,0,3:0:0:0:
150,145,127323,5,2,0:0:0:0:
150,145,127409,1,2,0:0:0:0:
150,145,127495,2,0,L|137:44,1,95.9999970703126,0|0,3:0|0:0,0:0:0:0:
249,30,127752,2,0,P|230:43|214:67,1,47.9999985351563,2|0,0:0|3:0,0:0:0:0:
42,80,127923,1,2,0:0:0:0:
24,97,128009,2,0,P|44:106|73:108,1,47.9999985351563,2|0,0:0|0:0,0:0:0:0:
182,213,128181,2,0,P|202:256|206:303,1,95.9999970703126,0|0,3:0|0:0,0:0:0:0:
375,167,128523,6,0,B|369:131|404:104|408:107|443:72|439:14,1,143.999995605469,0|0,1:0|0:0,0:0:0:0:
369,18,128866,1,0,1:0:0:0:
380,64,128951,1,2,0:0:0:0:
407,104,129037,1,2,0:0:0:0:
438,140,129123,1,2,0:0:0:0:
449,186,129209,6,0,P|475:194|496:213,3,47.9999985351563,2|0|0|0,1:2|3:0|3:0|3:0,0:0:0:0:
508,276,129552,2,0,P|500:302|481:323,3,47.9999985351563,0|0|0|0,1:0|3:0|3:0|3:0,0:0:0:0:
418,335,129895,5,0,1:0:0:0:
394,329,129980,1,0,1:0:0:0:
372,321,130066,1,0,1:0:0:0:
350,309,130152,1,0,1:0:0:0:
334,293,130238,2,0,P|350:241|388:199,1,95.9999970703126,0|2,1:0|1:2,0:0:0:0:
502,19,130581,5,0,1:0:0:0:
505,42,130666,2,0,L|406:62,1,95.9999970703126,2|0,1:2|1:0,0:0:0:0:
350,103,130923,1,0,1:0:0:0:
303,93,131008,1,0,1:0:0:0:
256,83,131094,1,0,1:0:0:0:
209,74,131180,1,0,1:0:0:0:
162,64,131265,5,0,3:0:0:0:
85,90,131438,1,2,0:0:0:0:
85,90,131523,1,2,0:0:0:0:
146,143,131695,1,2,0:0:0:0:
146,143,131780,1,2,0:0:0:0:
219,277,131952,6,0,P|231:289|238:310,3,32,0|0|0|0,3:0|3:0|3:0|3:0,0:0:0:0:
267,367,132295,2,0,B|272:318|272:318|309:282,1,96,0|0,1:0|0:0,0:0:0:0:
369,245,132638,5,4,3:2:0:0:
26,176,154066,5,0,3:0:0:0:
26,176,154152,1,0,3:0:0:0:
26,176,154238,1,4,1:2:0:0:
167,203,154409,2,0,L|195:209,1,16,0|0,3:0|0:0,0:0:0:0:
104,132,154581,6,0,P|138:125|195:90,1,95.9999970703126,6|8,3:2|0:0,0:0:0:0:
299,25,155095,1,2,0:0:0:0:
292,105,155266,2,0,P|326:112|383:147,1,95.9999970703126,10|8,0:0|0:0,0:0:0:0:
487,212,155780,1,2,0:0:0:0:
456,286,155952,6,0,P|434:277|420:244,1,47.9999985351563,10|0,0:0|0:0,0:0:0:0:
323,228,156295,2,0,P|326:251|304:280,1,47.9999985351563,10|0,0:0|0:0,0:0:0:0:
340,373,156638,2,0,P|358:358|394:362,1,47.9999985351563,10|0,0:0|0:0,0:0:0:0:
239,343,156981,1,10,0:0:0:0:
239,343,157323,6,0,P|217:301|174:281,1,95.9999970703126,10|8,0:0|0:0,0:0:0:0:
66,268,157838,2,0,P|76:288|98:298,1,47.9999985351563,2|8,0:0|0:0,0:0:0:0:
98,298,158352,2,0,B|82:255|112:228|113:232|140:201|127:160,1,143.999995605469,10|0,0:0|0:0,0:0:0:0:
114,85,159038,2,0,P|114:63|121:38,1,47.9999985351563,10|0,0:0|0:0,0:0:0:0:
205,150,159381,1,10,0:0:0:0:
205,150,159723,2,0,P|227:150|252:157,1,47.9999985351563,10|0,0:0|0:0,0:0:0:0:
389,204,160066,6,0,L|486:195,1,95.9999970703126,10|8,0:0|0:0,0:0:0:0:
479,66,160581,1,2,0:0:0:0:
416,15,160752,2,0,L|319:24,1,95.9999970703126,10|8,0:0|0:0,0:0:0:0:
326,153,161267,1,2,0:0:0:0:
303,229,161438,6,0,P|315:254|339:268,1,47.9999985351563,10|0,0:0|0:0,0:0:0:0:
188,281,161781,2,0,P|203:258|203:230,1,47.9999985351563,10|0,0:0|0:0,0:0:0:0:
291,355,162123,1,10,0:0:0:0:
291,355,162466,2,0,P|263:352|239:366,1,47.9999985351563,10|0,0:0|0:0,0:0:0:0:
98,328,162809,6,0,P|59:305|56:243,1,95.9999970703126,10|8,0:0|0:0,0:0:0:0:
154,136,163323,2,0,P|152:183|117:213,1,95.9999970703126,2|0,0:0|0:0,0:0:0:0:
46,179,163838,1,10,0:0:0:0:
46,179,164181,2,0,L|37:125,1,47.9999985351563,10|0,0:0|0:0,0:0:0:0:
121,63,164523,2,0,L|175:54,1,47.9999985351563,10|0,0:0|0:0,0:0:0:0:
237,138,164866,2,0,L|255:246,1,95.9999970703126,10|10,0:0|0:0,0:0:0:0:
479,359,165552,6,0,P|481:328|501:292,1,64,2|0,1:2|3:0,0:0:0:0:
430,197,165809,1,0,1:0:0:0:
438,210,165895,2,0,P|436:241|416:277,1,64,0|0,1:0|3:0,0:0:0:0:
293,335,166238,1,2,1:2:0:0:
261,332,166323,1,0,1:0:0:0:
232,318,166409,1,0,1:0:0:0:
92,211,166581,2,0,B|84:236|100:259|103:258|116:278|111:312,1,96,0|0,1:0|0:0,0:0:0:0:
107,374,166923,5,2,1:2:0:0:
291,251,167095,1,0,1:0:0:0:
293,219,167180,1,0,1:0:0:0:
296,187,167266,2,0,L|302:114,1,64,2|0,1:2|3:0,0:0:0:0:
198,23,167609,1,2,1:2:0:0:
168,36,167694,1,0,3:0:0:0:
140,50,167781,1,0,3:0:0:0:
104,189,167952,2,0,B|129:191|129:191|163:213|163:213|196:210,1,96,2|0,1:2|0:0,0:0:0:0:
228,146,168295,5,2,1:2:0:0:
129,290,168466,1,0,1:0:0:0:
131,322,168551,1,0,1:0:0:0:
134,355,168638,2,0,L|198:349,1,64,2|0,1:2|3:0,0:0:0:0:
309,212,168981,1,2,1:2:0:0:
311,244,169066,1,0,1:0:0:0:
314,277,169152,1,0,1:0:0:0:
461,373,169323,2,0,B|449:353|465:326|467:329|482:300|469:266,1,96,2|0,1:2|0:0,0:0:0:0:
464,209,169666,6,0,P|436:205|405:175,1,64,0|0,1:0|3:0,0:0:0:0:
456,30,170009,1,2,1:2:0:0:
487,35,170094,1,0,1:0:0:0:
510,56,170180,1,0,1:0:0:0:
343,114,170352,2,0,P|347:86|377:55,1,64,2|0,1:2|3:0,0:0:0:0:
181,15,170695,2,0,B|185:44|185:44|207:76|207:76|212:104,1,96,2|0,1:2|0:0,0:0:0:0:
215,176,171038,6,0,L|147:182,1,64,2|0,1:2|1:0,0:0:0:0:
63,275,171381,2,0,L|131:281,1,64,0|0,1:0|1:0,0:0:0:0:
253,283,171723,5,2,1:2:0:0:
327,341,171895,1,0,1:0:0:0:
416,305,172066,1,0,1:0:0:0:
340,245,172238,1,0,1:0:0:0:
421,106,172409,6,0,L|417:67,1,32,2|0,1:2|0:0,0:0:0:0:
344,73,172581,2,0,L|340:34,1,32,0|0,1:0|0:0,0:0:0:0:
270,105,172752,2,0,L|266:66,1,32,0|0,1:0|0:0,0:0:0:0:
193,72,172924,2,0,L|189:33,1,32,0|0,1:0|0:0,0:0:0:0:
37,31,173095,6,0,P|55:36|70:55,1,32,2|0,1:2|0:0,0:0:0:0:
103,125,173266,2,0,P|116:138|119:162,1,32,0|0,1:0|0:0,0:0:0:0:
205,180,173438,2,0,P|209:198|200:220,1,32,0|0,1:0|0:0,0:0:0:0:
156,284,173609,2,0,P|151:302|132:317,1,32,0|0,1:0|0:0,0:0:0:0:
106,375,173781,5,2,1:2:0:0:
121,373,173866,1,0,3:0:0:0:
137,371,173952,1,0,3:0:0:0:
153,370,174038,1,0,3:0:0:0:
169,368,174123,2,0,L|202:364,1,32,0|0,3:0|3:0,0:0:0:0:
275,268,174295,5,2,1:2:0:0:
290,270,174380,1,0,3:0:0:0:
306,272,174466,1,0,3:0:0:0:
322,273,174552,1,0,3:0:0:0:
338,275,174637,2,0,L|371:278,1,32,0|0,3:0|3:0,0:0:0:0:
505,307,174809,6,0,L|508:273,3,32,2|2|2|2,1:2|3:2|3:2|3:2,0:0:0:0:
441,214,175152,5,0,3:0:0:0:
441,214,175323,1,2,0:3:0:0:
441,214,176009,5,0,3:0:0:0:
441,214,176095,1,0,3:0:0:0:
441,214,176180,1,4,1:2:0:0:
494,98,176352,2,0,P|495:82|487:62,1,32,0|0,3:0|3:0,0:0:0:0:
341,128,176523,6,0,B|261:163|195:96|197:88|123:15|30:50,1,320,6|0,3:2|0:0,0:0:0:0:
46,44,177895,6,0,B|106:17|155:68|154:74|209:128|279:102,1,224,6|0,3:2|0:0,0:0:0:0:
241,181,178581,6,0,B|235:229|184:243|181:239|124:255|115:310,1,167.999994873047,6|0,3:2|0:0,0:0:0:0:
88,355,179266,6,0,B|91:316|75:304|72:306|53:286|61:247,1,112,6|0,3:2|0:0,0:0:0:0:
129,180,179952,5,2,0:0:0:0:
128,172,180037,1,2,0:0:0:0:
130,164,180123,1,2,0:0:0:0:
133,156,180209,1,2,0:0:0:0:
137,150,180294,1,2,0:0:0:0:
142,143,180380,1,2,0:0:0:0:
144,135,180466,1,2,0:0:0:0:
145,127,180552,1,2,0:0:0:0:
144,119,180638,6,0,P|167:109|178:89,15,40,2|2|2|2|2|2|2|2|2|2|2|2|2|2|2|2,0:0|0:0|0:0|0:0|0:0|0:0|0:0|0:0|0:0|0:0|0:0|0:0|0:0|0:0|0:0|0:0,0:0:0:0:
141,15,182009,6,0,P|188:249|246:403,1,383.99998828125,6|0,3:2|0:0,0:0:0:0:
146,334,183381,6,0,P|181:158|224:42,1,280,6|0,3:2|0:0,0:0:0:0:
270,139,184066,6,0,P|168:187|76:250,1,224,6|0,3:2|0:0,0:0:0:0:
95,148,184752,6,0,P|170:183|240:230,1,167.999994873047,6|0,3:2|0:0,0:0:0:0:
306,302,185438,5,2,0:0:0:0:
317,297,185523,1,2,0:0:0:0:
328,292,185609,1,2,0:0:0:0:
338,287,185695,1,2,0:0:0:0:
349,281,185780,1,2,0:0:0:0:
359,275,185866,1,2,0:0:0:0:
370,269,185952,1,2,0:0:0:0:
379,262,186038,1,2,0:0:0:0:
389,255,186123,6,0,P|391:274|410:292,7,40,2|2|2|2|2|2|2|2,0:0|0:0|0:0|0:0|0:0|0:0|0:0|0:0,0:0:0:0:
441,377,186809,6,0,P|446:336|494:226,2,143.999995605469,8|8|8,3:0|3:0|3:0,0:0:0:0:
332,175,187495,6,0,P|371:178|413:164,1,80,2|0,1:2|0:0,0:0:0:0:
389,38,187752,1,2,0:0:0:0:
369,35,187838,2,0,P|349:33|328:40,1,40,0|0,1:0|0:0,0:0:0:0:
210,110,188009,2,0,P|229:112|250:105,1,40,2|0,0:0|0:0,0:0:0:0:
145,26,188181,1,0,1:0:0:0:
145,26,188523,2,0,P|124:32|109:64,1,40,0|0,1:0|0:0,0:0:0:0:
28,104,188695,2,0,P|22:125|42:154,1,40,2|0,0:0|0:0,0:0:0:0:
100,212,188866,6,0,L|90:302,1,80,2|0,1:2|0:0,0:0:0:0:
211,364,189123,1,2,0:0:0:0:
227,375,189209,2,0,L|232:330,1,40,0|0,1:0|0:0,0:0:0:0:
181,223,189381,2,0,L|176:268,1,40,2|0,0:0|0:0,0:0:0:0:
317,367,189552,1,0,1:0:0:0:
317,367,189895,2,0,P|333:363|363:363,1,40,0|0,1:0|0:0,0:0:0:0:
470,321,190066,2,0,P|454:325|424:325,1,40,2|0,0:0|0:0,0:0:0:0:
296,253,190238,6,0,P|326:279|369:278,1,80,2|0,1:2|0:0,0:0:0:0:
439,197,190495,1,2,0:0:0:0:
451,212,190581,2,0,P|454:192|443:174,1,40,0|0,1:0|0:0,0:0:0:0:
337,98,190752,2,0,P|318:104|307:123,1,40,2|0,0:0|0:0,0:0:0:0:
201,226,190923,1,0,1:0:0:0:
201,226,191266,6,0,L|192:101,1,120,2|0,1:2|0:0,0:0:0:0:
131,15,191609,2,0,L|133:56,1,40,0|0,1:0|0:0,0:0:0:0:
65,181,191781,1,2,0:0:0:0:
65,181,191866,1,2,0:0:0:0:
65,181,191952,1,0,1:0:0:0:
65,181,192295,6,0,B|66:207|50:218|49:216|29:225|34:255,1,80,2|0,1:2|0:0,0:0:0:0:
64,378,192638,2,0,B|63:364|71:359|71:360|81:355|79:340,2,40,0|0|2,1:0|0:0|0:0,0:0:0:0:
328,267,192981,6,0,L|336:353,1,80,2|0,1:2|1:0,0:0:0:0:
176,346,193323,2,0,L|184:267,1,80,0|0,1:0|1:0,0:0:0:0:
237,85,193666,5,2,1:2:0:0:
335,152,193838,1,0,1:0:0:0:
444,100,194009,1,0,1:0:0:0:
344,31,194181,1,0,1:0:0:0:
160,32,194352,6,0,L|113:42,1,40,2|0,1:2|0:0,0:0:0:0:
66,90,194523,2,0,L|26:98,1,40,0|0,1:0|0:0,0:0:0:0:
128,136,194695,2,0,L|175:146,1,40,0|0,1:0|0:0,0:0:0:0:
222,194,194866,2,0,L|261:202,1,40,0|0,1:0|0:0,0:0:0:0:
390,285,195038,6,0,P|396:306|394:332,1,40,2|0,1:2|0:0,0:0:0:0:
260,371,195209,2,0,P|254:350|256:324,1,40,0|0,1:0|0:0,0:0:0:0:
128,266,195381,6,0,P|107:272|81:270,1,40,2|0,1:2|0:0,0:0:0:0:
88,130,195552,2,0,P|107:129|127:135,1,40,2|0,1:2|0:0,0:0:0:0:
259,255,195723,6,0,L|249:212,3,40,2|0|0|0,1:2|3:0|3:0|3:0,0:0:0:0:
253,144,196066,2,0,L|263:101,3,40,2|0|0|0,1:2|3:0|3:0|3:0,0:0:0:0:
259,33,196409,1,2,1:2:0:0:
278,34,196494,1,0,3:0:0:0:
298,35,196580,1,0,3:0:0:0:
318,36,196666,1,0,3:0:0:0:
338,37,196751,1,2,1:2:0:0:
358,39,196837,1,0,3:0:0:0:
378,40,196923,2,0,L|418:42,1,40,0|0,3:0|3:0,0:0:0:0:
477,130,197095,5,0,3:0:0:0:
477,130,197266,1,2,0:3:0:0:
477,130,197781,6,0,P|456:139|440:161,2,40,2|0|0,0:0|0:0|0:0,0:0:0:0:
366,298,198123,2,0,P|371:258|361:220,1,80,0|0,1:0|0:0,0:0:0:0:
213,70,198466,6,0,B|254:55|278:90|277:93|297:124|342:111,1,143.999995605469,6|0,3:2|0:0,0:0:0:0:
392,60,198809,2,0,B|364:49|348:72|349:74|336:95|305:87,1,95.9999970703126,2|0,3:2|0:0,0:0:0:0:
223,146,199066,1,0,3:0:0:0:
238,163,199152,2,0,P|237:225|212:308,1,143.999995605469,2|0,3:2|0:0,0:0:0:0:
134,367,199495,2,0,P|135:305|160:222,1,143.999995605469,2|0,3:2|0:0,0:0:0:0:
197,138,199838,6,0,P|145:191|83:166,1,143.999995605469,2|0,3:2|0:0,0:0:0:0:
45,108,200181,2,0,P|62:90|82:98,2,47.9999985351563,0|0|2,3:0|0:0|0:0,0:0:0:0:
183,306,200523,2,0,B|225:313|254:296|254:291|284:276|323:288,1,143.999995605469,0|0,3:0|0:0,0:0:0:0:
462,375,200866,2,0,B|475:372|485:378|485:379|495:384|508:380,1,47.9999985351563,2|0,3:2|0:0,0:0:0:0:
349,368,201038,5,0,3:0:0:0:
349,368,201123,1,0,3:0:0:0:
349,368,201209,2,0,P|395:335|428:248,1,143.999995605469,2|0,3:2|0:0,0:0:0:0:
491,218,201552,2,0,P|494:199|481:171,1,47.9999985351563,0|0,3:0|0:0,0:0:0:0:
457,45,201723,1,2,0:0:0:0:
299,118,201895,2,0,P|293:156|319:212,1,95.9999970703126,0|0,3:0|0:0,0:0:0:0:
404,159,202152,5,0,3:0:0:0:
384,169,202238,2,0,P|340:219|305:294,1,143.999995605469,2|0,3:2|0:0,0:0:0:0:
293,372,202581,2,0,P|271:308|224:241,1,143.999995605469,2|0,3:2|0:0,0:0:0:0:
191,196,202923,2,0,P|234:204|289:199,1,95.9999970703126,2|0,3:2|0:0,0:0:0:0:
285,199,203181,5,0,3:0:0:0:
285,199,203266,2,0,L|290:142,2,47.9999985351563,0|0|2,3:0|0:0|3:2,0:0:0:0:
123,32,203609,1,0,3:0:0:0:
123,32,203696,1,0,3:0:0:0:
123,32,203781,1,2,3:2:0:0:
260,72,203952,6,0,P|198:101|118:112,1,143.999995605469,2|0,3:2|0:0,0:0:0:0:
93,177,204295,2,0,P|134:157|187:150,1,95.9999970703126,2|0,3:2|0:0,0:0:0:0:
306,142,204552,1,0,3:0:0:0:
324,126,204638,2,0,B|341:168|316:200|314:197|292:231|311:271,1,143.999995605469,2|0,3:2|0:0,0:0:0:0:
238,355,204981,2,0,B|255:313|230:281|228:284|206:250|225:210,1,143.999995605469,2|0,3:2|0:0,0:0:0:0:
381,240,205323,6,0,P|429:237|479:155,1,143.999995605469,2|0,3:2|0:0,0:0:0:0:
454,95,205666,2,0,P|438:95|421:123,2,47.9999985351563,0|0|2,3:0|0:0|0:0,0:0:0:0:
251,24,206009,2,0,B|244:68|278:92|276:88|304:115|297:161,1,143.999995605469,0|0,3:0|0:0,0:0:0:0:
251,318,206352,2,0,B|253:332|242:340|242:339|233:348|235:363,1,47.9999985351563,2|0,3:2|0:0,0:0:0:0:
302,236,206523,5,0,3:0:0:0:
302,236,206609,1,0,3:0:0:0:
302,236,206695,2,0,P|227:243|156:272,1,143.999995605469,2|0,3:2|0:0,0:0:0:0:
39,196,207038,2,0,P|53:216|73:232,1,47.9999985351563,0|0,3:0|0:0,0:0:0:0:
85,329,207209,1,2,0:0:0:0:
217,158,207381,2,0,P|223:110|244:66,1,95.9999970703126,0|0,3:0|0:0,0:0:0:0:
327,20,207638,5,0,3:0:0:0:
320,42,207723,2,0,B|357:22|387:54|388:57|419:88|463:56,1,143.999995605469,2|0,3:2|0:0,0:0:0:0:
432,156,208066,2,0,B|395:136|365:168|364:171|333:202|289:170,1,143.999995605469,2|0,3:2|0:0,0:0:0:0:
398,261,208409,2,0,B|422:247|442:268|443:270|463:291|493:270,1,95.9999970703126,2|0,3:2|0:0,0:0:0:0:
487,274,208666,5,0,3:0:0:0:
487,274,208752,2,0,L|495:338,2,47.9999985351563,0|0|2,3:0|0:0|3:2,0:0:0:0:
320,363,209095,1,0,3:0:0:0:
320,363,209180,1,0,3:0:0:0:
320,363,209266,2,0,L|328:299,1,47.9999985351563,2|0,3:2|0:0,0:0:0:0:
385,168,209438,6,0,P|318:131|319:59,1,143.999995605469,6|0,3:2|0:0,0:0:0:0:
426,71,209781,2,0,P|426:121|385:145,1,95.9999970703126,2|0,3:2|0:0,0:0:0:0:
251,178,210038,1,0,3:0:0:0:
242,200,210123,2,0,P|235:127|213:59,1,143.999995605469,2|0,3:2|0:0,0:0:0:0:
155,150,210466,2,0,P|162:223|184:291,1,143.999995605469,2|0,3:2|0:0,0:0:0:0:
211,382,210809,6,0,P|181:334|95:332,1,143.999995605469,2|0,3:2|0:0,0:0:0:0:
40,372,211152,2,0,P|16:372|2:354,2,47.9999985351563,0|0|2,3:0|0:0|0:0,0:0:0:0:
71,179,211495,2,0,B|100:140|66:109|63:112|27:77|61:34,1,143.999995605469,0|0,3:0|0:0,0:0:0:0:
243,70,211838,2,0,B|252:82|241:93|240:92|228:103|239:118,1,47.9999985351563,2|0,3:2|0:0,0:0:0:0:
155,102,212009,5,0,3:0:0:0:
155,102,212095,1,0,3:0:0:0:
155,102,212181,2,0,P|217:139|266:211,1,143.999995605469,2|0,3:2|0:0,0:0:0:0:
309,303,212523,2,0,P|288:290|272:266,1,47.9999985351563,0|0,3:0|0:0,0:0:0:0:
327,133,212695,1,2,0:0:0:0:
441,286,212866,2,0,P|441:240|465:191,1,95.9999970703126,0|0,3:0|0:0,0:0:0:0:
423,126,213123,5,0,3:0:0:0:
410,140,213209,2,0,L|376:-7,1,143.999995605469,2|0,3:2|0:0,0:0:0:0:
311,51,213552,2,0,L|163:84,1,143.999995605469,2|0,3:2|0:0,0:0:0:0:
230,158,213895,2,0,L|252:255,1,95.9999970703126,2|0,3:2|0:0,0:0:0:0:
251,251,214152,5,0,3:0:0:0:
251,251,214238,2,0,L|299:239,2,47.9999985351563,0|0|2,3:0|0:0|3:2,0:0:0:0:
85,342,214581,1,0,3:0:0:0:
85,342,214666,1,0,3:0:0:0:
85,342,214752,2,0,L|131:352,1,47.9999985351563,2|0,3:2|0:0,0:0:0:0:
43,209,214923,6,0,P|111:209|128:285,1,143.999995605469,2|0,3:2|0:0,0:0:0:0:
145,199,215266,2,0,P|122:159|160:124,1,95.9999970703126,2|0,3:2|0:0,0:0:0:0:
116,43,215523,1,0,3:0:0:0:
97,57,215609,2,0,B|133:47|166:75|165:79|197:108|248:89,1,143.999995605469,2|0,3:2|0:0,0:0:0:0:
351,134,215952,2,0,B|316:119|284:147|285:152|252:180|216:170,1,143.999995605469,2|0,3:2|0:0,0:0:0:0:
306,231,216295,6,0,P|326:303|338:382,1,143.999995605469,2|0,3:2|0:0,0:0:0:0:
410,361,216638,2,0,P|413:337|420:314,2,47.9999985351563,0|0|2,3:0|0:0|0:0,0:0:0:0:
218,289,216981,2,0,P|180:278|72:320,1,143.999995605469,2|0,3:2|0:0,0:0:0:0:
23,348,217323,2,0,P|35:351|71:337,1,47.9999985351563,2|0,3:2|0:0,0:0:0:0:
139,199,217495,5,0,3:0:0:0:
139,199,217581,1,0,3:0:0:0:
139,199,217666,2,0,B|147:152|118:125|119:129|89:102|106:60,1,143.999995605469,2|0,3:2|0:0,0:0:0:0:
212,55,218009,6,0,P|212:84|187:109,3,47.9999985351563,2|0|0|0,3:2|3:0|3:0|3:0,0:0:0:0:
216,187,218352,1,2,3:2:0:0:
233,170,218437,1,0,3:0:0:0:
254,159,218523,1,0,3:0:0:0:
277,153,218609,1,0,3:0:0:0:
301,153,218694,1,2,3:2:0:0:
324,160,218780,1,0,3:0:0:0:
345,172,218866,2,0,P|368:171|388:158,1,47.9999985351563,0|0,3:0|3:0,0:0:0:0:
408,65,219038,5,0,3:0:0:0:
408,65,219209,1,2,0:0:0:0:
408,65,219895,5,0,3:0:0:0:
408,65,219981,1,0,3:0:0:0:
408,65,220066,1,4,1:2:0:0:
289,45,220238,2,0,P|287:31|279:17,1,16,2|0,0:0|0:0,0:0:0:0:
332,159,220409,5,4,3:2:0:0:
256,192,220581,12,0,225895,3:0:0:0:
