osu file format v14

[General]
AudioFilename: audio.mp3
AudioLeadIn: 0
PreviewTime: 168764
Countdown: 0
SampleSet: Soft
StackLeniency: 0.4
Mode: 0
LetterboxInBreaks: 0
WidescreenStoryboard: 1

[Editor]
Bookmarks: 15364,28164,40964,53764,66564,92164,117764,143364,156164,194564,207364,220164
DistanceSpacing: 2.1
BeatDivisor: 6
GridSize: 8
TimelineZoom: 1.9

[Metadata]
Title:Midnight Glow feat. mami (Extended a bit)
TitleUnicode:Midnight Glow feat. mami (Extended a bit)
Artist:Mameyudoufu
ArtistUnicode:Mameyudoufu
Creator:thiev
Version:Soothing Light
Source:
Tags:AncuL speed garage grow electronic japanese future bass showcase
BeatmapID:2476968
BeatmapSetID:1188672

[Difficulty]
HPDrainRate:5
CircleSize:4
OverallDifficulty:8
ApproachRate:9.5
SliderMultiplier:1.8
SliderTickRate:1

[Events]
//Background and Video events
0,0,"py7gJnL7s1.jpg",0,0
//Break Periods
//Storyboard Layer 0 (Background)
//Storyboard Layer 1 (Fail)
//Storyboard Layer 2 (Pass)
//Storyboard Layer 3 (Foreground)
//Storyboard Layer 4 (Overlay)
//Storyboard Sound Samples

[TimingPoints]
2614,400,4,2,1,50,1,0
2614,-133.333333333333,4,2,1,55,0,0
4880,-100,4,2,1,55,0,0
5814,-133.333333333333,4,2,1,55,0,0
8080,-100,4,2,1,55,0,0
8614,-200,4,2,1,55,0,0
9014,-133.333333333333,4,2,1,55,0,0
11280,-100,4,2,1,55,0,0
12214,-133.333333333333,4,2,1,55,0,0
14480,-100,4,2,1,55,0,0
14747,-133.333333333333,4,2,1,55,0,0
15014,-200,4,2,1,55,0,0
15414,-111.111111111111,4,2,1,65,0,0
27814,-133.333333333333,4,2,1,45,0,0
34014,-114.285714285714,4,2,1,45,0,0
34414,-76.9230769230769,4,2,1,45,0,0
34614,-100,4,2,1,50,0,0
35614,-83.3333333333333,4,2,1,50,0,0
36214,-83.3333333333333,4,2,1,53,0,0
37814,-83.3333333333333,4,2,1,56,0,0
39414,-76.9230769230769,4,2,1,60,0,0
39814,-76.9230769230769,4,2,1,65,0,0
40214,-100,4,2,1,65,0,0
40414,-83.3333333333333,4,2,1,65,0,0
41014,-66.6666666666667,4,2,1,60,0,0
44014,-47.6190476190476,4,2,1,60,0,0
44414,-66.6666666666667,4,2,1,60,0,0
45614,-47.6190476190476,4,2,1,60,0,0
46014,-66.6666666666667,4,2,1,60,0,0
47014,-133.333333333333,4,2,1,60,0,0
47414,-66.6666666666667,4,2,1,60,0,0
50414,-47.6190476190476,4,2,1,60,0,0
50747,-66.6666666666667,4,2,1,60,0,0
52014,-47.6190476190476,4,2,1,60,0,0
52414,-66.6666666666667,4,2,1,60,0,0
53414,-142.857142857143,4,2,1,60,0,0
53814,-66.6666666666667,4,2,1,60,0,0
71414,-58.8235294117647,4,2,1,60,0,0
71814,-66.6666666666667,4,2,1,60,0,0
72614,-76.9230769230769,4,2,1,60,0,0
78014,-90.9090909090909,4,2,1,60,0,0
78214,-66.6666666666667,4,2,1,60,0,0
78414,-47.6190476190476,4,2,1,60,0,0
78814,-43.4782608695652,4,2,1,60,0,0
79214,-40,4,2,1,60,0,0
79414,-40,4,2,3,60,0,0
79614,-40,4,2,1,60,0,0
79814,-66.6666666666667,4,2,4,60,0,0
80014,-66.6666666666667,4,2,1,60,0,0
80214,-66.6666666666667,4,2,8,60,0,0
80347,-66.6666666666667,4,2,1,60,0,0
80614,-66.6666666666667,4,2,3,60,0,0
80814,-66.6666666666667,4,2,1,60,0,0
81014,-66.6666666666667,4,2,7,60,0,0
81214,-66.6666666666667,4,2,1,60,0,0
81414,-66.6666666666667,4,2,8,60,0,0
81614,-66.6666666666667,4,2,1,60,0,0
81814,-66.6666666666667,4,2,6,60,0,0
81947,-66.6666666666667,4,2,1,60,0,0
82214,-66.6666666666667,4,2,7,60,0,0
82414,-66.6666666666667,4,2,1,60,0,0
82614,-66.6666666666667,4,2,3,60,0,0
82814,-66.6666666666667,4,2,1,60,0,0
83014,-66.6666666666667,4,2,4,60,0,0
83214,-66.6666666666667,4,2,1,60,0,0
83414,-66.6666666666667,4,2,8,60,0,0
83547,-66.6666666666667,4,2,1,60,0,0
83814,-66.6666666666667,4,2,3,60,0,0
84014,-66.6666666666667,4,2,1,60,0,0
84214,-52.6315789473684,4,2,7,60,0,0
84414,-52.6315789473684,4,2,1,60,0,0
84614,-58.8235294117647,4,2,8,60,0,0
84814,-58.8235294117647,4,2,1,60,0,0
85014,-58.8235294117647,4,2,6,60,0,0
85214,-58.8235294117647,4,2,1,60,0,0
85414,-66.6666666666667,4,2,7,60,0,0
85547,-66.6666666666667,4,2,1,60,0,0
85814,-66.6666666666667,4,2,3,60,0,0
86014,-66.6666666666667,4,2,1,60,0,0
86214,-66.6666666666667,4,2,4,60,0,0
86347,-66.6666666666667,4,2,1,60,0,0
86614,-66.6666666666667,4,2,8,60,0,0
86747,-66.6666666666667,4,2,1,60,0,0
87014,-66.6666666666667,4,2,3,60,0,0
87214,-66.6666666666667,4,2,1,60,0,0
87414,-66.6666666666667,4,2,6,60,0,0
87614,-66.6666666666667,4,2,1,60,0,0
87814,-58.8235294117647,4,2,10,60,0,0
87947,-58.8235294117647,4,2,1,60,0,0
88214,-58.8235294117647,4,2,5,60,0,0
88347,-58.8235294117647,4,2,1,60,0,0
88614,-58.8235294117647,4,2,4,60,0,0
88814,-58.8235294117647,4,2,1,60,0,0
89014,-58.8235294117647,4,2,3,60,0,0
89214,-58.8235294117647,4,2,1,60,0,0
89414,-66.6666666666667,4,2,4,60,0,0
89614,-66.6666666666667,4,2,1,60,0,0
89814,-66.6666666666667,4,2,8,60,0,0
89947,-66.6666666666667,4,2,1,60,0,0
90214,-66.6666666666667,4,2,3,60,0,0
90347,-66.6666666666667,4,2,1,60,0,0
90614,-66.6666666666667,4,2,3,60,0,0
90814,-83.3333333333333,4,2,1,60,0,0
91014,-66.6666666666667,4,2,6,60,0,0
91214,-47.6190476190476,4,2,1,60,0,0
91414,-47.6190476190476,4,2,7,60,0,0
91614,-43.4782608695652,4,2,1,60,0,0
91814,-43.4782608695652,4,2,8,60,0,0
92014,-38.4615384615385,4,2,1,60,0,0
92414,-100,4,2,1,55,0,0
96214,-58.8235294117647,4,2,1,55,0,0
97014,-100,4,2,1,55,0,0
102614,-58.8235294117647,4,2,1,55,0,0
103414,-100,4,2,1,55,0,0
103614,-125,4,2,1,55,0,0
103814,-100,4,2,1,55,0,0
104014,-76.9230769230769,4,2,1,55,0,0
104214,-66.6666666666667,4,2,1,55,0,0
104414,-58.8235294117647,4,2,1,55,0,0
104614,-52.6315789473684,4,2,1,55,0,0
104814,-43.4782608695652,4,2,1,55,0,0
105014,-43.4782608695652,4,2,3,60,0,0
105147,-76.9230769230769,4,2,1,60,0,0
105414,-76.9230769230769,4,2,4,60,0,0
105547,-76.9230769230769,4,2,1,60,0,0
105814,-76.9230769230769,4,2,7,60,0,0
105947,-76.9230769230769,4,2,1,60,0,0
106214,-76.9230769230769,4,2,3,60,0,0
106414,-55.5555555555556,4,2,1,60,0,0
106614,-76.9230769230769,4,2,6,60,0,0
106814,-76.9230769230769,4,2,1,60,0,0
108814,-55.5555555555556,4,2,1,60,0,0
109414,-76.9230769230769,4,2,1,60,0,0
111414,-76.9230769230769,4,2,6,60,0,0
111614,-76.9230769230769,4,2,1,60,0,0
111814,-76.9230769230769,4,2,5,60,0,0
111947,-76.9230769230769,4,2,1,60,0,0
112214,-76.9230769230769,4,2,3,60,0,0
112347,-76.9230769230769,4,2,1,60,0,0
112614,-76.9230769230769,4,2,8,60,0,0
112814,-45.4545454545455,4,2,1,60,0,0
113014,-76.9230769230769,4,2,7,60,0,0
113214,-76.9230769230769,4,2,1,60,0,0
115214,-55.5555555555556,4,2,1,60,0,0
115814,-76.9230769230769,4,2,1,60,0,0
116414,-100,4,2,1,60,0,0
116614,-76.9230769230769,4,2,1,60,0,0
116814,-58.8235294117647,4,2,1,60,0,0
117214,-47.6190476190476,4,2,1,60,0,0
117614,-40,4,2,1,60,0,0
118014,-133.333333333333,4,2,1,55,0,0
125814,-100,4,2,1,55,0,0
126214,-111.111111111111,4,2,1,55,0,0
126614,-125,4,2,1,55,0,0
128214,-100,4,2,1,55,0,0
129214,-125,4,2,1,55,0,0
129414,-100,4,2,1,55,0,0
129614,-76.9230769230769,4,2,1,55,0,0
129814,-62.5,4,2,1,55,0,0
130214,-52.6315789473684,4,2,1,55,0,0
130414,-43.4782608695652,4,2,1,55,0,0
130614,-133.333333333333,4,2,1,55,0,0
132214,-133.333333333333,4,2,4,55,0,0
132414,-133.333333333333,4,2,1,55,0,0
132614,-133.333333333333,4,2,5,55,0,0
132814,-133.333333333333,4,2,1,55,0,0
133014,-133.333333333333,4,2,7,55,0,0
133147,-133.333333333333,4,2,1,55,0,0
133414,-133.333333333333,4,2,3,55,0,0
133614,-133.333333333333,4,2,1,55,0,0
133814,-133.333333333333,4,2,8,55,0,0
133947,-133.333333333333,4,2,1,55,0,0
135414,-133.333333333333,4,2,4,55,0,0
135614,-133.333333333333,4,2,1,55,0,0
135814,-133.333333333333,4,2,8,55,0,0
136014,-133.333333333333,4,2,1,55,0,0
136214,-133.333333333333,4,2,3,55,0,0
136347,-133.333333333333,4,2,1,55,0,0
136614,-133.333333333333,4,2,7,55,0,0
136814,-133.333333333333,4,2,1,55,0,0
137014,-133.333333333333,4,2,8,55,0,0
137214,-133.333333333333,4,2,1,55,0,0
138614,-79.9999999999999,4,2,4,55,0,0
138814,-79.9999999999999,4,2,1,55,0,0
139014,-79.9999999999999,4,2,5,55,0,0
139214,-79.9999999999999,4,2,1,55,0,0
139414,-100,4,2,6,55,0,0
139547,-100,4,2,1,55,0,0
139814,-100,4,2,3,55,0,0
139947,-100,4,2,1,55,0,0
140214,-133.333333333333,4,2,8,55,0,0
140347,-133.333333333333,4,2,1,55,0,0
141814,-100,4,2,6,55,0,0
142014,-125,4,2,1,55,0,0
142214,-100,4,2,7,55,0,0
142414,-76.9230769230769,4,2,1,55,0,0
142614,-62.5,4,2,8,55,0,0
142814,-62.5,4,2,1,55,0,0
143014,-52.6315789473684,4,2,6,55,0,0
143214,-43.4782608695652,4,2,1,55,0,0
144014,-333.333333333333,4,2,1,50,0,0
145014,-333.333333333333,4,2,4,50,0,0
145414,-333.333333333333,4,2,5,50,0,0
145814,-333.333333333333,4,2,6,50,0,0
146214,-333.333333333333,4,2,3,50,0,0
146614,-333.333333333333,4,2,1,50,0,0
148214,-333.333333333333,4,2,8,50,0,0
148614,-333.333333333333,4,2,3,50,0,0
149014,-333.333333333333,4,2,7,50,0,0
149414,-333.333333333333,4,2,6,50,0,0
149814,-333.333333333333,4,2,1,50,0,0
151414,-333.333333333333,4,2,4,50,0,0
151814,-333.333333333333,4,2,5,50,0,0
152214,-333.333333333333,4,2,6,50,0,0
152614,-333.333333333333,4,2,3,50,0,0
153014,-333.333333333333,4,2,1,50,0,0
156614,-133.333333333333,4,2,1,55,0,0
157014,-200,4,2,1,55,0,0
158214,-133.333333333333,4,2,1,55,0,0
159414,-105.263157894737,4,2,1,55,0,0
161014,-83.3333333333333,4,2,1,55,0,0
161814,-111.111111111111,4,2,1,55,0,0
162214,-133.333333333333,4,2,1,55,0,0
165814,-111.111111111111,4,2,1,55,0,0
167414,-90.9090909090909,4,2,1,60,0,0
167614,-100,4,2,1,60,0,0
167814,-90.9090909090909,4,2,1,60,0,0
168014,-71.4285714285714,4,2,1,60,0,0
168214,-55.5555555555556,4,2,1,60,0,0
168414,-43.4782608695652,4,2,1,60,0,0
169014,-25,4,2,1,70,0,1
170614,-40,4,2,1,70,0,1
170814,-55.5555555555556,4,2,1,70,0,1
171347,-55.5555555555556,4,2,1,60,0,1
172214,-25,4,2,1,70,0,1
173814,-40,4,2,1,70,0,1
174014,-66.6666666666667,4,2,1,70,0,1
174414,-83.3333333333333,4,2,1,70,0,1
174614,-83.3333333333333,4,2,1,60,0,1
175414,-25,4,2,1,70,0,1
177014,-40,4,2,1,70,0,1
177214,-55.5555555555556,4,2,1,70,0,1
177747,-55.5555555555556,4,2,1,60,0,1
178614,-25,4,2,1,70,0,1
180214,-40,4,2,1,70,0,1
180414,-66.6666666666667,4,2,1,70,0,1
180814,-52.6315789473684,4,2,1,70,0,1
181014,-52.6315789473684,4,2,1,60,0,1
181814,-25,4,2,1,70,0,1
183414,-40,4,2,1,70,0,1
183614,-55.5555555555556,4,2,1,70,0,1
184147,-55.5555555555556,4,2,1,60,0,1
185014,-25,4,2,1,70,0,1
186614,-40,4,2,1,70,0,1
186814,-55.5555555555556,4,2,1,70,0,1
187214,-47.6190476190476,4,2,1,70,0,1
187414,-47.6190476190476,4,2,1,60,0,1
187947,-200,4,2,1,60,0,1
188614,-25,4,2,1,70,0,1
189814,-40,4,2,1,70,0,1
190014,-55.5555555555556,4,2,1,70,0,1
190547,-55.5555555555556,4,2,1,60,0,1
191414,-25,4,2,1,70,0,1
192947,-20,4,2,1,70,0,1
193614,-66.6666666666667,4,2,1,70,0,1
194214,-200,4,2,1,70,0,1
194614,-133.333333333333,4,2,1,60,0,0
196914,-100,4,2,1,60,0,0
199814,-100,4,2,6,60,0,0
199947,-100,4,2,1,60,0,0
200214,-100,4,2,7,60,0,0
200414,-100,4,2,1,60,0,0
200614,-100,4,2,8,60,0,0
200747,-100,4,2,1,60,0,0
201014,-133.333333333333,4,2,6,60,0,0
201347,-133.333333333333,4,2,1,60,0,0
203314,-100,4,2,1,60,0,0
206214,-100,4,2,6,60,0,0
206347,-100,4,2,1,60,0,0
206614,-100,4,2,7,60,0,0
206814,-100,4,2,1,60,0,0
207014,-76.9230769230769,4,2,8,60,0,0
207414,-76.9230769230769,4,2,1,50,0,0
207814,-153.846153846153,4,2,1,50,0,0
210214,-100,4,2,1,50,0,0
210614,-153.846153846153,4,2,1,50,0,0
218614,-153.846153846153,4,2,4,50,0,0
219014,-181.818181818181,4,2,5,50,0,0
219414,-181.818181818181,4,2,6,50,0,0
219814,-181.818181818181,4,2,7,50,0,0
220214,-181.818181818181,4,2,8,50,0,0

[Colours]
Combo1 : 62,175,230
Combo2 : 107,156,245
Combo3 : 156,239,245
Combo4 : 247,179,235

[HitObjects]
198,295,2614,6,0,P|226:288|271:292,1,67.5000025749208,2|0,0:0|0:0,0:0:0:0:
124,304,3014,2,0,P|157:309|198:294,1,67.5000025749208,8|0,0:0|0:0,0:0:0:0:
64,224,3314,1,0,0:0:0:0:
57,346,3414,2,0,P|86:313|68:226,1,135.000005149842,2|0,0:0|0:0,0:0:0:0:
254,185,3947,1,2,3:0:0:0:
121,26,4147,6,0,P|105:71|109:133,1,90.0000034332277,2|0,0:0|0:0,0:0:0:0:
163,213,4614,1,2,0:3:0:0:
287,77,4814,5,2,0:3:0:0:
237,12,4914,2,0,L|249:131,1,90,10|2,0:2|0:3,0:0:0:0:
254,185,5214,1,2,0:3:0:0:
461,130,5414,5,2,0:3:0:0:
380,96,5547,2,0,P|372:119|375:140,1,30
409,334,5814,6,0,P|449:299|457:268,1,67.5000025749208,2|0,0:0|0:0,0:0:0:0:
339,328,6214,2,0,P|371:340|404:337,1,67.5000025749208,8|0,0:0|0:0,0:0:0:0:
297,261,6514,5,2,0:0:0:0:
265,328,6614,2,0,P|288:304|298:272,2,67.5000025749208,2|0|0,0:0|0:0|0:0,0:0:0:0:
192,237,7147,5,2,0:3:0:0:
187,225,7214,2,0,P|184:206|191:190,1,22.5000008583069,2|0,0:0|0:0,0:0:0:0:
117,287,7347,2,0,P|159:263|209:273,1,90.0000034332277,2|0,0:0|0:0,0:0:0:0:
173,347,7814,1,2,0:3:0:0:
35,196,8014,5,2,0:3:0:0:
76,128,8114,2,0,L|70:237,1,90,8|0,0:0|0:0,0:0:0:0:
37,292,8414,2,0,P|17:285|-1:266,1,45,2|0,0:0|0:0,0:0:0:0:
206,276,8614,2,0,L|131:283,1,67.5,2|0,0:0|0:0,0:0:0:0:
117,287,9014,6,0,P|99:318|101:351,1,67.5000025749208,2|0,0:0|0:0,0:0:0:0:
139,215,9414,2,0,P|139:248|122:276,1,67.5000025749208,8|0,0:0|0:0,0:0:0:0:
198,130,9714,1,0,0:0:0:0:
70,157,9814,2,0,P|126:175|194:134,1,135.000005149842,2|0,0:0|0:0,0:0:0:0:
283,299,10347,1,2,0:3:0:0:
439,133,10547,6,0,P|393:116|346:127,1,90.0000034332277,2|0,0:0|0:0,0:0:0:0:
270,216,11014,1,2,0:3:0:0:
391,336,11214,5,2,0:3:0:0:
449,285,11314,2,0,L|327:296,1,90,8|0,0:0|0:0,0:0:0:0:
283,299,11614,1,2,0:3:0:0:
137,334,11814,5,2,0:3:0:0:
197,279,11947,2,0,P|177:265|162:261,1,30
50,279,12214,6,0,P|31:315|36:357,1,67.5000025749208,2|0,0:0|0:0,0:0:0:0:
114,243,12614,2,0,P|75:255|48:288,1,67.5000025749208,8|0,0:0|0:0,0:0:0:0:
178,290,12914,5,2,0:0:0:0:
182,212,13014,2,0,P|170:243|176:286,2,67.5000025749208
247,162,13547,5,2,0:0:0:0:
257,156,13614,2,0,P|277:152|294:156,1,22.5000008583069,2|0,0:3|0:0,0:0:0:0:
392,256,13747,2,0,L|293:238,1,90.0000034332277
349,333,14214,1,2,0:3:0:0:
400,125,14414,5,2,0:3:0:0:
357,64,14514,2,0,P|353:117|371:183,1,90,8|0,0:0|0:0,0:0:0:0:
303,239,14814,2,0,P|308:269|314:284,1,33.7500012874604,2|0,0:0|0:0,0:0:0:0:
446,313,15014,2,0,P|463:297|431:303,1,67.5,2|0,0:0|0:0,0:0:0:0:
426,299,15414,5,12,0:0:0:0:
349,333,15614,1,0,0:0:0:0:
236,288,15814,1,0,0:0:0:0:
236,288,15914,1,2,0:3:0:0:
75,356,16114,2,0,P|133:342|143:284,1,121.499996292114,2|0,0:0|0:0,0:0:0:0:
138,134,16614,5,2,0:3:0:0:
177,66,16747,2,0,P|168:94|164:121,1,53.9999983520508,2|0,0:0|0:0,0:0:0:0:
203,179,16947,2,0,P|179:131|204:75,1,80.9999975280763,2|0,0:0|0:0,0:0:0:0:
259,51,17214,1,0,0:0:0:0:
361,137,17414,1,0,0:0:0:0:
361,137,17514,1,2,0:3:0:0:
474,29,17714,6,0,P|443:54|446:115,1,80.9999975280763,8|0,0:0|0:0,0:0:0:0:
474,160,18014,1,2,0:3:0:0:
380,275,18214,5,2,0:3:0:0:
447,241,18347,2,0,L|375:249,1,53.9999983520508,2|0,0:0|0:0,0:0:0:0:
318,217,18547,5,2,0:0:0:0:
318,217,18614,2,0,P|283:215|232:251,1,80.9999975280763,2|0,0:0|0:0,0:0:0:0:
171,324,19014,1,2,0:3:0:0:
276,349,19214,5,2,0:0:0:0:
280,341,19280,1,2,0:0:0:0:
280,334,19347,2,0,P|218:299|171:322,1,107.999996704102,2|0,0:0|0:0,0:0:0:0:
76,348,19814,1,2,0:3:0:0:
44,209,19947,6,0,P|40:190|43:166,1,26.9999991760254,2|0,0:0|0:0,0:0:0:0:
86,121,20080,1,2,0:0:0:0:
86,121,20147,2,0,P|69:160|85:236,1,107.999996704102,2|0,0:0|0:0,0:0:0:0:
178,176,20614,1,2,0:3:0:0:
332,118,20814,5,2,0:3:0:0:
293,48,20914,2,0,L|301:156,1,80.9999975280763,8|0,0:0|0:0,0:0:0:0:
395,254,21214,2,0,P|399:279|399:301,1,26.9999991760254,2|0,0:0|0:0,0:0:0:0:
398,295,21547,2,0,P|396:321|402:339,1,26.9999991760254,2|0,0:0|0:0,0:0:0:0:
394,334,21814,6,0,P|353:303|298:315,1,80.9999975280763,2|0,0:0|0:0,0:0:0:0:
251,356,22214,1,0,0:0:0:0:
182,290,22414,1,2,0:3:0:0:
182,290,22514,1,2,0:3:0:0:
182,290,22614,2,0,P|160:238|173:179,1,80.9999975280763,2|0,0:0|0:0,0:0:0:0:
243,91,23014,5,2,0:3:0:0:
311,30,23147,2,0,P|289:57|283:85,1,53.9999983520508,2|0,0:0|0:0,0:0:0:0:
305,142,23347,2,0,P|292:98|320:38,1,107.999996704102,2|0,0:0|0:0,0:0:0:0:
490,29,23814,1,2,0:3:0:0:
433,235,24014,5,2,0:3:0:0:
469,309,24114,2,0,L|461:193,1,80.9999975280763,8|0,0:0|0:0,0:0:0:0:
459,142,24414,1,2,0:3:0:0:
290,218,24614,5,2,0:3:0:0:
355,274,24747,1,2,0:0:0:0:
355,274,24814,1,2,0:3:0:0:
181,344,25014,6,0,P|224:307|279:310,1,80.9999975280763,2|0,0:0|0:0,0:0:0:0:
324,348,25414,1,2,0:3:0:0:
192,235,25614,1,2,0:3:0:0:
173,207,25714,1,2,0:3:0:0:
172,175,25814,2,0,P|191:132|224:108,1,80.9999975280763,2|0,0:0|0:0,0:0:0:0:
457,94,26214,6,0,P|467:119|469:153,1,53.9999983520508,2|0,0:0|0:0,0:0:0:0:
390,53,26414,1,2,0:3:0:0:
339,224,26547,2,0,P|383:171|381:122,1,107.999996704102,2|0,0:0|0:0,0:0:0:0:
302,13,27014,1,2,0:3:0:0:
172,175,27214,5,2,0:3:0:0:
224,226,27314,2,0,L|216:140,1,80.9999975280763,8|0,0:0|0:0,0:0:0:0:
204,71,27614,1,2,0:3:0:0:
28,92,27814,6,0,P|35:127|57:164,2,67.5000025749208,2|0|8,0:0|0:0|0:3,0:0:0:0:
159,8,28414,6,0,P|180:30|184:46,1,45.0000017166138,2|0,0:0|0:0,0:0:0:0:
204,71,28614,2,0,P|205:101|195:129,1,45.0000017166138,2|0,0:0|0:0,0:0:0:0:
97,243,28947,6,0,P|136:214|169:213,1,67.5000025749208,2|0,0:0|0:0,0:0:0:0:
179,199,29214,2,0,P|212:210|233:230,1,45.0000017166138,2|2,0:0|0:0,0:0:0:0:
330,350,30014,6,0,P|324:324|336:287,1,45.0000017166138,2|0,0:0|0:0,0:0:0:0:
358,288,30214,2,0,P|368:261|384:242,1,45.0000017166138,2|0,0:0|0:0,0:0:0:0:
467,102,30547,6,0,P|448:129|401:142,1,67.5000025749208,2|0,0:0|0:0,0:0:0:0:
405,139,30814,1,2,0:0:0:0:
333,190,30947,2,0,P|295:175|273:136,1,67.5000025749208,2|0,0:0|0:0,0:0:0:0:
342,75,31214,1,2,0:0:0:0:
157,24,31614,5,2,0:0:0:0:
95,117,31747,1,2,0:0:0:0:
103,109,31814,2,0,P|134:101|163:112,1,45.0000017166138,2|0,0:0|0:0,0:0:0:0:
279,154,32147,1,2,0:0:0:0:
198,340,32347,5,2,0:0:0:0:
191,349,32414,2,0,P|180:320|182:301,1,45.0000017166138,2|0,0:0|0:0,0:0:0:0:
340,251,32747,1,2,0:0:0:0:
337,261,32814,1,2,0:0:0:0:
446,344,33214,6,0,P|463:326|471:302,1,45.0000017166138,2|0,0:0|0:0,0:0:0:0:
497,282,33414,2,0,P|498:255|490:233,1,45.0000017166138,2|0,0:0|0:0,0:0:0:0:
417,166,33747,1,2,0:0:0:0:
214,296,33947,5,2,0:0:0:0:
232,310,34014,2,0,P|262:307|296:281,1,52.500000500679,2|0,0:0|0:0,0:0:0:0:
369,287,34214,2,0,P|375:254|357:221,1,52.500000500679,2|0,0:3|0:0,0:0:0:0:
417,166,34414,2,0,P|385:136|331:124,1,77.9999964294435,2|0,0:3|0:0,0:0:0:0:
267,200,34614,6,0,L|165:184,1,90,8|0,0:0|0:0,0:0:0:0:
56,143,34947,1,2,0:3:0:0:
46,131,35014,2,0,P|51:93|65:73,1,60,2|0,0:0|0:0,0:0:0:0:
76,68,35214,1,2,0:0:0:0:
227,71,35347,5,2,0:3:0:0:
238,80,35414,2,0,P|255:112|250:145,1,60,2|0,0:0|0:0,0:0:0:0:
322,183,35614,2,0,P|298:229|253:258,1,71.9999978027344,2|0,0:3|0:0,0:0:0:0:
201,300,35814,1,10,0:0:0:0:
121,209,36014,1,0,0:0:0:0:
35,373,36214,6,0,L|161:355,1,107.999996704102,8|0,0:3|0:0,0:0:0:0:
268,339,36547,1,2,0:3:0:0:
280,325,36614,2,0,B|293:302|293:302|283:249,1,71.9999978027344,2|0,0:0|0:0,0:0:0:0:
281,241,36814,1,2,0:0:0:0:
403,260,36947,5,2,0:3:0:0:
420,254,37014,2,0,B|408:219|408:219|368:194,1,71.9999978027344,2|0,0:0|0:0,0:0:0:0:
382,107,37214,2,0,B|345:99|345:99|300:116,1,71.9999978027344,2|0,0:3|0:0,0:0:0:0:
244,168,37414,1,10,0:0:0:0:
168,136,37547,1,2,0:0:0:0:
165,118,37614,1,2,0:3:0:0:
244,25,37814,5,8,0:3:0:0:
115,7,38014,1,2,0:0:0:0:
48,62,38147,1,2,0:3:0:0:
40,78,38214,2,0,P|42:125|59:152,1,71.9999978027344,2|0,0:0|0:0,0:0:0:0:
102,206,38414,2,0,L|102:278,1,71.9999978027344,2|0,0:3|0:0,0:0:0:0:
55,335,38614,1,10,0:0:0:0:
206,381,38747,5,2,0:3:0:0:
222,372,38814,2,0,P|235:343|220:291,1,71.9999978027344,2|0,0:2|0:0,0:0:0:0:
184,239,39014,1,2,0:3:0:0:
276,246,39147,1,2,0:0:0:0:
288,243,39214,1,2,0:3:0:0:
473,225,39414,6,0,L|343:205,1,116.999994644165,8|0,3:0|0:0,0:0:0:0:
449,24,39814,2,0,P|471:74|378:120,1,155.999992858887,8|0,0:0|0:0,0:0:0:0:
341,76,40147,5,2,0:3:0:0:
328,67,40214,2,0,L|256:73,1,60,8|0,0:3|0:0,0:0:0:0:
167,117,40414,1,8,0:3:0:0:
178,130,40480,2,0,L|239:145,1,35.9999989013672,2|0,0:0|0:0,0:0:0:0:
290,176,40614,1,8,0:0:0:0:
209,221,40747,1,2,0:0:0:0:
215,234,40814,1,0,0:0:0:0:
505,348,41014,6,0,P|444:332|359:359,1,135.000005149842,8|0,0:3|0:0,0:0:0:0:
480,265,41347,1,2,0:3:0:0:
467,260,41414,2,0,P|409:258|342:277,1,90.0000034332277,8|0,0:0|0:0,0:0:0:0:
310,291,41614,2,0,P|354:268|353:211,1,90.0000034332277,2|0,0:3|0:0,0:0:0:0:
358,223,41814,21,8,0:3:0:0:
290,176,41947,1,2,0:0:0:0:
287,189,42014,1,2,0:3:0:0:
215,234,42147,1,2,0:0:0:0:
209,221,42214,2,0,P|197:176|214:131,1,90.0000034332277,8|0,0:0|0:0,0:0:0:0:
286,97,42414,2,0,L|196:88,1,90.0000034332277,2|0,0:3|0:0,0:0:0:0:
115,50,42614,5,8,0:3:0:0:
8,174,42747,2,0,L|67:154,1,45.0000017166138,2|0,0:3|0:0,0:0:0:0:
116,269,42880,1,2,0:0:0:0:
115,275,42947,1,2,0:0:0:0:
115,281,43014,2,0,B|103:367|103:367|71:307,1,135.000005149842,10|0,0:0|0:0,0:0:0:0:
80,324,43414,6,0,P|130:310|179:320,1,90.0000034332277,8|0,0:3|0:0,0:0:0:0:
178,322,43614,1,2,0:0:0:0:
241,379,43747,1,2,0:0:0:0:
253,374,43814,1,10,0:0:0:0:
358,257,43947,1,2,0:0:0:0:
374,266,44014,2,0,P|379:324|332:290,1,125.999996154785,10|0,0:3|0:0,0:0:0:0:
331,301,44214,1,8,0:3:0:0:
218,195,44414,6,0,P|209:165|207:138,1,45.0000017166138,2|0,0:0|0:0,0:0:0:0:
300,62,44547,1,2,0:3:0:0:
293,73,44614,2,0,P|280:118|290:176,1,90.0000034332277,10|0,0:0|0:0,0:0:0:0:
290,172,44814,1,2,0:0:0:0:
477,218,44947,5,2,0:0:0:0:
472,205,45014,1,8,0:3:0:0:
401,179,45147,1,2,0:0:0:0:
388,184,45214,1,2,0:3:0:0:
351,246,45347,1,2,0:0:0:0:
358,257,45414,2,0,B|374:280|374:280|446:293,1,90.0000034332277,10|0,0:0|0:0,0:0:0:0:
501,320,45614,2,0,B|455:307|423:338|440:333|399:374|342:345,1,125.999996154785,2|0,0:0|0:0,2:0:0:0:
365,351,45814,1,8,0:3:0:0:
168,216,45947,5,2,0:0:0:0:
155,221,46014,2,0,P|125:251|121:320,1,90.0000034332277,2|0,0:0|0:0,0:0:0:0:
244,359,46214,2,0,P|225:305|177:276,1,90.0000034332277,8|0,0:0|0:0,0:0:0:0:
161,358,46414,1,2,0:0:0:0:
280,253,46614,5,8,0:3:0:0:
308,70,46814,1,2,0:3:0:0:
150,104,46947,1,2,0:0:0:0:
150,104,47014,2,0,P|142:132|146:163,1,45.0000017166138,10|0,0:0|0:0,0:0:0:0:
143,154,47214,1,2,0:0:0:0:
390,112,47414,6,0,P|322:94|240:127,1,135.000005149842,10|0,0:3|0:0,0:0:0:0:
383,213,47747,1,2,0:0:0:0:
378,200,47814,2,0,P|342:178|278:199,1,90.0000034332277,10|0,0:0|0:0,0:0:0:0:
224,176,48014,2,0,P|258:211|262:267,1,90.0000034332277,2|0,0:0|0:0,0:0:0:0:
262,263,48214,5,8,0:3:0:0:
191,309,48347,1,2,0:0:0:0:
188,295,48414,1,2,0:3:0:0:
122,242,48547,1,2,0:0:0:0:
119,255,48614,2,0,L|102:349,1,90.0000034332277,10|0,0:0|0:0,0:0:0:0:
32,384,48814,2,0,P|11:348|34:269,1,90.0000034332277,2|0,0:0|0:0,0:0:0:0:
47,232,49014,5,8,0:3:0:0:
195,94,49147,2,0,L|257:102,1,45.0000017166138,2|0,0:0|0:0,0:0:0:0:
314,157,49280,1,2,0:0:0:0:
324,156,49347,1,2,0:0:0:0:
333,154,49414,2,0,B|369:111|347:64|347:64|352:87|343:115,1,135.000005149842,10|0,0:0|0:0,0:0:0:0:
347,102,49814,6,0,P|387:90|451:110,1,90.0000034332277,8|0,0:3|0:0,0:0:0:0:
444,107,50014,1,2,0:0:0:0:
493,162,50147,1,2,0:0:0:0:
491,175,50214,1,8,0:0:0:0:
415,226,50347,1,2,0:0:0:0:
400,230,50414,2,0,P|365:212|418:178,1,125.999996154785,10|0,0:3|0:0,0:0:0:0:
419,181,50614,1,8,0:3:0:0:
341,332,50814,6,0,P|318:310|306:283,1,45.0000017166138,2|0,0:3|0:0,0:0:0:0:
235,219,50947,1,2,0:0:0:0:
231,232,51014,2,0,P|226:283|249:341,1,90.0000034332277,10|0,0:0|0:0,0:0:0:0:
242,331,51214,1,2,0:0:0:0:
165,384,51347,5,2,0:0:0:0:
151,381,51414,1,8,0:3:0:0:
88,338,51547,1,2,0:0:0:0:
89,324,51614,1,2,0:3:0:0:
129,253,51747,1,2,0:0:0:0:
141,257,51814,2,0,B|153:227|153:227|122:144,1,90.0000034332277,10|0,0:0|0:0,0:0:0:0:
90,73,52014,2,0,P|96:115|171:131,1,125.999996154785,2|0,0:3|0:0,0:0:0:0:
182,120,52214,1,8,0:3:0:0:
307,38,52347,5,2,0:0:0:0:
319,31,52414,2,0,P|367:35|403:78,1,90.0000034332277,2|0,0:0|0:0,0:0:0:0:
342,197,52614,2,0,P|321:153|340:100,1,90.0000034332277,8|0,0:0|0:0,0:0:0:0:
407,148,52814,1,2,0:0:0:0:
254,94,53014,5,8,0:3:0:0:
297,312,53214,1,2,0:3:0:0:
434,267,53414,2,0,P|419:257|405:257,1,20.9999993591309,8|0,0:3|0:0,0:0:0:0:
441,337,53547,2,0,P|439:304|414:273,1,62.9999980773926,8|0,0:3|0:0,0:0:0:0:
366,368,53814,5,14,0:0:0:0:
213,339,54014,1,2,0:0:0:0:
159,269,54147,1,2,0:3:0:0:
152,252,54214,2,0,B|134:223|152:195|152:195|167:219|160:235,1,90.0000034332277,8|0,0:0|0:0,0:0:0:0:
327,206,54547,5,2,0:3:0:0:
339,193,54614,2,0,P|350:159|322:101,1,90.0000034332277,8|0,0:3|0:0,0:0:0:0:
263,268,54814,2,0,P|318:299|357:287,1,90.0000034332277,2|0,0:0|0:0,0:0:0:0:
439,209,55014,1,8,0:0:0:0:
265,157,55214,1,0,0:0:0:0:
481,39,55414,6,0,P|421:67|335:50,1,135.000005149842,8|0,0:3|0:0,0:0:0:0:
242,21,55747,1,2,0:3:0:0:
224,15,55814,2,0,B|197:9|174:29|174:29|192:40|213:32,1,90.0000034332277,8|0,0:0|0:0,0:0:0:0:
205,217,56147,5,2,0:3:0:0:
197,233,56214,2,0,P|154:252|110:240,1,90.0000034332277,8|0,0:3|0:0,0:0:0:0:
265,157,56414,2,0,P|295:206|286:251,1,90.0000034332277,2|0,0:0|0:0,0:0:0:0:
215,323,56614,1,8,0:0:0:0:
191,120,56747,1,2,0:3:0:0:
201,105,56814,1,2,0:0:0:0:
399,31,57014,5,8,0:3:0:0:
292,236,57214,1,2,0:0:0:0:
374,152,57347,1,2,0:3:0:0:
391,155,57414,1,8,0:0:0:0:
470,202,57547,2,0,P|481:259|435:324,1,135.000005149842,2|0,0:0|0:0,0:0:0:0:
406,343,57814,2,0,L|316:327,1,90.0000034332277,8|0,0:3|0:0,0:0:0:0:
299,323,58014,1,0,0:0:0:0:
190,379,58147,5,2,0:3:0:0:
204,367,58214,2,0,P|220:321|181:282,1,90.0000034332277,8|0,0:0|0:0,0:0:0:0:
181,284,58414,1,2,0:0:0:0:
49,340,58614,5,8,0:3:0:0:
117,224,58814,1,2,0:0:0:0:
67,163,58947,1,2,0:3:0:0:
59,146,59014,2,0,B|49:118|54:103|54:103|81:90|102:96,1,90.0000034332277,8|0,0:0|0:0,0:0:0:0:
109,100,59214,1,0,0:0:0:0:
277,192,59347,5,2,0:3:0:0:
293,199,59414,2,0,P|346:183|367:128,1,90.0000034332277,8|0,0:3|0:0,0:0:0:0:
213,128,59614,2,0,P|186:178|203:236,1,90.0000034332277,2|0,0:0|0:0,0:0:0:0:
257,359,59814,6,0,L|272:261,1,90.0000034332277,10|0,0:0|0:0,0:0:0:0:
362,118,60014,2,0,L|373:214,1,90.0000034332277,2|0,0:0|0:0,0:0:0:0:
402,323,60214,6,0,P|463:313|407:268,1,135.000005149842,10|0,0:3|0:0,0:0:0:0:
284,207,60547,1,2,0:3:0:0:
268,198,60614,2,0,B|238:169|246:145|246:145|267:148|275:177,1,90.0000034332277,8|0,0:0|0:0,0:0:0:0:
78,327,60947,5,2,0:3:0:0:
62,316,61014,2,0,P|41:276|54:222,1,90.0000034332277,8|0,0:3|0:0,0:0:0:0:
188,209,61214,2,0,P|163:247|110:262,1,90.0000034332277,2|0,0:0|0:0,0:0:0:0:
31,153,61414,1,10,0:0:0:0:
143,54,61614,1,0,0:0:0:0:
408,118,61814,6,0,P|367:35|333:40,1,135.000005149842,8|0,0:3|0:0,0:0:0:0:
249,193,62147,1,2,0:3:0:0:
230,193,62214,2,0,B|189:182|184:158|184:158|204:150|225:171,1,90.0000034332277,8|0,0:0|0:0,0:0:0:0:
429,309,62547,5,2,0:3:0:0:
443,298,62614,2,0,P|468:254|460:213,1,90.0000034332277,8|0,0:3|0:0,0:0:0:0:
323,188,62814,2,0,P|348:231|388:245,1,90.0000034332277,2|0,0:0|0:0,0:0:0:0:
510,150,63014,1,10,0:0:0:0:
340,37,63147,1,2,0:3:0:0:
322,40,63214,1,2,0:0:0:0:
144,246,63414,5,8,0:3:0:0:
41,110,63614,1,2,0:0:0:0:
106,54,63747,1,2,0:3:0:0:
123,50,63814,1,10,0:0:0:0:
205,84,63947,2,0,P|243:118|223:206,1,135.000005149842,2|0,0:0|0:0,0:0:0:0:
219,215,64214,2,0,L|230:316,1,90.0000034332277,8|0,0:3|0:0,0:0:0:0:
221,320,64414,1,2,0:0:0:0:
390,349,64547,5,2,0:3:0:0:
392,331,64614,2,0,P|362:291|318:288,1,90.0000034332277,10|0,0:0|0:0,0:0:0:0:
310,296,64814,1,2,0:0:0:0:
142,352,65014,5,8,0:3:0:0:
23,227,65214,1,2,0:0:0:0:
106,162,65347,1,2,0:3:0:0:
118,149,65414,2,0,B|138:132|144:112|144:112|128:90|98:79,1,90.0000034332277,10|0,0:0|0:0,0:0:0:0:
100,83,65614,1,2,0:0:0:0:
226,198,65747,5,2,0:3:0:0:
242,206,65814,2,0,P|287:207|332:179,1,90.0000034332277,8|0,0:3|0:0,0:0:0:0:
284,37,66014,2,0,P|260:76|262:129,1,90.0000034332277,2|0,0:0|0:0,0:0:0:0:
400,222,66214,6,0,L|508:203,1,90.0000034332277,10|0,0:0|0:0,0:0:0:0:
436,80,66414,2,0,L|305:62,1,90.0000034332277,2|0,0:0|0:0,0:0:0:0:
214,358,66614,5,14,0:3:0:0:
354,307,66814,1,2,0:0:0:0:
137,248,66947,1,2,0:3:0:0:
137,248,67014,2,0,P|187:265|237:202,1,135.000005149842,10|0,0:0|0:0,0:0:0:0:
126,147,67347,5,2,0:3:0:0:
113,151,67414,1,8,0:3:0:0:
69,61,67547,1,2,0:3:0:0:
82,63,67614,1,2,0:0:0:0:
151,7,67814,1,8,0:0:0:0:
64,227,68014,1,2,0:0:0:0:
336,222,68214,5,8,0:3:0:0:
258,129,68414,2,0,P|286:142|305:167,1,45.0000017166138,2|0,0:0|0:0,0:0:0:0:
238,300,68547,1,2,0:3:0:0:
226,306,68614,2,0,P|193:248|253:211,1,135.000005149842,8|0,0:0|0:0,0:0:0:0:
370,333,68947,5,2,0:3:0:0:
383,335,69013,1,8,0:3:0:0:
456,265,69147,1,2,0:3:0:0:
443,267,69213,1,2,0:0:0:0:
463,375,69414,1,8,0:0:0:0:
511,184,69614,1,2,0:0:0:0:
272,45,69814,5,8,0:3:0:0:
408,114,70014,1,2,0:0:0:0:
226,140,70147,1,2,0:3:0:0:
226,140,70214,2,0,P|268:122|307:195,1,135.000005149842,8|0,0:0|0:0,0:0:0:0:
126,251,70547,5,2,0:3:0:0:
122,261,70614,1,8,0:3:0:0:
206,316,70747,1,2,0:3:0:0:
202,306,70814,1,2,0:0:0:0:
307,196,71014,6,0,P|253:188|197:211,1,90.0000034332277,8|0,0:0|0:0,0:0:0:0:
314,285,71214,2,0,L|326:179,1,90.0000034332277,2|0,0:0|0:0,0:0:0:0:
308,12,71414,6,0,P|254:63|250:137,1,153.000002918243,10|0,0:3|0:0,0:0:0:0:
473,134,71747,1,2,0:3:0:0:
465,110,71814,2,0,P|406:78|342:98,1,135.000005149842,10|0,0:0|0:0,0:0:0:0:
399,309,72147,5,2,0:3:0:0:
416,288,72214,2,0,P|421:224|390:180,1,90.0000034332277,8|0,0:3|0:0,0:0:0:0:
326,169,72414,2,0,P|321:233|352:277,1,90.0000034332277
187,338,72614,6,0,L|272:350,1,77.9999964294435,8|0,0:0|0:0,0:0:0:0:
214,240,72814,2,0,L|129:252,1,77.9999964294435,2|0,0:0|0:0,0:0:0:0:
60,325,73014,5,8,0:3:0:0:
2,202,73214,1,2,0:0:0:0:
144,64,73347,1,2,0:3:0:0:
144,64,73414,2,0,P|95:97|107:164,1,116.999994644165,8|0,0:0|0:0,0:0:0:0:
258,186,73747,5,2,0:3:0:0:
261,175,73813,1,8,0:3:0:0:
345,107,73947,1,2,0:3:0:0:
348,117,74013,1,2,0:0:0:0:
237,84,74214,1,8,0:0:0:0:
408,197,74414,1,2,0:0:0:0:
229,360,74614,5,8,0:3:0:0:
304,308,74814,2,0,P|273:288|257:288,1,38.9999982147218,2|0,0:0|0:0,0:0:0:0:
101,235,74947,1,2,0:3:0:0:
101,235,75014,2,0,P|137:290|196:286,1,116.999994644165,8|0,0:0|0:0,0:0:0:0:
261,198,75347,5,2,0:3:0:0:
258,186,75414,1,8,0:3:0:0:
348,117,75547,1,2,0:3:0:0:
345,128,75614,1,2,0:0:0:0:
222,92,75814,1,8,0:0:0:0:
10,182,76014,1,2,0:0:0:0:
143,342,76214,5,8,0:3:0:0:
42,295,76414,1,2,0:0:0:0:
303,271,76547,1,2,0:3:0:0:
303,271,76614,2,0,P|261:275|256:353,1,116.999994644165,8|0,0:0|0:0,0:0:0:0:
366,338,76947,5,2,0:3:0:0:
376,333,77014,1,8,0:3:0:0:
462,271,77147,1,2,0:3:0:0:
450,267,77214,1,2,0:0:0:0:
364,169,77414,6,0,P|358:131|394:84,1,77.9999964294435,8|0,0:0|0:0,0:0:0:0:
444,178,77614,2,0,L|350:190,1,77.9999964294435,2|0,0:0|0:0,0:0:0:0:
240,167,77814,6,0,P|218:135|217:88,1,77.9999964294435,10|0,0:3|0:0,0:0:0:0:
215,74,78014,2,0,P|209:133|222:159,1,66.0000020141602,2|0,0:0|0:0,0:0:0:0:
166,239,78214,6,0,P|162:300|124:333,1,90.0000034332277,10|0,0:0|0:0,0:0:0:0:
125,347,78414,2,0,P|171:296|172:226,1,125.999996154785,2|0,0:0|0:0,0:0:0:0:
19,137,78614,6,0,P|58:79|122:88,1,125.999996154785,10|0,0:3|0:0,0:0:0:0:
65,208,78814,2,0,P|9:136|30:89,1,138.000002632141,2|0,0:0|0:0,0:0:0:0:
237,19,79014,6,0,P|317:31|347:102,1,138.000002632141,10|0,0:0|0:0,0:0:0:0:
187,132,79214,2,0,P|201:48|271:26,1,150,2|0,0:0|0:0,0:0:0:0:
427,30,79414,5,10,0:3:0:0:
299,211,79614,1,0,0:0:0:0:
421,152,79747,5,2,0:3:0:0:
414,140,79814,2,0,P|380:116|307:132,1,90.0000034332277,10|0,0:0|0:0,0:0:0:0:
320,121,80014,1,0,0:0:0:0:
385,253,80148,5,2,0:3:0:0:
401,250,80214,1,10,0:3:0:0:
477,306,80348,1,2,0:3:0:0:
466,302,80414,1,0,0:3:0:0:
388,360,80614,5,10,0:0:0:0:
470,206,80814,1,2,0:0:0:0:
209,360,81014,5,10,0:3:0:0:
71,279,81214,2,0,P|59:245|68:214,1,45.0000017166138,2|0,0:0|0:0,0:0:0:0:
215,209,81347,5,2,0:3:0:0:
225,224,81414,2,0,P|162:259|140:240,1,90.0000034332277,10|0,0:0|0:0,0:0:0:0:
144,246,81614,1,2,0:0:0:0:
333,144,81747,5,2,0:3:0:0:
340,160,81814,1,10,0:3:0:0:
370,252,81947,1,2,0:3:0:0:
377,236,82014,1,2,0:0:0:0:
470,206,82214,5,10,0:0:0:0:
349,354,82414,1,2,0:0:0:0:
470,53,82614,5,10,0:3:0:0:
406,158,82814,1,2,0:0:0:0:
353,86,82947,5,2,0:3:0:0:
349,75,83014,2,0,P|353:31|411:3,1,90.0000034332277,10|0,0:0|0:0,0:0:0:0:
402,4,83214,1,0,0:0:0:0:
221,103,83347,5,2,0:3:0:0:
209,98,83414,1,10,0:3:0:0:
143,27,83547,1,2,0:3:0:0:
131,32,83614,1,2,0:0:0:0:
81,121,83814,5,10,0:0:0:0:
264,8,84014,1,2,0:0:0:0:
40,194,84214,6,0,P|47:254|145:323,1,170.999995433807,10|0,0:3|0:0,0:0:0:0:
284,177,84547,5,2,0:3:0:0:
202,108,84614,2,0,P|145:122|119:208,1,153.000002918243,10|0,0:0|0:0,0:0:0:0:
323,226,84947,5,2,0:3:0:0:
364,159,85014,2,0,P|368:117|319:58,1,102.000001945496,10|0,0:3|0:0,0:0:0:0:
287,127,85214,2,0,P|284:177|313:218,1,102.000001945496,2|0,0:0|0:0,0:0:0:0:
423,290,85414,6,0,L|523:275,1,90.0000034332277,10|0,0:0|0:0,0:0:0:0:
455,379,85614,2,0,L|355:364,1,90.0000034332277,2|0,0:0|0:0,0:0:0:0:
282,352,85814,5,10,0:3:0:0:
428,180,86014,1,2,0:0:0:0:
259,230,86147,5,2,0:3:0:0:
273,240,86214,2,0,P|323:232|341:178,1,90.0000034332277,10|0,0:0|0:0,0:0:0:0:
341,187,86414,1,0,0:0:0:0:
274,128,86547,5,2,0:3:0:0:
263,131,86614,1,10,0:3:0:0:
173,174,86747,1,2,0:3:0:0:
184,177,86814,1,2,0:0:0:0:
248,31,87014,5,10,0:0:0:0:
63,111,87214,1,2,0:0:0:0:
78,261,87414,5,10,0:3:0:0:
184,177,87614,1,2,0:0:0:0:
258,345,87747,5,2,0:3:0:0:
246,339,87814,2,0,P|223:278|254:216,1,102.000001945496,10|0,0:0|0:2,0:0:0:0:
238,232,88014,1,0,0:0:0:0:
413,253,88147,5,2,0:3:0:0:
416,266,88214,1,10,0:3:0:0:
345,357,88347,1,2,0:3:0:0:
348,344,88414,1,2,0:0:0:0:
462,119,88614,5,10,0:0:0:0:
350,205,88814,1,2,0:0:0:0:
237,34,89014,5,10,0:3:0:0:
378,60,89214,1,2,0:0:0:0:
261,129,89347,5,2,0:3:0:0:
249,136,89414,2,0,P|184:136|157:108,1,90.0000034332277,10|0,0:0|0:0,0:0:0:0:
161,113,89614,1,0,0:0:0:0:
257,232,89747,5,2,0:3:0:0:
262,245,89814,1,10,0:3:0:0:
181,299,89947,1,2,0:3:0:0:
186,286,90014,1,2,0:0:0:0:
276,340,90214,6,0,L|378:357,1,90.0000034332277,10|0,0:0|0:0,0:0:0:0:
429,384,90414,2,0,P|398:343|426:287,1,90.0000034332277,2|0,0:0|0:0,0:0:0:0:
454,178,90614,6,0,P|441:138|377:125,1,90.0000034332277,10|0,0:3|0:0,0:0:0:0:
421,237,90814,2,0,P|462:207|465:172,1,71.9999978027344,2|0,0:0|0:0,0:0:0:0:
234,101,91014,6,0,P|182:130|172:174,1,90.0000034332277,10|0,0:0|0:0,0:0:0:0:
319,192,91214,2,0,P|278:118|230:120,1,125.999996154785,2|0,0:0|0:0,0:0:0:0:
72,96,91414,6,0,L|82:234,1,125.999996154785,10|0,0:3|0:0,0:0:0:0:
30,356,91614,2,0,L|49:220,1,138.000002632141,2|0,0:0|0:0,0:0:0:0:
234,101,91814,6,0,L|251:246,1,138.000002632141,10|0,0:0|0:0,0:0:0:0:
176,384,92014,2,0,L|200:205,1,155.999992858887,2|0,0:0|0:0,0:0:0:0:
356,56,92214,5,14,0:3:0:0:
478,144,92414,2,0,L|370:129,1,90,2|8,0:0|0:0,0:0:0:0:
247,183,92747,5,2,0:3:0:0:
269,197,92814,2,0,L|355:187,1,60,2|0,0:0|0:0,0:0:0:0:
380,272,93014,2,0,P|340:263|286:283,1,90,10|8,0:3|0:3,0:0:0:0:
366,357,93414,1,8,0:0:0:0:
477,266,93614,1,2,0:3:0:0:
172,277,93814,6,0,L|184:342,1,60,10|0,0:3|0:0,0:0:0:0:
61,383,94014,2,0,P|87:347|81:300,1,90,8|10,0:3|0:0,0:0:0:0:
16,221,94347,6,0,P|20:174|41:145,1,60,2|0,0:0|0:0,0:0:0:0:
87,118,94547,1,2,0:3:0:0:
98,121,94614,1,0,0:0:0:0:
171,79,94747,1,2,0:3:0:0:
183,78,94814,1,8,0:3:0:0:
310,176,95014,5,8,0:0:0:0:
173,243,95147,1,2,0:3:0:0:
163,236,95214,2,0,L|236:227,1,60,8|0,0:3|0:0,0:0:0:0:
309,252,95414,5,8,0:3:0:0:
127,315,95614,2,0,L|236:302,1,90,2|8,0:3|0:0,0:0:0:0:
381,360,95947,5,2,0:3:0:0:
397,339,96014,2,0,L|392:268,1,60,8|0,0:3|0:0,0:0:0:0:
424,180,96214,2,0,P|418:220|320:252,1,153.000002918243,10|10,0:3|0:3,0:0:0:0:
234,174,96614,1,8,0:0:0:0:
486,79,96814,1,2,0:3:0:0:
291,31,97014,6,0,L|217:40,1,60,10|0,0:3|0:0,0:0:0:0:
101,84,97214,2,0,P|150:84|182:108,1,90,8|8,0:3|0:0,0:0:0:0:
45,161,97547,5,2,0:3:0:0:
35,168,97614,2,0,L|30:230,1,60,2|0,0:3|0:0,0:0:0:0:
98,311,97814,2,0,P|91:283|105:243,1,60,10|0,0:3|0:0,0:0:0:0:
108,243,98014,1,2,0:3:0:0:
178,340,98147,5,2,0:3:0:0:
189,335,98214,2,0,P|202:323|208:288,1,30,8|0,0:0|0:0,0:0:0:0:
291,248,98347,2,0,P|295:291|276:345,1,90,10|0,0:3|0:0,0:0:0:0:
356,374,98614,5,10,0:3:0:0:
482,301,98814,2,0,L|390:287,1,90,2|0,0:3|0:3,0:0:0:0:
320,181,99147,5,2,0:3:0:0:
330,168,99214,2,0,L|433:155,1,90,2|2,0:0|0:3,0:0:0:0:
466,69,99547,1,2,0:3:0:0:
455,62,99614,2,0,B|438:55|438:55|374:66,1,60,8|0,0:3|0:0,0:0:0:0:
279,15,99814,1,8,0:0:0:0:
107,104,100014,1,2,0:3:0:0:
194,10,100214,6,0,L|183:89,1,60,10|0,0:3|0:0,0:0:0:0:
161,228,100414,2,0,P|180:195|167:134,1,90,10|8,0:3|0:0,0:0:0:0:
28,57,100747,6,0,P|11:91|13:121,1,60,8|0,0:3|0:0,0:0:0:0:
17,183,100947,1,2,0:3:0:0:
22,193,101014,1,8,0:0:0:0:
45,262,101147,1,2,0:3:0:0:
49,273,101214,2,0,B|55:302|55:302|35:367,1,90,10|8,0:3|0:0,0:0:0:0:
222,228,101547,5,8,0:3:0:0:
213,219,101614,2,0,P|202:254|210:288,1,60,8|0,0:3|0:0,0:0:0:0:
238,359,101814,5,8,0:3:0:0:
130,231,102014,2,0,P|126:274|156:339,1,90,2|8,0:3|0:0,0:0:0:0:
317,354,102347,5,2,0:3:0:0:
325,331,102414,2,0,L|318:262,1,60,8|0,0:3|0:0,0:0:0:0:
281,193,102614,2,0,P|304:243|396:253,1,153.000002918243,10|8,0:3|0:3,0:0:0:0:
452,167,102947,1,2,0:3:0:0:
449,156,103014,1,8,0:0:0:0:
246,70,103214,1,2,0:0:0:0:
458,31,103414,6,0,L|466:90,1,60,10|0,0:3|0:0,0:0:0:0:
449,156,103614,2,0,L|457:93,1,48,2|0,0:0|0:0,0:0:0:0:
323,59,103814,6,0,L|314:118,1,60,10|0,0:0|0:0,0:0:0:0:
336,213,104014,2,0,L|325:135,1,77.9999964294435,2|0,0:0|0:0,0:0:0:0:
213,57,104214,6,0,P|173:56|122:80,1,90.0000034332277,10|0,0:3|0:0,0:0:0:0:
30,95,104414,2,0,P|81:95|127:74,1,102.000001945496,2|0,0:0|0:0,0:0:0:0:
236,156,104614,6,0,P|183:143|148:184,1,113.999996955872,10|0,0:0|0:0,0:0:0:0:
55,224,104814,2,0,P|117:240|148:184,1,138.000002632141,2|0,0:0|0:0,0:0:0:0:
62,16,105014,5,14,0:0:0:0:
32,308,105214,2,0,L|20:213,1,77.9999964294435,2|2,0:0|0:0,0:0:0:0:
19,219,105414,1,10,0:0:0:0:
199,145,105547,5,2,0:3:0:0:
212,164,105614,2,0,L|203:274,1,77.9999964294435,8|0,0:3|0:0,0:0:0:0:
153,339,105814,1,10,0:3:0:0:
106,251,105947,1,2,0:3:0:0:
128,245,106014,1,8,0:3:0:0:
319,333,106214,6,0,B|309:351|309:351|316:315|318:280,1,77.9999964294435,10|0,0:0|0:0,0:0:0:0:
287,204,106414,2,0,P|310:246|386:254,1,107.999996704102,2|0,0:0|0:0,0:0:0:0:
456,213,106614,6,0,L|466:129,1,77.9999964294435,10|0,0:3|0:0,0:0:0:0:
389,9,106814,2,0,B|372:42|372:42|383:97,1,77.9999964294435,8|0,0:3|0:0,0:0:0:0:
390,106,107014,1,8,0:0:0:0:
198,48,107147,5,2,0:3:0:0:
212,29,107214,2,0,L|195:141,1,77.9999964294435,2|0,0:0|0:0,0:0:0:0:
169,173,107414,1,2,0:0:0:0:
104,79,107547,1,2,0:3:0:0:
110,56,107614,1,8,0:3:0:0:
279,108,107747,5,2,0:3:0:0:
284,130,107814,2,0,L|300:226,1,77.9999964294435,10|0,0:0|0:0,0:0:0:0:
238,263,108014,1,2,0:3:0:0:
232,285,108080,1,0,0:3:0:0:
148,369,108214,5,8,0:3:0:0:
374,382,108414,2,0,L|258:355,1,116.999994644165,2|8,0:0|0:0,0:0:0:0:
144,209,108747,5,2,0:3:0:0:
169,173,108814,2,0,P|224:166|266:218,1,107.999996704102,10|0,0:3|0:0,0:0:0:0:
285,278,109014,1,8,0:3:0:0:
373,212,109147,1,2,0:3:0:0:
381,189,109214,1,8,0:3:0:0:
325,67,109347,1,2,0:3:0:0:
316,88,109414,2,0,B|344:98|344:98|413:81,1,77.9999964294435,10|0,0:0|0:0,0:0:0:0:
470,54,109614,1,2,0:0:0:0:
447,291,109814,6,0,L|340:283,1,77.9999964294435,10|0,0:3|0:0,0:0:0:0:
223,348,110014,2,0,P|261:373|304:357,1,77.9999964294435,8|0,0:3|0:0,0:0:0:0:
314,354,110214,1,10,0:0:0:0:
231,248,110347,5,2,0:3:0:0:
235,224,110414,1,8,0:0:0:0:
314,173,110547,1,2,0:3:0:0:
309,149,110614,2,0,L|299:65,1,77.9999964294435,8|0,0:3|0:0,0:0:0:0:
246,21,110814,1,8,0:3:0:0:
88,206,110947,5,2,0:3:0:0:
79,184,111014,2,0,P|76:161|86:130,1,38.9999982147218,8|0,0:0|0:0,0:0:0:0:
157,122,111147,2,0,P|102:134|56:86,1,116.999994644165,8|0,0:3|0:0,0:0:0:0:
62,16,111414,5,10,0:3:0:0:
163,236,111614,2,0,L|150:340,1,77.9999964294435,2|0,0:0|0:0,0:0:0:0:
152,338,111814,1,10,0:0:0:0:
240,161,111947,5,2,0:3:0:0:
227,139,112014,2,0,P|179:117|132:140,1,77.9999964294435,8|0,0:3|0:0,0:0:0:0:
21,215,112214,5,10,0:3:0:0:
186,296,112347,1,2,0:3:0:0:
208,290,112414,1,8,0:3:0:0:
456,213,112614,6,0,L|367:197,1,77.9999964294435,10|0,0:0|0:0,0:0:0:0:
266,208,112814,2,0,P|318:186|373:257,1,132.00000402832,2|0,0:3|0:0,0:0:0:0:
319,333,113014,6,0,B|268:346|268:346|243:338,1,77.9999964294435,10|0,0:3|0:0,0:0:0:0:
148,204,113214,2,0,L|162:284,1,77.9999964294435,8|0,0:3|0:0,0:0:0:0:
166,302,113414,1,8,0:0:0:0:
254,228,113547,5,2,0:3:0:0:
266,208,113614,2,0,P|271:175|240:127,1,77.9999964294435,8|0,0:3|0:0,0:0:0:0:
195,83,113814,1,8,0:3:0:0:
36,122,113947,1,2,0:3:0:0:
30,99,114014,1,8,0:3:0:0:
122,14,114147,5,0,0:0:0:0:
118,37,114214,2,0,L|109:132,1,77.9999964294435,8|0,0:0|0:0,0:0:0:0:
133,192,114414,1,2,0:3:0:0:
129,214,114480,1,2,0:0:0:0:
19,313,114614,5,8,0:3:0:0:
196,289,114814,2,0,P|156:260|80:267,1,116.999994644165,2|8,0:0|0:0,0:0:0:0:
24,33,115147,5,2,0:3:0:0:
66,22,115214,2,0,P|104:34|129:98,1,107.999996704102,8|0,0:3|0:0,0:0:0:0:
66,158,115414,1,8,0:3:0:0:
166,227,115547,1,2,0:3:0:0:
192,221,115614,1,8,0:3:0:0:
310,73,115747,1,2,0:3:0:0:
288,64,115814,2,0,B|275:97|275:97|290:165,1,77.9999964294435,8|0,0:0|0:0,0:0:0:0:
329,241,116014,1,2,0:3:0:0:
431,157,116214,6,0,P|452:125|437:76,1,77.9999964294435,10|0,0:3|0:0,0:0:0:0:
460,35,116414,2,0,P|441:59|454:99,1,60,2|0,0:0|0:0,0:0:0:0:
218,162,116614,6,0,P|258:164|287:133,1,77.9999964294435,10|0,0:0|0:0,0:0:0:0:
368,108,116814,2,0,P|317:104|282:142,1,102.000001945496,2|0,0:0|0:0,0:0:0:0:
154,271,117014,6,0,B|169:298|169:298|177:259|163:216,1,102.000001945496,10|0,0:3|0:0,0:0:0:0:
229,102,117214,2,0,B|211:71|211:71|202:115|218:164,1,125.999996154785,2|0,0:0|0:0,0:0:0:0:
293,328,117414,6,0,B|329:327|329:327|284:290|220:288,1,125.999996154785,10|0,0:0|0:0,0:0:0:0:
37,197,117614,2,0,B|-9:196|-9:196|31:234|112:222,1,150,2|0,0:0|0:0,0:0:0:0:
334,182,117814,5,14,0:3:0:0:
437,111,118014,1,2,0:0:0:0:
428,107,118080,1,2,0:0:0:0:
418,106,118147,1,2,0:0:0:0:
409,108,118214,2,0,P|384:110|362:121,1,45.0000017166138,10|0,0:0|0:0,0:0:0:0:
334,182,118414,2,0,P|348:139|307:76,1,112.500004291535,2|0,0:0|0:0,0:0:0:0:
310,77,118814,5,8,0:3:0:0:
414,201,119014,1,8,0:0:0:0:
252,143,119214,1,2,0:3:0:0:
159,363,119414,5,10,0:3:0:0:
265,316,119614,1,2,0:0:0:0:
76,270,119814,2,0,P|100:293|144:286,1,67.5000025749208,8|0,0:0|0:0,0:0:0:0:
216,233,120147,5,2,0:3:0:0:
220,223,120214,1,8,0:3:0:0:
153,156,120347,1,2,0:3:0:0:
157,166,120414,1,2,0:0:0:0:
299,248,120614,1,8,0:0:0:0:
132,292,120814,1,2,0:0:0:0:
197,57,121014,6,0,P|211:42|239:29,1,45.0000017166138,8|0,0:3|0:0,0:0:0:0:
346,125,121214,1,2,0:0:0:0:
332,127,121280,1,2,0:0:0:0:
318,123,121347,1,2,0:0:0:0:
303,116,121414,2,0,P|291:94|295:72,1,45.0000017166138,10|0,0:0|0:0,0:0:0:0:
453,69,121614,2,0,L|443:184,1,112.500004291535,2|0,0:0|0:0,0:0:0:0:
441,193,122014,5,8,0:3:0:0:
374,33,122214,1,8,0:0:0:0:
212,122,122414,1,2,0:3:0:0:
272,298,122614,5,8,0:3:0:0:
187,255,122814,1,2,0:0:0:0:
348,205,123014,2,0,P|323:219|276:203,1,67.5000025749208,8|0,0:0|0:0,0:0:0:0:
228,147,123347,5,2,0:3:0:0:
233,137,123414,1,8,0:3:0:0:
288,73,123547,1,2,0:3:0:0:
293,83,123614,1,2,0:0:0:0:
142,157,123814,1,8,0:0:0:0:
177,46,124014,1,2,0:0:0:0:
235,294,124214,5,8,0:3:0:0:
142,270,124414,1,2,0:0:0:0:
150,266,124480,1,2,0:0:0:0:
158,264,124547,1,2,0:0:0:0:
166,262,124614,2,0,P|198:263|221:276,1,45.0000017166138,10|0,0:0|0:0,0:0:0:0:
296,348,124814,2,0,P|252:328|243:267,1,112.500004291535,2|0,0:0|0:0,0:0:0:0:
285,211,125214,5,10,0:3:0:0:
286,202,125280,1,2,0:0:0:0:
287,193,125347,1,2,0:0:0:0:
284,184,125414,1,10,0:0:0:0:
221,129,125614,1,2,0:3:0:0:
361,22,125814,6,0,L|345:122,1,90,8|0,0:3|0:0,0:0:0:0:
418,223,126147,1,2,0:3:0:0:
447,152,126214,2,0,L|454:251,1,80.9999975280763,10|0,0:0|0:0,0:0:0:0:
300,305,126547,5,2,0:3:0:0:
325,230,126614,2,0,P|328:267|322:296,1,48,8|0,0:3|0:0,0:0:0:0:
216,345,126814,2,0,P|213:308|219:279,1,48,2|0,0:0|0:0,0:0:0:0:
155,246,127014,6,0,L|103:232,1,48,10|0,0:0|0:0,0:0:0:0:
49,319,127214,2,0,L|105:310,1,48,2|0,0:0|0:0,0:0:0:0:
230,228,127414,6,0,L|241:167,1,48,8|0,0:3|0:0,0:0:0:0:
296,107,127614,1,2,0:0:0:0:
290,99,127680,1,2,0:0:0:0:
279,93,127747,1,2,0:0:0:0:
265,87,127814,2,0,P|237:86|215:93,1,48,10|0,0:0|0:0,0:0:0:0:
160,134,128014,1,2,0:0:0:0:
374,175,128214,6,0,P|388:152|389:110,1,60,8|0,0:3|0:0,0:0:0:0:
368,46,128414,1,2,0:0:0:0:
347,24,128480,1,2,0:0:0:0:
320,9,128547,1,2,0:0:0:0:
290,5,128614,1,10,0:0:0:0:
239,181,128814,1,2,0:3:0:0:
352,271,129014,6,0,B|368:268|368:268|343:253|318:272,1,60,10|0,0:3|0:0,0:0:0:0:
262,323,129214,2,0,B|247:325|247:325|270:339|292:322,1,48,2|0,0:0|0:0,0:0:0:0:
457,158,129414,6,0,B|462:142|462:142|436:156|440:187,1,60,10|0,0:0|0:0,0:0:0:0:
496,285,129614,2,0,B|503:301|503:301|512:270|485:248,1,77.9999964294435,2|0,0:0|0:0,0:0:0:0:
365,136,129814,6,0,B|289:152|289:152|310:159,1,96,10|0,0:3|0:0,0:0:0:0:
226,243,130014,2,0,B|302:251|302:251|266:231,1,96,2|0,0:0|0:0,0:0:0:0:
214,37,130214,6,0,B|124:15|124:15|159:48,1,113.999996955872,10|0,0:0|0:0,0:0:0:0:
56,240,130414,2,0,B|156:196|156:196|120:160,1,138.000002632141,2|0,0:0|0:0,0:0:0:0:
31,5,130614,5,12,0:3:0:0:
65,136,130814,1,2,0:0:0:0:
71,130,130880,1,2,0:0:0:0:
75,122,130947,1,2,0:0:0:0:
77,113,131014,2,0,P|80:93|62:53,1,45.0000017166138,10|0,0:0|0:0,0:0:0:0:
31,5,131214,2,0,P|58:35|132:37,1,112.500004291535,2|0,0:0|0:0,0:0:0:0:
147,28,131614,5,2,0:0:0:0:
0,93,131814,1,8,0:0:0:0:
70,216,132014,1,2,0:3:0:0:
235,123,132214,5,10,0:3:0:0:
144,156,132414,1,2,0:0:0:0:
239,283,132547,5,2,0:3:0:0:
256,269,132614,2,0,P|268:241|246:197,1,67.5000025749208,10|0,0:0|0:0,0:0:0:0:
393,315,132947,5,2,0:3:0:0:
390,326,133014,1,10,0:3:0:0:
323,380,133147,1,2,0:3:0:0:
320,369,133214,1,2,0:0:0:0:
512,255,133414,5,10,0:0:0:0:
482,348,133614,1,2,0:0:0:0:
325,259,133814,6,0,P|322:232|330:197,1,45.0000017166138,10|0,0:3|0:0,0:0:0:0:
420,101,134014,1,2,0:0:0:0:
432,104,134080,1,2,0:0:0:0:
441,113,134147,1,2,0:0:0:0:
445,125,134214,2,0,P|445:157|432:173,1,45.0000017166138,10|0,0:0|0:0,0:0:0:0:
346,84,134414,2,0,L|458:66,1,112.500004291535,2|0,0:0|0:0,0:0:0:0:
469,62,134814,5,2,0:0:0:0:
364,160,135014,1,8,0:0:0:0:
406,1,135214,1,2,0:3:0:0:
226,37,135414,5,10,0:3:0:0:
319,93,135614,1,2,0:0:0:0:
203,296,135747,5,2,0:3:0:0:
186,298,135814,2,0,P|150:279|142:241,1,67.5000025749208,10|0,0:0|0:0,0:0:0:0:
162,161,136147,5,2,0:3:0:0:
165,148,136214,1,10,0:3:0:0:
254,211,136347,1,2,0:3:0:0:
257,224,136414,1,2,0:0:0:0:
324,355,136614,5,10,0:0:0:0:
265,298,136814,1,2,0:0:0:0:
418,69,137014,5,10,0:3:0:0:
336,127,137214,1,2,0:0:0:0:
343,131,137280,1,2,0:0:0:0:
351,132,137347,1,2,0:0:0:0:
359,130,137414,2,0,P|381:122|398:100,1,45.0000017166138,10|0,0:0|0:0,0:0:0:0:
474,27,137614,2,0,P|450:30|429:112,1,112.500004291535,2|0,0:0|0:0,0:0:0:0:
466,161,138014,5,2,0:0:0:0:
470,168,138080,1,2,0:0:0:0:
474,176,138147,1,2,0:0:0:0:
475,184,138214,1,10,0:0:0:0:
437,290,138414,1,2,0:0:0:0:
296,335,138614,6,0,L|167:350,1,112.5,10|0,0:3|0:0,0:0:0:0:
283,186,138947,1,2,0:3:0:0:
351,211,139014,2,0,P|292:221|216:227,1,112.5,10|0,0:0|0:0,0:0:0:0:
213,46,139347,5,2,0:3:0:0:
281,102,139414,2,0,P|292:146|286:169,1,60,10|0,0:3|0:0,0:0:0:0:
221,225,139614,2,0,P|210:181|216:158,1,60,2|0,0:0|0:0,0:0:0:0:
152,89,139814,6,0,L|84:75,1,60,10|0,0:0|0:0,0:0:0:0:
40,180,140014,2,0,L|108:166,1,60,2|0,0:0|0:0,0:0:0:0:
136,231,140214,6,0,P|150:264|149:290,1,45.0000017166138,10|0,0:3|0:0,0:0:0:0:
40,356,140414,1,2,0:0:0:0:
38,346,140480,1,2,0:0:0:0:
38,338,140547,1,2,0:0:0:0:
41,329,140614,2,0,P|61:303|73:297,1,45.0000017166138,10|0,0:0|0:0,0:0:0:0:
239,350,140814,2,0,P|205:345|197:275,1,112.500004291535,2|0,0:0|0:0,0:0:0:0:
246,224,141214,5,2,0:0:0:0:
254,206,141280,1,2,0:0:0:0:
254,188,141347,1,2,0:0:0:0:
251,170,141414,1,10,0:0:0:0:
179,76,141614,1,2,0:0:0:0:
321,3,141814,6,0,B|363:-9|363:-9|352:3,1,60,10|0,0:3|0:0,0:0:0:0:
303,90,142014,2,0,B|267:81|267:81|280:76,1,48,2|0,0:0|0:0,0:0:0:0:
415,109,142214,6,0,B|427:151|427:151|415:140,1,60,10|0,0:0|0:0,0:0:0:0:
317,212,142414,2,0,B|329:155|329:155|336:174,1,77.9999964294435,2|0,0:0|0:0,0:0:0:0:
404,243,142614,6,0,P|424:304|392:347,1,96,10|0,0:3|0:0,0:0:0:0:
487,363,142814,2,0,P|453:325|411:329,1,96,2|0,0:0|0:0,0:0:0:0:
263,310,143014,6,0,P|236:256|269:186,1,113.999996955872,10|0,0:0|0:0,0:0:0:0:
125,202,143214,2,0,P|182:230|258:195,1,138.000002632141,2|0,0:0|0:0,0:0:0:0:
457,53,143414,5,2,0:0:0:0:
301,76,143747,1,2,0:0:0:0:
145,99,144014,2,0,L|63:111,1,80.9999975280763,2|0,0:0|0:0,0:0:0:0:
32,193,145014,5,2,0:0:0:0:
16,266,145414,1,2,0:0:0:0:
55,330,145814,1,2,0:0:0:0:
129,343,146214,1,2,0:0:0:0:
314,24,146614,5,2,0:0:0:0:
298,162,146947,1,2,0:0:0:0:
283,289,147214,2,0,L|276:372,1,80.9999975280763,2|0,0:0|0:0,0:0:0:0:
462,329,148214,5,2,0:0:0:0:
439,192,148614,1,2,0:0:0:0:
478,256,149014,1,2,0:0:0:0:
365,179,149414,1,2,0:0:0:0:
22,341,149814,5,2,0:0:0:0:
152,316,150147,1,2,0:0:0:0:
283,291,150414,2,0,L|362:276,1,80.9999975280763,2|0,0:0|0:0,0:0:0:0:
453,149,151414,5,2,0:0:0:0:
430,77,151814,1,2,0:0:0:0:
364,41,152214,1,2,0:0:0:0:
293,67,152614,1,2,0:0:0:0:
79,21,153014,5,2,0:0:0:0:
89,144,153347,1,2,0:0:0:0:
96,266,153614,2,0,L|103:349,1,80.9999975280763,2|0,0:0|0:0,0:0:0:0:
224,349,154614,6,0,P|245:298|232:244,2,107.999996704102,2|2|8,0:0|0:0|0:3,0:0:0:0:
365,211,156414,5,2,0:0:0:0:
216,356,156614,2,0,L|145:361,1,67.5000025749208,2|0,0:0|0:0,0:0:0:0:
12,216,157014,6,0,P|4:189|11:161,1,45,2|0,0:0|0:0,0:0:0:0:
82,140,157414,2,0,P|90:167|83:195,1,45,2|0,0:0|0:0,0:0:0:0:
87,183,158014,5,2,0:0:0:0:
172,81,158147,1,2,0:3:0:0:
158,62,158214,2,0,L|166:146,1,67.5000025749208,2|0,0:0|0:0,0:0:0:0:
226,212,158614,5,2,0:0:0:0:
295,238,158814,1,0,0:0:0:0:
363,139,159014,5,2,0:0:0:0:
294,165,159214,1,0,0:0:0:0:
432,346,159414,6,0,P|469:336|459:264,1,113.999996955872,2|0,0:0|0:0,0:0:0:0:
419,210,159747,2,0,P|403:169|428:126,1,85.4999977169037,2|0,0:0|0:0,0:0:0:0:
471,81,160014,2,0,L|431:255,1,170.999995433807,2|0,0:0|0:0,0:0:0:0:
332,357,160614,5,2,0:0:0:0:
265,308,160747,1,2,0:3:0:0:
263,287,160814,1,2,0:0:0:0:
334,148,161014,6,0,L|209:166,1,107.999996704102,2|0,0:0|0:0,0:0:0:0:
138,238,161347,1,2,0:3:0:0:
190,267,161414,2,0,L|78:256,1,107.999996704102,2|0,0:0|0:0,0:0:0:0:
78,60,161747,5,2,0:3:0:0:
86,42,161814,2,0,P|95:72|78:110,1,53.9999983520508,2|0,0:0|0:0,0:0:0:0:
28,190,162014,2,0,P|19:160|36:122,1,53.9999983520508,2|0,0:0|0:0,0:0:0:0:
154,134,162214,6,0,L|204:142,1,45.0000017166138,2|0,0:0|0:0,0:0:0:0:
250,51,162414,2,0,L|200:59,1,45.0000017166138,2|0,0:0|0:0,0:0:0:0:
292,153,162614,5,2,0:0:0:0:
449,35,162814,1,2,0:3:0:0:
288,166,163014,2,0,P|284:211|288:238,1,67.5000025749208,8|0,0:0|0:0,0:0:0:0:
386,339,163347,5,2,0:3:0:0:
402,354,163414,2,0,L|390:273,1,67.5000025749208,2|0,0:0|0:0,0:0:0:0:
478,175,163814,2,0,L|468:246,1,67.5000025749208,8|0,0:0|0:0,0:0:0:0:
309,320,164214,5,2,0:0:0:0:
201,237,164414,2,0,P|196:214|199:201,1,22.5000008583069,2|0,0:0|0:0,0:0:0:0:
256,132,164547,1,2,0:3:0:0:
272,147,164614,2,0,L|187:139,1,67.5000025749208,10|0,0:0|0:0,0:0:0:0:
117,101,164947,5,2,0:3:0:0:
110,79,165014,1,2,0:0:0:0:
42,34,165147,1,2,0:3:0:0:
34,55,165214,1,2,0:0:0:0:
7,184,165414,2,0,P|47:186|76:174,1,67.5000025749208,8|0,0:0|0:0,0:0:0:0:
173,59,165814,6,0,P|213:41|277:59,1,107.999996704102,2|0,0:0|0:0,0:0:0:0:
340,188,166147,1,2,0:3:0:0:
377,205,166214,2,0,P|406:208|429:198,1,53.9999983520508,8|0,0:0|0:0,0:0:0:0:
426,22,166414,2,0,P|383:29|398:127,1,161.999995056153,2|0,0:0|0:0,0:0:0:0:
432,291,167014,5,8,0:0:0:0:
353,333,167147,1,2,0:3:0:0:
328,321,167214,1,2,0:0:0:0:
232,275,167414,6,0,P|224:233|233:209,1,66.0000020141602,10|0,0:3|0:0,0:0:0:0:
175,225,167614,2,0,P|217:221|239:206,1,60,2|0,0:0|0:0,0:0:0:0:
357,156,167814,6,0,P|324:128|298:123,1,66.0000020141602,10|0,0:0|0:0,0:0:0:0:
360,66,168014,2,0,P|329:110|298:125,1,83.9999974365235,2|0,0:0|0:0,0:0:0:0:
104,190,168214,6,0,P|60:139|100:76,1,107.999996704102,10|0,0:3|0:0,0:0:0:0:
179,75,168414,2,0,P|188:154|129:191,1,138.000002632141,10|0,0:3|0:0,0:0:0:0:
34,250,168614,5,10,0:0:0:0:
0,334,168747,1,2,0:3:0:0:
19,327,168814,1,2,0:0:0:0:
143,363,169014,6,0,B|246:374|246:374|267:376|301:374|329:324|298:278|255:275|255:275|148:262,1,360,8|0,0:3|0:0,0:0:0:0:
161,264,169414,6,0,B|263:308|327:224|327:224|255:130|165:167,1,360,8|0,0:0|0:0,0:0:0:0:
131,101,169747,5,2,0:3:0:0:
177,162,169814,2,0,P|252:197|173:91,1,360,10|0,0:3|0:0,0:0:0:0:
165,15,170080,5,2,0:0:0:0:
175,41,170147,1,2,0:0:0:0:
196,62,170214,2,0,B|294:119|368:35|368:35|409:-65|561:5|443:135|368:35|368:35|273:-22|200:38,1,600,10|0,0:0|0:0,0:0:0:0:
111,89,170614,6,0,B|81:191|81:191|117:148,1,150,10|0,0:3|0:0,0:0:0:0:
136,248,170814,2,0,P|154:209|110:158,1,107.999996704102,8|0,0:3|0:0,0:0:0:0:
9,177,171014,1,8,0:0:0:0:
60,297,171214,1,2,0:0:0:0:
228,182,171348,5,2,0:3:0:0:
239,184,171414,1,8,0:3:0:0:
294,241,171548,1,2,0:3:0:0:
280,242,171614,1,2,0:0:0:0:
316,114,171814,1,8,0:0:0:0:
186,264,172014,1,2,0:0:0:0:
435,327,172214,6,0,P|478:241|345:314,1,360,8|0,0:3|0:0,0:0:0:0:
209,326,172614,6,0,P|211:182|322:275,1,360,8|0,0:0|0:0,0:0:0:0:
465,209,172947,5,2,0:3:0:0:
444,101,173014,2,0,B|389:13|193:77|321:275,1,360,8|0,0:3|0:0,0:0:0:0:
464,325,173414,6,0,B|562:215|552:8|395:-13|222:11|239:188|272:213,1,600,10|0,0:0|0:0,0:0:0:0:
254,333,173814,6,0,B|150:366|150:366|193:333,1,150,10|0,0:3|0:0,0:0:0:0:
134,270,174014,2,0,P|181:289|188:341,1,90.0000034332277,2|0,0:0|0:0,0:0:0:0:
30,364,174214,6,0,L|54:268,1,90.0000034332277,10|0,0:0|0:0,0:0:0:0:
36,202,174414,2,0,P|29:249|55:285,1,71.9999978027344,2|0,0:0|0:0,0:0:0:0:
132,191,174614,5,8,0:3:0:0:
71,97,174814,1,2,0:0:0:0:
173,23,174947,1,2,0:3:0:0:
188,28,175014,1,8,0:0:0:0:
405,172,175214,2,0,L|423:161,4,17.9999994506836,2|0|0|0|0,0:0|0:0|0:0|0:0|0:0,0:0:0:0:
454,148,175414,6,0,B|427:31|427:31|303:56|303:56|328:184,1,360,10|0,0:3|0:0,0:0:0:0:
325,168,175814,6,0,B|327:79|327:79|234:43|234:43|173:125|173:125|230:207,1,360,10|0,0:0|0:0,0:0:0:0:
188,255,176147,5,2,0:3:0:0:
212,182,176214,2,0,B|233:117|233:117|186:62|186:62|112:74|112:74|86:144|86:144|135:200,1,360,8|0,0:3|0:0,0:0:0:0:
81,309,176547,5,2,0:3:0:0:
131,197,176614,2,0,B|151:133|151:133|78:55|78:55|29:202|29:202|158:343|158:343|198:223,1,600,10|0,0:0|0:0,0:0:0:0:
282,250,177014,6,0,B|386:224|386:224|347:258,1,150,10|0,0:3|0:0,0:0:0:0:
340,353,177214,2,0,P|319:294|369:250,1,107.999996704102
455,277,177414,1,10,0:0:0:0:
491,140,177614,1,2,0:0:0:0:
342,28,177747,5,2,0:3:0:0:
323,31,177814,1,8,0:3:0:0:
254,112,177947,1,2,0:3:0:0:
273,115,178014,1,2,0:0:0:0:
430,49,178214,1,8,0:0:0:0:
155,108,178414,1,2,0:0:0:0:
210,333,178614,6,0,B|301:358|301:358|314:363|383:376|468:308|451:232|354:180,1,360,8|0,0:3|0:0,0:0:0:0:
210,59,179014,6,0,B|301:34|301:34|314:29|383:16|468:84|451:160|354:212,1,360,10|0,0:0|0:0,0:0:0:0:
311,226,179280,1,2,0:0:0:0:
285,225,179347,1,2,0:0:0:0:
259,213,179414,1,10,0:3:0:0:
100,241,179614,1,2,0:0:0:0:
429,73,179814,6,0,B|465:147|430:253|301:254|263:212|336:225|246:118|107:100|30:293|139:400|264:329,1,600,10|0,0:0|0:0,0:0:0:0:
354,352,180214,6,0,B|454:333|454:333|402:324,1,150,10|0,0:3|0:0,0:0:0:0:
481,257,180414,2,0,P|432:269|409:308,1,90.0000034332277,2|0,0:0|0:0,0:0:0:0:
282,283,180614,6,0,B|208:272|208:272|232:262,1,90.0000034332277,10|0,0:0|0:0,0:0:0:0:
240,161,180814,2,0,P|265:206|221:264,1,113.999996955872,2|0,0:0|0:0,0:0:0:0:
136,336,181014,5,8,0:3:0:0:
45,187,181214,1,2,0:0:0:0:
168,30,181414,5,0,3:0:0:0:
248,35,181614,1,0,3:0:0:0:
323,42,181814,6,0,B|399:40|495:77|439:135|320:161|183:146|171:103,1,360,8|0,0:3|0:0,0:0:0:0:
200,127,182214,6,0,B|265:70|376:100|350:263|249:295|141:273,1,360,10|0,0:0|0:0,0:0:0:0:
148,362,182547,5,2,0:3:0:0:
179,277,182614,2,0,B|206:221|253:155|406:160|475:210|433:289,1,360,8|0,0:3|0:0,0:0:0:0:
393,343,182880,5,2,0:0:0:0:
370,355,182947,1,2,0:0:0:0:
340,364,183014,2,0,B|227:376|185:307|185:307|135:206|-4:323|157:407|185:307|185:307|207:218|299:199,1,600,10|0,0:0|0:0,0:0:0:0:
398,206,183414,6,0,P|431:154|376:89,1,150,10|0,0:3|0:0,0:0:0:0:
307,84,183614,2,0,B|288:113|288:113|377:96,1,107.999996704102,8|0,0:3|0:0,0:0:0:0:
512,104,183814,1,8,0:0:0:0:
416,17,184014,1,2,0:0:0:0:
311,188,184147,5,2,0:3:0:0:
316,203,184214,1,8,0:3:0:0:
240,265,184347,1,2,0:3:0:0:
245,250,184414,1,2,0:0:0:0:
218,104,184614,1,8,0:0:0:0:
331,298,184814,1,2,0:0:0:0:
105,344,185014,6,0,B|41:368|-43:261|96:177|176:252|114:272|208:286|287:207,1,360,10|0,0:3|0:0,0:0:0:0:
177,36,185414,6,0,B|131:-15|7:39|104:180|196:150|151:103|250:143|276:239,1,360,8|0,0:0|0:0,0:0:0:0:
154,285,185747,5,2,0:3:0:0:
40,290,185814,2,0,B|4:263|-3:183|63:140|231:146|270:222,1,360,8|0,0:3|0:0,0:0:0:0:
356,45,186214,6,0,B|158:55|109:247|162:359|285:385|439:278|324:155,1,600,10|0,0:0|0:0,0:0:0:0:
440,95,186614,6,0,P|459:100|461:209,1,150,10|0,0:3|0:0,0:0:0:0:
463,272,186814,2,0,B|477:187|477:187|461:212,1,107.999996704102,2|0,0:0|0:0,0:0:0:0:
309,134,187014,6,0,P|276:162|279:229,1,107.999996704102,10|0,0:0|0:0,0:0:0:0:
208,225,187214,2,0,B|301:206|301:206|274:224,1,125.999996154785,2|0,0:0|0:0,0:0:0:0:
357,321,187414,5,8,0:3:0:0:
191,379,187614,1,2,0:0:0:0:
70,276,187747,1,2,0:3:0:0:
64,257,187814,1,8,0:0:0:0:
136,165,187947,1,2,0:3:0:0:
133,180,188014,2,0,L|128:201,2,15,2|0|0,0:0|0:0|0:0,0:0:0:0:
0,10,188214,5,2,0:3:0:0:
13,99,188347,1,2,0:3:0:0:
15,91,188414,1,2,0:0:0:0:
17,85,188614,6,0,B|-16:125|-16:125|22:158|22:158|100:111|178:137|178:137|210:102|210:102|163:68,1,360,10|0,0:0|0:0,0:0:0:0:
236,18,188947,5,2,0:3:0:0:
171,74,189014,2,0,B|161:129|161:129|198:183|198:183|258:145|324:167|324:167|340:109|340:109|325:64,1,360,8|0,0:3|0:0,0:0:0:0:
413,11,189347,5,2,0:3:0:0:
325,64,189414,2,0,B|299:155|299:155|354:258|354:258|373:187|463:175|507:235|507:235|519:121|519:121|477:50,1,600,10|0,0:0|0:0,0:0:0:0:
272,9,189814,6,0,P|180:32|172:78,1,150,10|0,0:3|0:0,0:0:0:0:
180,136,190014,2,0,B|201:55|201:55|175:79,1,107.999996704102,8|0,0:3|0:0,0:0:0:0:
86,36,190214,5,10,0:0:0:0:
36,175,190414,1,2,0:0:0:0:
104,318,190547,5,2,0:3:0:0:
119,314,190614,1,8,0:3:0:0:
220,253,190747,1,2,0:3:0:0:
205,249,190814,1,2,0:0:0:0:
27,267,191014,1,8,0:0:0:0:
328,300,191214,1,2,0:0:0:0:
154,110,191414,6,0,B|109:82|131:-34|266:-29|323:85|254:196,1,360,8|0,0:3|0:0,0:0:0:0:
359,273,191814,6,0,B|404:301|382:417|247:412|190:298|259:187,1,360,10|0,0:0|0:0,0:0:0:0:
311,76,192080,1,2,0:0:0:0:
343,70,192147,1,2,0:0:0:0:
376,80,192214,1,10,0:3:0:0:
470,254,192414,1,2,0:0:0:0:
64,150,192614,6,0,P|151:228|267:176,1,240,10|0,0:0|0:0,0:0:0:0:
311,76,192814,1,2,0:0:0:0:
295,338,192947,6,0,B|391:402|583:236|460:64|235:53|226:187|286:182|280:263|75:314|32:120|93:87,1,600,10|0,0:3|0:0,0:0:0:0:
84,127,193280,1,2,2:0:0:0:
92,82,193347,1,2,2:0:0:0:
119,53,193414,1,10,2:0:0:0:
147,44,193480,1,2,2:0:0:0:
177,46,193547,1,2,2:0:0:0:
195,53,193614,2,0,P|226:185|163:208,1,225.000008583069,10|0,0:3|2:0,2:0:0:0:
91,312,194014,5,8,3:2:0:0:
91,312,194214,2,0,L|176:325,1,75,8|0,3:2|0:0,0:0:0:0:
250,208,194614,6,0,P|258:179|249:137,1,67.5000025749208,10|0,0:3|0:0,0:0:0:0:
262,287,194947,5,2,0:3:0:0:
251,273,195014,2,0,P|243:244|252:202,1,67.5000025749208,10|0,0:0|0:0,0:0:0:0:
206,330,195347,5,2,0:3:0:0:
315,327,195414,2,0,P|282:304|208:328,1,112.500004291535,10|0,0:3|0:0,0:0:0:0:
157,384,195814,1,8,0:0:0:0:
59,282,195947,1,2,0:0:0:0:
231,47,196147,6,0,L|216:155,1,90.0000034332277,10|0,0:3|0:0,0:0:0:0:
204,242,196614,1,8,0:0:0:0:
336,123,196814,5,2,0:3:0:0:
338,33,196947,2,0,P|325:63|333:136,1,90,2|0,0:0|0:0,0:0:0:0:
361,191,197214,1,8,0:3:0:0:
478,121,197414,1,8,0:0:0:0:
339,311,197547,5,2,0:3:0:0:
326,313,197614,1,2,0:0:0:0:
420,289,197814,6,0,B|476:303|447:380|365:369|304:326|352:328|288:292|216:326,1,270,10|0,0:3|0:0,0:0:0:0:
145,252,198547,5,2,0:3:0:0:
189,377,198614,2,0,B|220:348|221:274|169:250|172:282|141:245|136:181|184:148,1,240,10|0,0:3|0:0,0:0:0:0:
280,83,199214,6,2,L|324:88,1,30
339,217,199347,2,0,B|297:220|257:171|300:90|369:113,1,180,10|0,0:3|0:0,0:0:0:0:
445,124,199814,5,10,0:0:0:0:
500,254,199947,1,2,0:3:0:0:
491,246,200014,2,0,P|462:239|421:262,1,60,2|0,0:0|0:0,0:0:0:0:
386,311,200214,5,10,0:3:0:0:
309,220,200414,2,0,P|264:222|239:245,1,60,2|0,0:0|0:0,0:0:0:0:
181,334,200614,5,10,0:0:0:0:
232,136,200747,2,0,P|201:144|157:186,1,90,2|0,0:0|0:0,0:0:0:0:
57,168,201014,6,0,P|54:198|72:229,1,67.5000025749208,10|0,0:3|0:0,0:0:0:0:
114,126,201347,5,2,0:3:0:0:
103,125,201414,2,0,P|75:137|57:168,1,67.5000025749208,10|0,0:0|0:0,0:0:0:0:
166,193,201747,5,2,0:3:0:0:
198,81,201814,2,0,P|169:93|148:170,1,112.500004291535,10|0,0:3|0:0,0:0:0:0:
224,240,202214,1,8,0:0:0:0:
295,144,202347,1,2,0:0:0:0:
477,329,202547,6,0,L|386:318,1,90.0000034332277,10|0,0:3|0:0,0:0:0:0:
266,307,203014,1,8,0:0:0:0:
392,103,203214,5,2,0:3:0:0:
484,108,203347,2,0,P|426:125|379:103,1,90,2|0,0:0|0:0,0:0:0:0:
332,50,203614,1,10,0:3:0:0:
227,16,203814,1,8,0:0:0:0:
115,186,203947,5,2,0:3:0:0:
118,196,204014,1,2,0:0:0:0:
122,60,204214,6,0,B|60:105|46:224|132:319|264:268|310:220|232:226|341:142|435:236,1,510,10|0,0:3|0:0,0:0:0:0:
452,294,205414,1,8,0:0:0:0:
339,374,205547,1,2,0:0:0:0:
195,140,205747,6,0,P|269:91|374:87,1,180,10|0,0:3|0:0,0:0:0:0:
441,137,206214,5,10,0:0:0:0:
307,175,206347,1,2,0:3:0:0:
325,179,206414,2,0,P|346:197|357:232,1,60,2|0,0:0|0:0,0:0:0:0:
389,299,206614,6,0,P|372:336|348:353,1,60,10|0,0:3|0:0,0:0:0:0:
303,276,206814,1,2,0:0:0:0:
209,343,207014,6,0,P|105:345|86:254,1,194.999991073609,10|0,0:0|0:0,0:0:0:0:
88,247,207414,5,10,0:3:0:0:
153,132,207614,1,0,0:0:0:0:
206,213,207814,1,8,0:0:0:0:
206,213,207947,1,2,0:0:0:0:
325,113,208147,1,0,0:0:0:0:
317,121,208214,2,0,P|303:144|301:166,1,38.9999982147218,8|0,0:3|0:0,0:0:0:0:
301,168,208414,1,0,0:0:0:0:
369,231,208614,1,8,0:0:0:0:
441,182,208747,5,0,0:0:0:0:
449,189,208814,1,0,0:0:0:0:
502,277,208947,2,0,P|476:288|431:281,1,58.4999973220826,2|0,0:0|0:0,0:0:0:0:
438,283,209214,1,0,0:0:0:0:
288,261,209414,1,8,0:0:0:0:
288,261,209547,1,2,0:0:0:0:
365,354,209747,1,0,0:0:0:0:
344,352,209814,2,0,L|288:345,1,38.9999982147218,8|0,0:3|0:0,0:0:0:0:
295,345,210014,1,0,0:0:0:0:
155,268,210214,6,0,B|174:297|174:297|159:340,1,60,8|0,0:0|0:0,0:0:0:0:
161,337,210414,1,2,0:0:0:0:
47,364,210614,5,8,0:3:0:0:
62,178,210814,2,0,P|84:165|123:167,1,58.4999973220826,2|8,0:0|0:0,0:0:0:0:
207,196,211214,1,2,0:0:0:0:
262,132,211347,1,0,0:0:0:0:
270,121,211414,2,0,P|277:93|273:74,1,38.9999982147218,10|0,0:3|0:0,0:0:0:0:
272,74,211614,1,0,0:0:0:0:
334,200,211814,1,8,0:0:0:0:
430,14,212014,6,0,P|455:36|455:123,1,116.999994644165,2|0,0:0|0:0,0:0:0:0:
407,183,212614,1,10,0:0:0:0:
465,252,212814,5,2,0:3:0:0:
395,290,212947,1,0,0:0:0:0:
398,305,213014,2,0,L|410:356,1,38.9999982147218,8|0,0:3|0:0,0:0:0:0:
411,355,213214,1,0,0:0:0:0:
295,299,213414,2,0,P|248:281|197:296,1,97.4999955368044,10|0,0:0|0:0,0:0:0:0:
195,299,213814,6,0,P|180:272|183:228,1,58.4999973220826,10|0,0:3|0:0,0:0:0:0:
225,177,214214,1,10,0:0:0:0:
247,43,214414,1,2,0:0:0:0:
180,96,214547,1,2,0:0:0:0:
169,99,214614,2,0,P|144:92|125:74,1,38.9999982147218,10|0,0:3|0:0,0:0:0:0:
129,78,214814,1,0,0:0:0:0:
44,120,215014,6,0,L|52:169,1,38.9999982147218,10|0,0:0|0:0,0:0:0:0:
168,273,215280,2,0,P|133:232|82:235,1,97.4999955368044,2|0,0:0|0:0,0:0:0:0:
32,298,215814,1,8,0:0:0:0:
103,359,216014,1,0,0:0:0:0:
168,273,216147,1,0,0:0:0:0:
182,273,216214,2,0,P|205:274|228:292,1,38.9999982147218,8|0,0:3|0:0,0:0:0:0:
227,288,216414,1,0,0:0:0:0:
287,357,216614,5,8,0:0:0:0:
287,357,216814,1,0,0:0:0:0:
356,276,217014,5,10,0:3:0:0:
376,203,217214,1,0,0:0:0:0:
244,116,217414,1,10,0:0:0:0:
268,189,217614,1,0,0:0:0:0:
268,189,218214,5,10,0:0:0:0:
397,127,218414,1,0,0:0:0:0:
155,50,218614,5,10,0:3:0:0:
81,27,218814,1,0,0:0:0:0:
116,182,219014,5,10,0:3:0:0:
187,150,219214,1,0,0:0:0:0:
201,311,219414,6,0,P|221:283|275:268,1,82.5000025177003,10|0,0:3|0:0,0:0:0:0:
346,288,219814,5,10,0:3:0:0:
275,350,220014,1,0,0:0:0:0:
254,111,220214,5,10,0:3:0:0:
