osu file format v14

[General]
AudioFilename: audio.mp3
AudioLeadIn: 0
PreviewTime: 154411
Countdown: 1
SampleSet: Soft
StackLeniency: 0.7
Mode: 0
LetterboxInBreaks: 0
WidescreenStoryboard: 1

[Editor]
Bookmarks: 1154,34068,56011,77954,88925,99896,121839,154068,176696
DistanceSpacing: 1.1
BeatDivisor: 4
GridSize: 4
TimelineZoom: 2.899999

[Metadata]
Title:Call My Name feat. Yukacco
TitleUnicode:Call My Name feat. Yukacco
Artist:Mameyudoufu
ArtistUnicode:Mameyudoufu
Creator:Loli Knight
Version:Divine (new)
Source:
Tags:
BeatmapID:2012965
BeatmapSetID:785343

[Difficulty]
HPDrainRate:4
CircleSize:4
OverallDifficulty:8.7
ApproachRate:9.2
SliderMultiplier:1.4
SliderTickRate:1

[Events]
//Background and Video events
0,0,"2.png",0,0
//Break Periods
//Storyboard Layer 0 (Background)
//Storyboard Layer 1 (Fail)
//Storyboard Layer 2 (Pass)
//Storyboard Layer 3 (Foreground)
//Storyboard Sound Samples

[TimingPoints]
1154,342.857142857143,4,2,0,42,1,0
1839,-100,4,2,0,42,0,0
34068,-200,4,2,0,42,0,0
45039,-100,4,2,0,42,0,0
55496,-100,4,2,0,42,0,0
56011,-66.6666666666667,4,2,0,42,0,0
57039,-153.846153846153,4,2,0,42,0,0
58754,-66.6666666666667,4,2,0,42,0,0
60296,-153.846153846154,4,2,0,42,0,0
61496,-66.6666666666667,4,2,0,42,0,0
63554,-285.714285714284,4,2,0,42,0,0
66639,-100,4,2,0,42,0,0
66982,-100,4,2,0,42,0,0
67496,-100,4,2,0,42,0,0
77611,-333.333333333333,4,2,0,42,0,0
77954,-58.8235294117647,4,2,0,42,0,1
78639,-47.6190476190476,4,2,0,42,0,1
78811,-100,4,2,0,42,0,1
79154,-142.857142857143,4,2,0,42,0,1
79496,-58.8235294117647,4,2,0,42,0,1
80182,-151.515151515152,4,2,0,42,0,1
81039,-45.4545454545455,4,2,0,42,0,1
81554,-125,4,2,0,42,0,1
81896,-41.6666666666667,4,2,0,42,0,1
82754,-125,4,2,0,42,0,1
83439,-50,4,2,0,42,0,1
83782,-142.857142857143,4,2,0,42,0,1
83954,-50,4,2,0,42,0,1
84125,-38.4615384615385,4,2,0,42,0,1
84639,-100,4,2,0,42,0,1
85325,-45.4545454545455,4,2,0,42,0,1
85496,-200,4,2,0,42,0,1
86182,-47.6190476190476,4,2,0,42,0,1
86696,-47.6190476190476,4,2,0,42,0,1
87039,-142.857142857143,4,2,0,42,0,1
87211,-66.6666666666667,4,2,0,42,0,1
88925,-37.037037037037,4,2,0,42,0,1
97154,-250,4,2,0,42,0,0
99896,-83.3333333333333,4,2,0,42,0,0
119096,-555.555555555556,4,2,0,42,0,0
121839,-66.6666666666667,4,2,0,42,0,0
122868,-100,4,2,0,42,0,0
127325,-100,4,2,0,42,0,0
127839,-100,4,2,0,42,0,0
128354,-100,4,2,0,42,0,0
128868,-100,4,2,0,42,0,0
132811,-58.8235294117647,4,2,0,42,0,0
143782,-76.9230769230769,4,2,0,42,0,0
154411,-100,4,2,0,42,0,0
154754,-66.6666666666667,4,2,0,42,0,1
176696,-83.3333333333333,4,2,0,42,0,0
187668,-100,4,2,0,42,0,0
198639,-250,4,2,0,42,0,0

[Colours]
Combo1 : 194,67,205
Combo2 : 130,15,118
Combo3 : 136,174,255
Combo4 : 128,0,255

[HitObjects]
105,60,1154,6,0,P|113:119|111:158,1,70
144,310,1496,1,0,0:0:0:0:
174,292,1581,1,0,0:0:0:0:
208,285,1667,1,0,0:0:0:0:
243,288,1753,1,0,0:0:0:0:
275,301,1839,2,0,P|300:259|306:223,1,70
356,104,2182,2,0,P|366:137|385:166,1,70
194,33,2525,5,0,0:0:0:0:
169,175,2696,1,0,0:0:0:0:
272,7,2868,1,0,0:0:0:0:
298,179,3039,1,0,0:0:0:0:
99,50,3211,6,0,L|95:106,1,35
62,233,3382,1,0,0:0:0:0:
62,233,3468,1,0,0:0:0:0:
62,233,3554,2,0,P|112:215|154:216,1,70
391,283,3896,6,0,P|356:277|324:263,1,70
312,32,4239,1,0,0:0:0:0:
340,51,4324,1,0,0:0:0:0:
362,79,4410,1,0,0:0:0:0:
373,112,4496,1,0,0:0:0:0:
373,146,4582,2,0,L|397:103,1,35
237,229,4754,2,0,L|213:185,1,35
89,46,4925,2,0,P|95:96|91:141,1,70
74,301,5268,5,0,0:0:0:0:
186,162,5439,1,0,0:0:0:0:
169,348,5611,1,0,0:0:0:0:
49,199,5782,1,0,0:0:0:0:
236,277,5954,6,0,L|279:282,1,35
435,189,6125,1,0,0:0:0:0:
435,189,6211,1,0,0:0:0:0:
435,189,6296,2,0,P|390:177|356:174,1,70
100,132,6639,6,0,P|134:127|168:117,1,70
303,33,6982,1,0,0:0:0:0:
287,64,7067,1,0,0:0:0:0:
279,98,7153,1,0,0:0:0:0:
278,133,7239,1,0,0:0:0:0:
285,167,7325,2,0,P|266:106|242:85,1,70
426,34,7668,2,0,P|408:64|404:98,1,70
384,279,8011,5,0,0:0:0:0:
220,252,8182,1,0,0:0:0:0:
401,249,8354,1,0,0:0:0:0:
227,336,8525,1,0,0:0:0:0:
348,170,8696,2,0,L|337:220,1,35
167,184,8868,2,0,L|159:149,1,35
424,63,9039,2,0,L|413:113,1,35
243,77,9211,2,0,L|235:42,1,35
259,250,9382,6,0,P|220:261|180:262,1,70
53,103,9725,1,0,0:0:0:0:
64,136,9810,1,0,0:0:0:0:
70,170,9896,1,0,0:0:0:0:
72,205,9982,1,0,0:0:0:0:
67,240,10068,2,0,P|59:287|60:320,1,70
175,163,10411,2,0,P|173:128|166:93,1,70
296,78,10754,5,0,0:0:0:0:
277,122,10839,1,0,0:0:0:0:
276,171,10925,1,0,0:0:0:0:
292,217,11011,1,0,0:0:0:0:
303,249,11096,1,0,0:0:0:0:
302,284,11182,1,0,0:0:0:0:
286,315,11268,1,0,0:0:0:0:
255,331,11354,1,0,0:0:0:0:
266,280,11439,1,0,0:0:0:0:
309,250,11525,1,0,0:0:0:0:
361,245,11611,1,0,0:0:0:0:
406,269,11696,1,0,0:0:0:0:
358,217,11782,5,0,0:0:0:0:
343,148,11868,1,0,0:0:0:0:
364,81,11954,1,0,0:0:0:0:
421,42,12039,1,0,0:0:0:0:
491,42,12125,6,0,P|479:93|461:123,1,70
154,122,12468,1,0,0:0:0:0:
183,103,12553,1,0,0:0:0:0:
217,93,12639,1,0,0:0:0:0:
251,94,12725,1,0,0:0:0:0:
285,104,12811,2,0,P|292:154|285:191,1,70
170,292,13154,2,0,P|167:257|174:222,1,70
329,315,13496,5,0,0:0:0:0:
432,113,13668,1,0,0:0:0:0:
423,345,13839,1,0,0:0:0:0:
393,123,14011,1,0,0:0:0:0:
219,277,14182,5,0,0:0:0:0:
463,222,14354,1,0,0:0:0:0:
226,138,14525,1,0,0:0:0:0:
450,245,14696,1,0,0:0:0:0:
190,266,14868,6,0,P|130:258|107:245,1,70
266,45,15211,1,0,0:0:0:0:
270,79,15296,1,0,0:0:0:0:
272,114,15382,1,0,0:0:0:0:
272,149,15468,1,0,0:0:0:0:
269,184,15554,2,0,P|301:157|331:146,1,70
418,280,15896,2,0,P|384:269|356:248,1,70
398,74,16239,5,0,0:0:0:0:
171,113,16411,1,0,0:0:0:0:
416,101,16582,1,0,0:0:0:0:
155,82,16754,1,0,0:0:0:0:
316,262,16925,5,0,0:0:0:0:
224,34,17096,1,0,0:0:0:0:
220,274,17268,1,0,0:0:0:0:
323,65,17439,1,0,0:0:0:0:
152,179,17611,6,0,P|100:191|61:192,1,70
349,42,17954,1,0,0:0:0:0:
383,42,18039,1,0,0:0:0:0:
414,58,18125,1,0,0:0:0:0:
434,86,18211,1,0,0:0:0:0:
439,121,18296,2,0,L|442:165,2,35
302,273,18639,2,0,P|317:224|322:177,1,70
168,63,18982,5,0,0:0:0:0:
200,220,19154,1,0,0:0:0:0:
256,32,19325,1,0,0:0:0:0:
85,159,19496,1,0,0:0:0:0:
302,213,19668,5,0,0:0:0:0:
224,16,19839,1,0,0:0:0:0:
216,268,20011,1,0,0:0:0:0:
341,68,20182,1,0,0:0:0:0:
391,311,20354,6,0,P|409:261|414:222,1,70
150,135,20696,2,0,L|197:145,1,35
268,80,20868,2,0,L|302:72,1,35
410,132,21039,5,0,0:0:0:0:
300,228,21211,1,0,0:0:0:0:
300,228,21296,1,0,0:0:0:0:
300,228,21382,2,0,P|251:251|216:258,1,70
68,122,21725,5,0,0:0:0:0:
93,272,21896,1,0,0:0:0:0:
100,109,22068,1,0,0:0:0:0:
73,287,22239,1,0,0:0:0:0:
192,68,22411,5,0,0:0:0:0:
174,247,22582,1,0,0:0:0:0:
165,46,22754,1,0,0:0:0:0:
198,268,22925,1,0,0:0:0:0:
294,68,23096,6,0,P|345:54|375:53,1,70
375,229,23439,1,0,0:0:0:0:
342,241,23524,1,0,0:0:0:0:
307,239,23610,1,0,0:0:0:0:
276,224,23696,1,0,0:0:0:0:
254,197,23782,2,0,P|201:168|172:166,1,70
162,165,24039,1,0,0:0:0:0:
134,174,24125,2,0,P|96:185|55:186,1,70
257,59,24468,5,0,0:0:0:0:
175,253,24639,1,0,0:0:0:0:
174,36,24811,1,0,0:0:0:0:
264,276,24982,1,0,0:0:0:0:
298,38,25154,5,0,0:0:0:0:
97,193,25325,1,0,0:0:0:0:
343,215,25496,1,0,0:0:0:0:
126,98,25668,1,0,0:0:0:0:
182,345,25839,6,0,P|190:286|192:253,1,70
210,83,26182,1,0,0:0:0:0:
238,103,26267,1,0,0:0:0:0:
269,118,26353,1,0,0:0:0:0:
304,125,26439,1,0,0:0:0:0:
339,125,26525,2,0,P|387:107|421:106,1,70
434,115,26782,1,0,0:0:0:0:
434,115,26868,1,0,0:0:0:0:
327,263,27039,1,0,0:0:0:0:
295,34,27211,5,0,0:0:0:0:
410,232,27382,1,0,0:0:0:0:
226,113,27554,1,0,0:0:0:0:
197,307,27725,1,0,0:0:0:0:
371,150,27896,5,0,0:0:0:0:
158,208,28068,1,0,0:0:0:0:
369,303,28239,1,0,0:0:0:0:
145,177,28411,1,0,0:0:0:0:
275,349,28582,6,0,P|289:297|293:259,1,70
176,79,28925,1,0,0:0:0:0:
208,91,29010,1,0,0:0:0:0:
232,116,29096,1,0,0:0:0:0:
243,149,29182,1,0,0:0:0:0:
239,184,29268,2,0,P|285:158|323:154,1,70
329,154,29525,1,0,0:0:0:0:
329,154,29611,2,0,L|371:153,1,35
456,56,29782,2,0,L|421:55,1,35
425,292,29954,5,0,0:0:0:0:
457,142,30125,1,0,0:0:0:0:
445,320,30296,1,0,0:0:0:0:
419,122,30468,1,0,0:0:0:0:
327,342,30639,5,0,0:0:0:0:
364,186,30811,1,0,0:0:0:0:
292,350,30982,1,0,0:0:0:0:
268,161,31154,1,0,0:0:0:0:
164,305,31325,6,0,L|112:313,3,35
53,223,31668,2,0,L|87:228,3,35
181,144,32011,2,0,L|129:152,3,35
62,75,32354,2,0,L|96:80,3,35
298,22,32696,5,0,0:0:0:0:
322,46,32781,1,0,0:0:0:0:
338,77,32867,1,0,0:0:0:0:
343,111,32953,1,0,0:0:0:0:
337,146,33038,1,0,0:0:0:0:
326,179,33125,1,0,0:0:0:0:
323,214,33211,1,0,0:0:0:0:
326,248,33297,1,0,0:0:0:0:
336,282,33382,2,0,L|353:260,6,17.5
257,334,33725,2,0,L|246:319,6,17.5
84,124,34068,6,0,B|216:91|160:216|308:196,1,245
362,57,35439,6,0,B|402:118|389:213|389:213|408:165|451:148,1,245
454,294,36811,6,0,B|394:319|394:319|205:282,1,245
133,166,38182,6,0,P|151:199|58:173,1,245
200,91,39554,6,0,B|293:90|293:90|343:115|343:115|449:117,1,245
374,338,40925,6,0,P|386:292|387:223,1,105
180,257,41611,6,0,L|294:262,1,105
150,178,42296,6,0,P|111:203|94:263,1,105
177,348,42982,6,0,P|123:335|64:339,1,105
243,157,43668,6,0,L|233:233,1,70
387,268,44354,2,0,L|377:198,1,70
139,47,45039,6,0,P|190:53|231:53,1,70
324,23,45382,1,0,0:0:0:0:
306,126,45554,1,0,0:0:0:0:
423,25,45725,2,0,P|411:63|407:167,1,140
294,96,46239,1,0,0:0:0:0:
215,175,46411,6,0,P|176:182|132:180,1,70
23,121,46754,1,0,0:0:0:0:
117,80,46925,1,0,0:0:0:0:
23,151,47096,2,0,B|3:252|50:199|37:304,1,140
123,227,47611,1,0,0:0:0:0:
195,295,47782,6,0,P|243:307|285:302,1,70
357,229,48125,1,0,0:0:0:0:
370,324,48296,1,0,0:0:0:0:
265,220,48468,2,0,P|263:166|271:137,1,70
372,97,48811,1,0,0:0:0:0:
260,56,48982,1,0,0:0:0:0:
404,71,49154,5,0,0:0:0:0:
225,81,49325,1,0,0:0:0:0:
395,176,49496,2,0,P|408:218|407:258,1,70
150,245,49839,2,0,B|237:227|205:278|289:266,1,140
161,151,50354,1,0,0:0:0:0:
268,177,50525,6,0,P|278:126|274:80,1,70
207,32,50868,1,0,0:0:0:0:
184,167,51039,1,0,0:0:0:0:
102,36,51211,6,0,P|102:80|95:131,1,70
44,197,51554,1,0,0:0:0:0:
170,196,51725,1,0,0:0:0:0:
122,352,51896,2,0,P|132:301|134:208,1,140
218,329,52411,1,0,0:0:0:0:
270,220,52582,2,0,P|321:205|354:208,1,70
421,340,52925,2,0,P|386:337|353:325,1,70
443,102,53268,6,0,P|437:151|443:253,1,140
339,89,53782,1,0,0:0:0:0:
255,197,53954,2,0,B|162:209|208:149|97:178,1,140
57,254,54468,1,0,0:0:0:0:
38,116,54639,1,0,0:0:0:0:
84,265,54811,1,0,0:0:0:0:
137,83,54982,2,0,P|172:65|220:64,1,70
338,197,55325,5,0,0:0:0:0:
317,194,55411,1,0,0:0:0:0:
294,191,55496,2,0,L|252:185,1,35
427,107,55668,5,0,0:0:0:0:
454,151,55754,1,0,0:0:0:0:
460,202,55839,1,0,0:0:0:0:
447,253,55925,1,0,0:0:0:0:
415,295,56011,6,0,B|349:287|349:287|289:312|289:312|209:299,1,210.000008010865
75,247,56525,2,0,L|95:37,1,210.000008010865
363,147,57039,2,0,P|314:195|346:73,1,363.999983337403
427,334,58754,6,0,B|470:188|470:188|404:226,1,210.000008010865
320,302,59268,2,0,P|259:313|140:227,1,210.000008010865
52,93,59782,2,0,P|62:227|50:315,1,210.000008010865
154,126,60296,6,0,B|274:77|252:177|380:137,1,227.499989585877
489,75,61496,6,0,B|445:48|445:48|489:202,1,210.000008010865
416,272,62011,2,0,P|353:307|386:219,1,210.000008010865
278,353,62525,2,0,P|239:247|298:154,1,210.000008010865
336,78,63039,2,0,B|261:73|261:73|208:102|208:102|128:96,1,210.000008010865
139,347,63554,6,0,P|192:311|81:327,1,367.49998878479
280,207,66296,1,0,0:0:0:0:
280,207,66382,1,0,0:0:0:0:
280,207,66468,1,0,0:0:0:0:
337,331,66639,2,0,L|340:282,1,35
387,147,66811,2,0,L|389:181,1,35
256,227,66982,6,0,P|220:178|212:146,1,70
306,43,67325,1,0,0:0:0:0:
278,64,67410,1,0,0:0:0:0:
246,77,67496,1,0,0:0:0:0:
211,78,67582,1,0,0:0:0:0:
178,68,67668,2,0,P|130:51|87:46,1,70
78,47,67925,1,0,0:0:0:0:
78,47,68011,2,0,L|83:86,1,35
37,219,68182,2,0,L|41:184,1,35
241,267,68354,6,0,P|209:282|174:285,1,70
323,144,68696,2,0,P|357:146|389:161,1,70
172,130,69039,5,0,0:0:0:0:
334,242,69211,1,0,0:0:0:0:
334,242,69296,1,0,0:0:0:0:
334,242,69382,2,0,L|338:293,1,35
404,74,69554,1,0,0:0:0:0:
201,216,69725,6,0,P|206:162|207:127,1,70
104,42,69982,1,0,0:0:0:0:
114,58,70068,2,0,L|112:100,1,35
43,205,70239,2,0,L|41:163,1,35
210,53,70411,6,0,P|265:45|283:47,1,70
316,61,70668,1,0,0:0:0:0:
316,61,70754,2,0,L|330:103,1,35
377,210,70925,2,0,L|388:176,1,35
276,276,71096,5,0,0:0:0:0:
175,149,71268,1,0,0:0:0:0:
311,277,71439,1,0,0:0:0:0:
150,237,71611,1,0,0:0:0:0:
297,120,71782,5,0,0:0:0:0:
190,323,71954,1,0,0:0:0:0:
164,126,72125,1,0,0:0:0:0:
213,343,72296,1,0,0:0:0:0:
64,118,72468,6,0,P|66:172|63:215,1,70
80,221,72725,1,0,0:0:0:0:
80,221,72811,2,0,L|119:227,1,35
260,185,72982,2,0,L|225:190,1,35
383,274,73154,2,0,L|389:233,3,35
435,165,73496,2,0,L|429:130,3,35
321,44,73839,5,0,0:0:0:0:
288,31,73924,1,0,0:0:0:0:
253,33,74010,1,0,0:0:0:0:
222,48,74096,1,0,0:0:0:0:
199,74,74182,1,0,0:0:0:0:
181,103,74267,1,0,0:0:0:0:
153,124,74353,1,0,0:0:0:0:
120,134,74439,1,0,0:0:0:0:
85,131,74525,6,0,L|74:174,1,35
188,256,74696,2,0,L|178:222,1,35
281,112,74868,2,0,L|269:154,1,35
385,238,75039,2,0,L|375:204,1,35
277,310,75211,5,0,0:0:0:0:
242,339,75296,1,0,0:0:0:0:
198,346,75382,1,0,0:0:0:0:
156,328,75468,1,0,0:0:0:0:
131,290,75553,1,0,0:0:0:0:
131,245,75639,1,0,0:0:0:0:
154,206,75725,1,0,0:0:0:0:
189,188,75811,1,0,0:0:0:0:
243,172,75896,5,0,0:0:0:0:
268,123,75982,1,0,0:0:0:0:
251,70,76068,1,0,0:0:0:0:
188,44,76153,1,0,0:0:0:0:
125,71,76239,1,0,0:0:0:0:
107,141,76325,1,0,0:0:0:0:
161,197,76411,1,0,0:0:0:0:
237,212,76496,1,0,0:0:0:0:
320,189,76582,1,0,0:0:0:0:
320,189,77268,5,0,0:0:0:0:
251,188,77353,1,0,0:0:0:0:
182,187,77439,1,0,0:0:0:0:
114,186,77525,1,0,0:0:0:0:
46,185,77611,2,0,L|46:221,1,31.4999990386963
45,249,77954,6,0,P|88:239|117:349,1,178.500003404617
100,326,78296,2,0,P|144:312|172:312,1,59.5000011348725
301,261,78468,2,0,P|271:257|243:246,1,59.5000011348725
158,80,78639,2,0,P|167:129|165:173,1,73.4999977569581
217,303,78811,2,0,L|216:248,2,35
158,80,79154,6,0,P|165:115|167:152,1,73.4999977569581
244,84,79496,2,0,P|285:69|321:67,1,59.5000011348725
374,180,79668,2,0,P|344:174|317:162,1,59.5000011348725
471,74,79839,2,0,L|465:152,1,59.5000011348725
481,308,80011,2,0,L|477:249,1,59.5000011348725
442,52,80182,2,0,L|434:139,1,69.2999997885132
410,153,80525,2,0,L|403:117,1,23.0999999295044
253,44,80696,5,0,0:0:0:0:
298,77,80781,1,0,0:0:0:0:
306,133,80867,1,0,0:0:0:0:
273,179,80953,1,0,0:0:0:0:
218,189,81039,2,0,P|159:172|132:173,1,77.0000023498536
275,306,81211,2,0,P|313:302|349:288,1,77.0000023498536
488,174,81382,2,0,P|429:157|402:158,1,77.0000023498536
450,339,81554,2,0,L|448:247,1,84
445,229,81896,6,0,B|314:166|339:304|183:251,1,251.999992309571
202,174,82239,2,0,P|302:142|217:73,1,251.999992309571
120,116,82582,2,0,P|125:179|120:220,1,83.9999974365235
62,280,82754,5,0,0:0:0:0:
154,347,83011,1,0,0:0:0:0:
250,285,83268,1,0,0:0:0:0:
356,353,83439,6,0,P|353:303|356:261,1,70
404,132,83611,1,0,0:0:0:0:
413,150,83696,1,0,0:0:0:0:
420,168,83782,2,0,P|426:202|426:206,1,24.4999992523194
285,168,83954,2,0,P|280:115|286:90,1,70
207,258,84125,6,0,P|161:263|107:258,1,90.9999958343508
186,31,84296,2,0,B|162:106|164:169|164:169|134:122|112:113,1,181.999991668702
391,249,84639,6,0,P|350:206|298:197,1,105
249,258,84982,2,0,P|257:289|258:302,1,35
204,126,85154,2,0,P|199:142|196:160,1,35
303,12,85325,2,0,P|310:60|312:97,1,77.0000023498536
401,258,85496,2,0,L|416:141,1,105
301,227,86096,1,0,0:0:0:0:
291,199,86182,2,0,B|213:187|213:187|169:203|169:203|64:193,1,220.499993270874
28,107,86525,1,0,0:0:0:0:
31,131,86611,1,0,0:0:0:0:
91,80,86696,6,0,P|133:54|166:50,1,73.4999977569581
328,113,86868,2,0,P|292:104|344:43,1,146.999995513916
495,128,87125,1,0,0:0:0:0:
472,142,87211,6,0,P|430:122|474:261,1,367.500014019013
476,240,87896,2,0,L|438:217,6,26.2500010013581
489,316,88239,1,0,0:0:0:0:
421,347,88324,1,0,0:0:0:0:
350,320,88410,1,0,0:0:0:0:
311,257,88496,1,0,0:0:0:0:
320,180,88582,1,0,0:0:0:0:
322,121,88667,1,0,0:0:0:0:
283,85,88753,1,0,0:0:0:0:
232,93,88839,1,0,0:0:0:0:
202,130,88925,6,0,B|216:258|216:258|178:324,1,189.000000720978
159,317,89268,6,0,B|189:264|189:264|175:136,1,189.000000720978
48,65,89525,1,0,0:0:0:0:
42,80,89611,2,0,P|148:120|106:5,2,283.500001081467
102,27,90296,6,0,B|187:29|187:29|209:44|209:44|305:46,1,189.000000720978
286,45,90639,2,0,P|265:107|263:159,1,94.5000003604889
451,139,90811,2,0,P|444:92|426:48,1,94.5000003604889
191,235,90982,6,0,B|360:217|270:344|474:318,2,283.500001081467
78,342,91582,1,0,0:0:0:0:
86,331,91668,6,0,B|81:259|88:187|88:187|51:213,1,189.000000720978
58,198,92011,6,0,B|95:172|95:172|88:244|93:316,1,189.000000720978
194,152,92268,1,0,0:0:0:0:
206,134,92354,2,0,P|190:78|8:113,2,283.500001081467
237,317,93039,6,0,B|343:329|305:252|419:273,1,189.000000720978
415,259,93382,6,0,B|307:239|345:316|239:304,1,189.000000720978
323,104,93639,1,0,0:0:0:0:
318,116,93725,2,0,B|276:136|266:215|266:215|273:135|207:45,2,283.500001081467
373,50,94411,6,0,P|459:59|424:163,1,189.000000720978
484,134,94754,6,0,P|469:48|371:30,1,189.000000720978
291,339,95011,1,0,0:0:0:0:
302,330,95096,2,0,B|323:132|241:263|257:43,2,283.500001081467
170,152,95782,6,0,B|37:126|37:126|81:177,1,189.000000720978
71,166,96125,2,0,P|83:115|82:66,1,94.5000003604889
286,44,96296,2,0,P|286:91|296:137,1,94.5000003604889
390,234,96468,2,0,P|294:164|271:282,2,283.500001081467
475,330,97154,6,0,L|473:159,1,168
351,48,98525,6,0,B|246:22|288:98|182:78,1,168
193,79,99896,6,0,P|203:155|205:254,1,167.999994873047
290,152,100411,1,0,0:0:0:0:
368,227,100582,2,0,P|418:238|452:233,1,83.9999974365235
449,233,101096,1,0,0:0:0:0:
386,64,101268,2,0,P|398:121|396:161,1,83.9999974365235
280,49,101611,2,0,P|269:89|268:131,1,83.9999974365235
278,284,101954,5,0,0:0:0:0:
120,196,102125,1,0,0:0:0:0:
288,262,102296,1,0,0:0:0:0:
108,223,102468,1,0,0:0:0:0:
241,359,102639,6,0,B|337:383|305:314|415:332,1,167.999994873047
303,240,103154,1,0,0:0:0:0:
439,368,103325,2,0,P|431:314|431:265,1,83.9999974365235
456,196,103668,1,0,0:0:0:0:
384,118,103839,2,0,P|316:97|239:151,2,167.999994873047
478,214,104696,6,0,P|474:152|479:109,1,83.9999974365235
328,188,105039,2,0,P|329:229|325:271,1,83.9999974365235
130,302,105382,6,0,B|113:195|163:242|146:123,1,167.999994873047
81,69,105896,1,0,0:0:0:0:
175,38,106068,2,0,P|241:37|274:43,1,83.9999974365235
258,39,106582,1,0,0:0:0:0:
285,210,106754,2,0,P|295:157|294:115,1,83.9999974365235
419,274,107096,2,0,P|410:233|408:191,1,83.9999974365235
456,74,107439,5,0,0:0:0:0:
296,33,107611,1,0,0:0:0:0:
484,88,107782,1,0,0:0:0:0:
274,55,107954,1,0,0:0:0:0:
387,320,108125,6,0,P|380:241|383:145,1,167.999994873047
290,281,108639,1,0,0:0:0:0:
238,179,108811,2,0,L|236:137,1,41.9999987182618
177,265,108982,2,0,P|125:268|79:255,1,83.9999974365235
58,86,109325,6,0,B|162:69|115:128|229:114,1,167.999994873047
218,115,110011,1,0,0:0:0:0:
330,23,110182,6,0,L|324:74,1,41.9999987182618
329,227,110354,1,0,0:0:0:0:
415,31,110525,6,0,L|409:82,1,41.9999987182618
414,235,110697,1,0,0:0:0:0:
237,53,110868,6,0,P|170:55|149:164,1,167.999994873047
196,226,111382,1,0,0:0:0:0:
105,271,111554,2,0,P|49:279|10:273,1,83.9999974365235
22,275,112068,1,0,0:0:0:0:
145,192,112239,2,0,P|199:178|243:181,1,83.9999974365235
312,313,112582,2,0,P|270:311|230:299,1,83.9999974365235
416,147,112925,5,0,0:0:0:0:
412,301,113096,1,0,0:0:0:0:
324,91,113268,1,0,0:0:0:0:
482,225,113439,1,0,0:0:0:0:
465,36,113611,2,0,P|396:20|307:76,1,167.999994873047
269,176,114125,1,0,0:0:0:0:
207,93,114296,2,0,P|162:84|119:85,1,83.9999974365235
263,199,114639,1,0,0:0:0:0:
140,345,114811,6,0,B|124:245|176:292|152:166,1,167.999994873047
154,181,115496,1,0,0:0:0:0:
235,298,115668,2,0,P|291:309|328:307,1,83.9999974365235
436,174,116011,2,0,P|394:174|353:184,1,83.9999974365235
486,309,116354,6,0,P|476:233|475:125,1,167.999994873047
383,58,116868,1,0,0:0:0:0:
296,132,117039,2,0,P|247:141|211:140,1,83.9999974365235
116,76,117382,1,0,0:0:0:0:
230,37,117554,1,0,0:0:0:0:
78,214,117725,6,0,P|84:154|80:37,1,167.999994873047
179,162,118239,1,0,0:0:0:0:
279,102,118411,2,0,P|270:147|276:212,1,83.9999974365235
391,322,118754,2,0,P|391:280|382:239,1,83.9999974365235
105,290,119096,6,0,B|209:271|172:342|276:325,1,176.400004306641
388,61,121839,6,0,B|411:211|411:211|368:164,1,210.000008010865
250,67,122354,1,0,0:0:0:0:
213,175,122525,1,0,0:0:0:0:
238,45,122696,1,0,0:0:0:0:
258,241,122868,1,0,0:0:0:0:
186,146,123039,2,0,P|146:135|97:140,1,70
362,151,123382,5,0,0:0:0:0:
399,264,123554,1,0,0:0:0:0:
418,128,123725,1,0,0:0:0:0:
344,258,123896,1,0,0:0:0:0:
313,108,124068,1,0,0:0:0:0:
417,204,124239,1,0,0:0:0:0:
437,54,124411,1,0,0:0:0:0:
324,183,124582,6,0,P|329:117|317:36,1,140
300,25,125011,1,0,0:0:0:0:
300,25,125096,1,0,0:0:0:0:
162,104,125268,5,0,0:0:0:0:
213,172,125439,1,0,0:0:0:0:
162,71,125611,1,0,0:0:0:0:
126,194,125782,2,0,P|107:234|79:265,1,70
149,43,126125,5,0,0:0:0:0:
277,89,126296,1,0,0:0:0:0:
77,121,126468,1,0,0:0:0:0:
314,168,126639,1,0,0:0:0:0:
226,19,126811,1,0,0:0:0:0:
221,225,126982,1,0,0:0:0:0:
348,33,127154,1,0,0:0:0:0:
454,238,127325,6,0,B|370:246|404:188|306:200,1,140
228,256,127839,1,0,0:0:0:0:
161,175,128011,2,0,P|113:169|73:176,1,70
247,233,128354,1,0,0:0:0:0:
138,340,128525,2,0,P|132:299|135:267,1,70
266,116,128868,5,0,0:0:0:0:
273,266,129039,1,0,0:0:0:0:
246,90,129211,1,0,0:0:0:0:
181,254,129382,1,0,0:0:0:0:
329,92,129554,1,0,0:0:0:0:
326,313,129725,1,0,0:0:0:0:
181,137,129896,1,0,0:0:0:0:
399,220,130068,6,0,P|416:175|419:77,1,140
408,63,130496,1,0,0:0:0:0:
408,63,130582,1,0,0:0:0:0:
277,167,130754,1,0,0:0:0:0:
296,29,130925,1,0,0:0:0:0:
295,189,131096,1,0,0:0:0:0:
204,79,131268,2,0,P|158:69|122:71,1,70
75,228,131611,5,0,0:0:0:0:
212,178,131782,1,0,0:0:0:0:
158,324,131954,1,0,0:0:0:0:
56,203,132125,1,0,0:0:0:0:
240,259,132296,1,0,0:0:0:0:
63,330,132468,1,0,0:0:0:0:
172,126,132639,5,0,0:0:0:0:
172,126,132725,1,0,0:0:0:0:
172,126,132811,2,0,P|226:99|251:213,1,178.500003404617
202,265,133154,1,0,0:0:0:0:
202,265,133239,1,0,0:0:0:0:
202,265,133325,2,0,B|313:249|261:324|376:327,1,178.500003404617
438,270,133668,5,0,0:0:0:0:
445,241,133754,1,0,0:0:0:0:
444,211,133839,1,0,0:0:0:0:
437,181,133925,1,0,0:0:0:0:
422,154,134011,2,0,P|406:87|410:33,1,119.000002269745
330,220,134354,5,0,0:0:0:0:
280,88,134525,1,0,0:0:0:0:
205,198,134696,2,0,P|120:208|72:203,1,119.000002269745
264,63,135039,1,0,0:0:0:0:
125,41,135211,1,0,0:0:0:0:
280,88,135382,1,0,0:0:0:0:
220,317,135554,6,0,P|195:259|283:284,1,178.500003404617
347,342,135896,1,0,0:0:0:0:
347,342,135982,1,0,0:0:0:0:
347,342,136068,2,0,B|369:287|369:287|365:125,1,178.500003404617
297,104,136411,1,0,0:0:0:0:
268,95,136496,1,0,0:0:0:0:
238,98,136582,1,0,0:0:0:0:
211,111,136668,1,0,0:0:0:0:
194,135,136754,2,0,P|245:97|161:46,1,178.500003404617
89,65,137096,5,0,0:0:0:0:
96,94,137182,1,0,0:0:0:0:
97,123,137268,1,0,0:0:0:0:
96,152,137354,1,0,0:0:0:0:
93,181,137439,2,0,P|147:232|212:240,1,119.000002269745
332,197,137782,1,0,0:0:0:0:
277,335,137954,1,0,0:0:0:0:
267,114,138125,5,0,0:0:0:0:
267,114,138211,1,0,0:0:0:0:
267,114,138296,2,0,B|303:74|303:74|303:198,1,178.500003404617
279,298,138639,1,0,0:0:0:0:
279,298,138725,1,0,0:0:0:0:
279,298,138811,2,0,P|352:298|392:209,1,178.500003404617
388,42,139154,5,0,0:0:0:0:
386,71,139239,1,0,0:0:0:0:
393,99,139325,1,0,0:0:0:0:
409,124,139411,1,0,0:0:0:0:
431,139,139496,2,0,P|377:87|329:87,1,119.000002269745
246,175,139839,5,0,0:0:0:0:
210,51,140011,1,0,0:0:0:0:
127,163,140182,2,0,P|113:235|120:291,1,119.000002269745
183,55,140525,1,0,0:0:0:0:
50,82,140696,1,0,0:0:0:0:
223,68,140868,1,0,0:0:0:0:
272,265,141039,6,0,B|273:196|273:196|254:160|254:160|254:91,1,178.500003404617
336,32,141382,1,0,0:0:0:0:
336,32,141468,1,0,0:0:0:0:
336,32,141554,2,0,P|402:47|420:167,1,178.500003404617
377,266,141896,1,0,0:0:0:0:
358,242,141982,1,0,0:0:0:0:
351,212,142068,1,0,0:0:0:0:
352,182,142154,1,0,0:0:0:0:
365,155,142239,2,0,P|336:237|253:218,1,178.500003404617
192,103,142582,5,0,0:0:0:0:
174,78,142668,1,0,0:0:0:0:
146,67,142754,1,0,0:0:0:0:
117,74,142839,1,0,0:0:0:0:
98,96,142925,2,0,L|98:160,1,59.5000011348725
77,297,143096,5,0,0:0:0:0:
117,315,143181,1,0,0:0:0:0:
161,320,143267,1,0,0:0:0:0:
204,309,143353,1,0,0:0:0:0:
241,284,143439,2,0,P|277:266|316:259,1,59.5000011348725
428,366,143611,2,0,P|399:357|373:343,1,59.5000011348725
343,72,143782,6,0,P|353:137|352:188,1,90.9999958343508
350,192,144039,1,0,0:0:0:0:
350,192,144125,2,0,L|303:187,1,45.4999979171754
164,106,144296,2,0,L|209:101,1,45.4999979171754
132,250,144468,6,0,P|86:238|45:207,1,90.9999958343508
44,192,144725,1,0,0:0:0:0:
44,192,144811,1,0,0:0:0:0:
121,350,144982,1,0,0:0:0:0:
224,165,145154,6,0,P|264:153|324:159,1,90.9999958343508
427,285,145496,2,0,P|381:288|338:275,1,90.9999958343508
304,73,145839,1,0,0:0:0:0:
258,262,146011,1,0,0:0:0:0:
258,262,146096,1,0,0:0:0:0:
258,262,146182,2,0,L|240:319,1,45.4999979171754
346,149,146354,2,0,L|332:105,1,45.4999979171754
53,133,146525,6,0,P|102:157|153:169,1,90.9999958343508
164,163,146782,1,0,0:0:0:0:
164,163,146868,2,0,L|168:110,1,45.4999979171754
74,267,147039,2,0,L|77:312,1,45.4999979171754
390,296,147211,2,0,P|342:254|305:240,1,90.9999958343508
288,246,147468,1,0,0:0:0:0:
288,246,147554,1,0,0:0:0:0:
441,172,147725,1,0,0:0:0:0:
284,51,147896,6,0,P|297:106|299:151,1,90.9999958343508
119,243,148239,2,0,P|122:197|134:153,1,90.9999958343508
352,235,148582,2,0,P|365:290|367:335,1,90.9999958343508
347,349,148839,1,0,0:0:0:0:
347,349,148925,2,0,L|289:345,1,45.4999979171754
220,213,149096,2,0,L|265:209,1,45.4999979171754
436,113,149268,6,0,P|376:109|332:93,1,90.9999958343508
323,81,149525,1,0,0:0:0:0:
323,81,149611,1,0,0:0:0:0:
190,104,149782,1,0,0:0:0:0:
190,104,149868,1,0,0:0:0:0:
190,104,149954,2,0,L|133:114,1,45.4999979171754
304,189,150125,2,0,L|348:196,1,45.4999979171754
150,217,150296,2,0,P|140:275|147:313,1,90.9999958343508
241,35,150639,6,0,P|183:25|145:32,1,90.9999958343508
127,49,150896,1,0,0:0:0:0:
127,49,150982,2,0,L|78:53,1,45.4999979171754
208,140,151154,2,0,L|253:143,1,45.4999979171754
77,260,151325,6,0,L|81:208,3,45.4999979171754
177,141,151668,2,0,L|180:186,3,45.4999979171754
77,260,152011,5,0,0:0:0:0:
50,223,152096,1,0,0:0:0:0:
46,178,152182,1,0,0:0:0:0:
67,138,152268,1,0,0:0:0:0:
107,115,152353,1,0,0:0:0:0:
152,118,152439,1,0,0:0:0:0:
189,144,152525,1,0,0:0:0:0:
204,180,152611,1,0,0:0:0:0:
217,235,152696,5,0,0:0:0:0:
264,264,152782,1,0,0:0:0:0:
318,250,152868,1,0,0:0:0:0:
348,189,152953,1,0,0:0:0:0:
326,125,153039,1,0,0:0:0:0:
257,102,153125,1,0,0:0:0:0:
197,152,153211,1,0,0:0:0:0:
177,226,153296,1,0,0:0:0:0:
194,311,153382,1,0,0:0:0:0:
194,317,154068,5,0,0:0:0:0:
197,250,154153,1,0,0:0:0:0:
199,184,154239,1,0,0:0:0:0:
201,118,154325,1,0,0:0:0:0:
204,52,154410,1,0,0:0:0:0:
108,105,154582,5,0,0:0:0:0:
108,105,154668,1,0,0:0:0:0:
108,105,154754,2,0,L|113:160,1,52.5000020027161
199,184,154925,2,0,L|194:236,1,52.5000020027161
293,73,155096,1,0,0:0:0:0:
293,73,155182,1,0,0:0:0:0:
293,73,155268,2,0,P|358:70|422:101,1,105.000004005432
436,310,155611,5,0,0:0:0:0:
397,304,155696,1,0,0:0:0:0:
364,283,155782,1,0,0:0:0:0:
343,250,155868,1,0,0:0:0:0:
338,211,155954,2,0,P|389:240|374:304,1,105.000004005432
170,180,156211,1,0,0:0:0:0:
179,192,156296,6,0,L|193:260,1,52.5000020027161
67,306,156468,2,0,L|77:254,1,52.5000020027161
230,113,156639,6,0,P|153:148|178:61,1,210.000008010865
236,11,157068,1,0,0:0:0:0:
263,25,157154,2,0,P|325:23|369:48,1,105.000004005432
340,313,157411,1,0,0:0:0:0:
321,299,157496,6,0,L|316:233,1,52.5000020027161
394,184,157668,2,0,L|399:118,1,52.5000020027161
276,53,157839,1,0,0:0:0:0:
276,53,157925,1,0,0:0:0:0:
276,53,158011,2,0,P|281:117|278:163,1,105.000004005432
79,253,158268,1,0,0:0:0:0:
63,246,158354,5,0,0:0:0:0:
89,217,158439,1,0,0:0:0:0:
127,210,158525,1,0,0:0:0:0:
161,227,158611,1,0,0:0:0:0:
179,262,158696,2,0,P|154:203|166:151,1,105.000004005432
178,146,158954,1,0,0:0:0:0:
249,28,159039,5,0,0:0:0:0:
264,78,159125,1,0,0:0:0:0:
254,129,159211,1,0,0:0:0:0:
212,160,159296,1,0,0:0:0:0:
156,165,159382,2,0,P|87:158|35:169,1,105.000004005432
105,325,159639,1,0,0:0:0:0:
118,309,159725,2,0,L|125:254,1,52.5000020027161
238,182,159896,2,0,L|244:234,1,52.5000020027161
354,327,160068,5,0,0:0:0:0:
354,327,160154,1,0,0:0:0:0:
354,327,160239,2,0,P|369:244|361:199,1,105.000004005432
283,82,160582,1,0,0:0:0:0:
283,82,160668,1,0,0:0:0:0:
283,82,160754,2,0,L|387:71,1,105.000004005432
213,211,161011,1,0,0:0:0:0:
198,228,161096,5,0,0:0:0:0:
209,176,161182,1,0,0:0:0:0:
202,123,161268,1,0,0:0:0:0:
170,80,161354,1,0,0:0:0:0:
121,60,161439,2,0,P|108:132|140:180,1,105.000004005432
230,232,161696,1,0,0:0:0:0:
249,218,161782,6,0,L|316:216,1,52.5000020027161
422,322,161954,2,0,L|369:320,1,52.5000020027161
433,72,162125,6,0,B|407:142|408:217|408:217|401:172|369:136,1,210.000008010865
306,95,162639,2,0,P|229:83|195:106,1,105.000004005432
182,113,162896,1,0,0:0:0:0:
166,114,162982,5,0,0:0:0:0:
196,244,163154,1,0,0:0:0:0:
84,59,163325,1,0,0:0:0:0:
62,212,163496,1,0,0:0:0:0:
232,51,163668,1,0,0:0:0:0:
232,51,163754,1,0,0:0:0:0:
232,51,163839,2,0,L|293:43,1,52.5000020027161
368,181,164011,2,0,L|315:174,1,52.5000020027161
469,40,164182,6,0,P|465:143|469:260,1,210.000008010865
367,101,164611,1,0,0:0:0:0:
354,90,164696,2,0,P|298:82|246:95,1,105.000004005432
79,203,164954,1,0,0:0:0:0:
84,227,165039,6,0,L|142:242,1,52.5000020027161
307,173,165211,2,0,L|249:188,1,52.5000020027161
72,247,165382,2,0,L|130:262,1,52.5000020027161
295,193,165554,2,0,L|237:208,1,52.5000020027161
379,339,165725,6,0,L|382:273,1,52.5000020027161
463,224,165896,2,0,L|460:158,1,52.5000020027161
364,50,166068,1,0,0:0:0:0:
364,50,166154,1,0,0:0:0:0:
364,50,166239,2,0,P|300:70|307:121,1,105.000004005432
356,176,166496,1,0,0:0:0:0:
334,165,166582,5,0,0:0:0:0:
295,200,166668,1,0,0:0:0:0:
242,194,166754,1,0,0:0:0:0:
209,153,166839,1,0,0:0:0:0:
212,100,166925,2,0,P|184:27|146:6,1,105.000004005432
54,202,167182,1,0,0:0:0:0:
67,186,167268,6,0,L|71:130,1,52.5000020027161
166,251,167439,2,0,L|169:303,1,52.5000020027161
254,169,167611,6,0,P|317:144|365:150,1,105.000004005432
425,240,167868,1,0,0:0:0:0:
417,262,167954,2,0,L|345:262,1,52.5000020027161
438,69,168125,1,0,0:0:0:0:
474,175,168296,1,0,0:0:0:0:
346,45,168468,6,0,P|273:29|237:64,1,105.000004005432
190,147,168811,1,0,0:0:0:0:
190,147,168896,1,0,0:0:0:0:
190,147,168982,2,0,L|186:263,1,105.000004005432
115,175,169239,1,0,0:0:0:0:
97,184,169325,5,0,0:0:0:0:
71,137,169411,1,0,0:0:0:0:
85,87,169496,1,0,0:0:0:0:
130,59,169582,1,0,0:0:0:0:
182,59,169668,2,0,B|255:54|221:88|299:85,1,105.000004005432
371,163,169925,1,0,0:0:0:0:
389,142,170011,5,0,0:0:0:0:
424,180,170096,1,0,0:0:0:0:
441,229,170182,1,0,0:0:0:0:
441,281,170268,1,0,0:0:0:0:
424,330,170354,2,0,P|332:348|200:305,1,210.000008010865
163,216,170782,1,0,0:0:0:0:
172,204,170868,2,0,L|173:146,1,52.5000020027161
54,46,171039,5,0,0:0:0:0:
54,46,171125,1,0,0:0:0:0:
54,46,171211,2,0,L|113:52,1,52.5000020027161
203,30,171382,2,0,L|255:24,1,52.5000020027161
372,66,171554,1,0,0:0:0:0:
372,66,171639,1,0,0:0:0:0:
372,66,171725,2,0,L|379:125,3,52.5000020027161
363,168,172068,5,0,0:0:0:0:
323,203,172154,1,0,0:0:0:0:
271,205,172239,1,0,0:0:0:0:
223,181,172325,1,0,0:0:0:0:
189,140,172411,1,0,0:0:0:0:
138,126,172496,1,0,0:0:0:0:
88,144,172582,1,0,0:0:0:0:
63,190,172668,1,0,0:0:0:0:
71,242,172754,1,0,0:0:0:0:
111,274,172839,1,0,0:0:0:0:
162,282,172925,2,0,L|227:284,1,52.5000020027161
363,334,173096,6,0,L|294:335,4,52.5000020027161
458,233,173525,1,0,0:0:0:0:
451,258,173611,2,0,L|467:330,1,52.5000020027161
340,179,173782,2,0,L|351:127,1,52.5000020027161
164,274,173954,5,0,0:0:0:0:
143,226,174039,1,0,0:0:0:0:
161,176,174125,1,0,0:0:0:0:
211,159,174211,1,0,0:0:0:0:
261,170,174296,1,0,0:0:0:0:
290,213,174382,1,0,0:0:0:0:
280,264,174468,1,0,0:0:0:0:
252,309,174554,1,0,0:0:0:0:
264,359,174639,5,0,0:0:0:0:
314,373,174725,1,0,0:0:0:0:
356,342,174811,1,0,0:0:0:0:
376,293,174896,1,0,0:0:0:0:
368,240,174982,1,0,0:0:0:0:
346,191,175068,1,0,0:0:0:0:
333,139,175154,1,0,0:0:0:0:
357,93,175239,1,0,0:0:0:0:
408,79,175325,6,0,L|475:78,1,52.5000020027161
254,30,175496,2,0,L|187:29,1,52.5000020027161
417,196,175668,6,0,L|498:194,1,52.5000020027161
229,136,175839,2,0,L|147:134,1,52.5000020027161
432,293,176011,6,0,L|513:291,1,52.5000020027161
198,238,176182,2,0,L|116:236,1,52.5000020027161
352,27,176354,5,0,0:0:0:0:
353,92,176439,1,0,0:0:0:0:
354,158,176525,1,0,0:0:0:0:
356,223,176611,1,0,0:0:0:0:
357,289,176696,6,0,P|288:289|256:306,1,83.9999974365235
144,343,177039,1,0,0:0:0:0:
154,302,177124,1,0,0:0:0:0:
157,260,177210,1,0,0:0:0:0:
151,219,177296,1,0,0:0:0:0:
136,179,177382,2,0,P|118:127|118:80,1,83.9999974365235
131,72,177639,1,0,0:0:0:0:
131,72,177725,2,0,L|176:69,1,41.9999987182618
317,163,177896,2,0,L|275:160,1,41.9999987182618
426,44,178068,5,0,0:0:0:0:
424,211,178239,1,0,0:0:0:0:
399,24,178411,1,0,0:0:0:0:
415,235,178582,1,0,0:0:0:0:
273,59,178754,2,0,P|216:46|173:46,1,83.9999974365235
161,48,179011,1,0,0:0:0:0:
161,48,179096,1,0,0:0:0:0:
220,211,179268,1,0,0:0:0:0:
54,63,179439,6,0,P|63:125|64:167,1,83.9999974365235
32,312,179782,1,0,0:0:0:0:
56,278,179867,1,0,0:0:0:0:
92,258,179953,1,0,0:0:0:0:
134,257,180039,1,0,0:0:0:0:
172,275,180125,2,0,P|221:291|259:295,1,83.9999974365235
288,296,180382,1,0,0:0:0:0:
288,296,180468,2,0,L|295:244,1,41.9999987182618
215,85,180639,2,0,L|220:126,1,41.9999987182618
430,148,180811,6,0,P|387:109|343:102,1,83.9999974365235
288,296,181154,2,0,P|343:278|371:243,1,83.9999974365235
220,126,181496,2,0,P|207:182|223:224,1,83.9999974365235
231,231,181754,1,0,0:0:0:0:
231,231,181839,1,0,0:0:0:0:
86,108,182011,1,0,0:0:0:0:
103,342,182182,6,0,P|120:280|122:239,1,83.9999974365235
12,100,182525,1,0,0:0:0:0:
45,125,182610,1,0,0:0:0:0:
85,137,182696,1,0,0:0:0:0:
126,135,182782,1,0,0:0:0:0:
165,119,182868,2,0,P|214:104|261:109,1,83.9999974365235
277,111,183125,1,0,0:0:0:0:
277,111,183211,2,0,L|270:156,1,41.9999987182618
372,275,183382,2,0,L|365:233,1,41.9999987182618
295,25,183554,5,0,0:0:0:0:
447,101,183725,1,0,0:0:0:0:
260,34,183896,1,0,0:0:0:0:
448,66,184068,1,0,0:0:0:0:
280,182,184239,2,0,P|232:192|176:188,1,83.9999974365235
169,175,184496,1,0,0:0:0:0:
169,175,184582,1,0,0:0:0:0:
189,322,184754,1,0,0:0:0:0:
61,100,184925,6,0,P|119:87|152:92,1,83.9999974365235
335,258,185268,1,0,0:0:0:0:
317,220,185353,1,0,0:0:0:0:
307,179,185439,1,0,0:0:0:0:
306,137,185525,1,0,0:0:0:0:
317,96,185611,2,0,P|363:73|406:72,1,83.9999974365235
425,76,185868,1,0,0:0:0:0:
425,76,185954,2,0,L|430:138,1,41.9999987182618
216,205,186125,2,0,L|219:163,1,41.9999987182618
252,32,186296,6,0,P|210:53|146:66,1,83.9999974365235
61,22,186639,1,0,0:0:0:0:
104,145,186811,1,0,0:0:0:0:
24,247,186982,5,0,0:0:0:0:
64,234,187067,1,0,0:0:0:0:
105,236,187153,1,0,0:0:0:0:
141,257,187239,1,0,0:0:0:0:
183,285,187325,1,0,0:0:0:0:
231,260,187410,1,0,0:0:0:0:
253,209,187496,1,0,0:0:0:0:
238,157,187582,1,0,0:0:0:0:
195,127,187668,6,0,P|137:116|114:117,1,70
344,173,188011,1,0,0:0:0:0:
344,147,188096,1,0,0:0:0:0:
344,122,188182,1,0,0:0:0:0:
344,96,188268,1,0,0:0:0:0:
343,70,188354,2,0,P|388:55|423:58,1,70
435,63,188611,1,0,0:0:0:0:
435,63,188696,1,0,0:0:0:0:
435,188,188868,1,0,0:0:0:0:
223,41,189039,5,0,0:0:0:0:
241,156,189211,1,0,0:0:0:0:
252,20,189382,1,0,0:0:0:0:
231,185,189554,1,0,0:0:0:0:
104,26,189725,5,0,0:0:0:0:
147,171,189896,1,0,0:0:0:0:
179,70,190068,1,0,0:0:0:0:
60,131,190239,1,0,0:0:0:0:
131,258,190411,6,0,P|178:258|217:252,1,70
297,184,190754,2,0,L|296:142,3,35
303,114,191096,2,0,P|347:97|382:96,1,70
400,102,191354,1,0,0:0:0:0:
400,102,191439,1,0,0:0:0:0:
427,214,191611,1,0,0:0:0:0:
479,103,191782,6,0,P|483:63|479:24,1,70
347,184,192125,2,0,P|344:218|348:253,1,70
231,131,192468,2,0,P|235:91|231:52,1,70
219,36,192725,1,0,0:0:0:0:
219,36,192811,2,0,P|164:30|140:32,1,70
100,261,193154,6,0,P|149:273|194:269,1,70
315,181,193496,1,0,0:0:0:0:
314,198,193581,1,0,0:0:0:0:
313,215,193667,1,0,0:0:0:0:
312,233,193753,1,0,0:0:0:0:
311,253,193839,2,0,P|336:291|365:306,1,70
384,306,194096,1,0,0:0:0:0:
384,306,194182,1,0,0:0:0:0:
261,347,194354,1,0,0:0:0:0:
391,197,194525,6,0,P|446:196|475:200,1,70
233,244,194868,2,0,P|198:246|163:244,1,70
246,90,195211,1,0,0:0:0:0:
246,90,195296,1,0,0:0:0:0:
246,90,195382,1,0,0:0:0:0:
105,158,195554,1,0,0:0:0:0:
140,37,195725,1,0,0:0:0:0:
21,157,195896,6,0,P|24:191|31:226,1,70
121,304,196239,2,0,L|154:291,3,35
181,273,196582,2,0,P|223:274|258:287,1,70
276,303,196839,1,0,0:0:0:0:
276,303,196925,2,0,P|323:321|355:321,1,70
401,165,197268,5,0,0:0:0:0:
443,250,197439,1,0,0:0:0:0:
397,144,197611,1,0,0:0:0:0:
362,252,197782,1,0,0:0:0:0:
335,89,197954,5,0,0:0:0:0:
281,206,198125,1,0,0:0:0:0:
255,29,198296,1,0,0:0:0:0:
310,183,198468,1,0,0:0:0:0:
430,86,198639,6,0,B|431:36|407:34|383:-2|377:-25|289:-47|267:-15|225:51|205:60|220:88|206:127|250:146|269:166|250:166|254:209|138:199|307:191|251:237|252:280|255:305|238:322|206:338|195:362|185:376|151:384|117:383|68:357|61:340|47:318|49:243,1,784
