osu file format v14

[General]
AudioFilename: audio.mp3
AudioLeadIn: 0
PreviewTime: 55584
Countdown: 0
SampleSet: Normal
StackLeniency: 0.7
Mode: 1
LetterboxInBreaks: 0
WidescreenStoryboard: 1

[Editor]
Bookmarks: 12122,23093,28579,34065,56008,66979,77951,99893,121836,132808,143779,154751,176693,198636
DistanceSpacing: 1.7
BeatDivisor: 8
GridSize: 32
TimelineZoom: 1

[Metadata]
Title:Call My Name feat. Yukacco
TitleUnicode:Call My Name feat. Yukacco
Artist:Mameyudoufu
ArtistUnicode:Mameyudoufu
Creator:Faputa
Version:Muzukashii
Source:Arcaea
Tags:osu! Memory Archive MEGAREX Lapix Featured Artist FA Mappers' Guild MG MPG FÜGENE2 FUGENE2 FUEGENE2 2 FÜGENE02 FUGENE02 FUEGENE02 02 Future Core Bass UK Hardcore Electronic Japanese English
BeatmapID:3295974
BeatmapSetID:1611416

[Difficulty]
HPDrainRate:6
CircleSize:2
OverallDifficulty:5
ApproachRate:10
SliderMultiplier:1.4
SliderTickRate:1

[Events]
//Background and Video events
0,0,"67560672_p0.jpg",0,0
//Break Periods
//Storyboard Layer 0 (Background)
//Storyboard Layer 1 (Fail)
//Storyboard Layer 2 (Pass)
//Storyboard Layer 3 (Foreground)
//Storyboard Layer 4 (Overlay)
//Storyboard Sound Samples

[TimingPoints]
1156,342.857142857143,4,1,0,75,1,0
12041,-100,4,1,0,80,0,0
23013,-100,4,1,0,85,0,0
33984,-100,4,1,0,70,0,0
44956,-100,4,1,0,75,0,0
55927,-100,4,1,0,80,0,0
66898,-100,4,1,0,85,0,0
72384,-100,4,1,0,90,0,0
77956,-100,4,1,0,95,0,1
98613,-100,4,1,0,40,0,1
99813,-100,4,1,0,80,0,1
99898,-100,4,1,0,80,0,0
119270,-100,4,1,0,75,0,0
132727,-100,4,1,0,80,0,0
143698,-100,4,1,0,85,0,0
149184,-100,4,1,0,90,0,0
154756,-100,4,1,0,95,0,1
176613,-100,4,1,0,85,0,1
176698,-100,4,1,0,85,0,0
187584,-100,4,1,0,80,0,0
198556,-100,4,1,0,75,0,0

[HitObjects]
256,192,1156,5,12,0:0:0:0:
256,192,1498,1,0,0:0:0:0:
256,192,1670,1,0,0:0:0:0:
256,192,1841,1,8,0:0:0:0:
256,192,2098,1,0,0:0:0:0:
256,192,2356,1,8,0:0:0:0:
256,192,2698,1,8,0:0:0:0:
256,192,2870,1,0,0:0:0:0:
256,192,3041,1,0,0:0:0:0:
256,192,3213,1,8,0:0:0:0:
256,192,3556,1,8,0:0:0:0:
256,192,3898,1,0,0:0:0:0:
256,192,4241,1,8,0:0:0:0:
256,192,4413,1,0,0:0:0:0:
256,192,4584,1,8,0:0:0:0:
256,192,4841,1,0,0:0:0:0:
256,192,5098,1,8,0:0:0:0:
256,192,5441,1,8,0:0:0:0:
256,192,5613,1,8,0:0:0:0:
256,192,5784,1,0,0:0:0:0:
256,192,5956,1,8,0:0:0:0:
256,192,6298,1,8,0:0:0:0:
256,192,6470,1,8,0:0:0:0:
256,192,6556,1,8,0:0:0:0:
256,192,6641,1,8,0:0:0:0:
256,192,6984,1,0,0:0:0:0:
256,192,7156,1,0,0:0:0:0:
256,192,7327,1,8,0:0:0:0:
256,192,7584,1,0,0:0:0:0:
256,192,7841,1,8,0:0:0:0:
256,192,8184,1,8,0:0:0:0:
256,192,8356,1,0,0:0:0:0:
256,192,8527,1,0,0:0:0:0:
256,192,8698,1,8,0:0:0:0:
256,192,9041,1,8,0:0:0:0:
256,192,9384,1,0,0:0:0:0:
256,192,9727,1,8,0:0:0:0:
256,192,9898,1,0,0:0:0:0:
256,192,10070,1,8,0:0:0:0:
256,192,10327,1,0,0:0:0:0:
256,192,10584,1,8,0:0:0:0:
256,192,10756,1,0,0:0:0:0:
256,192,10841,1,0,0:0:0:0:
256,192,10927,1,0,0:0:0:0:
256,192,11098,1,8,0:0:0:0:
256,192,11270,1,0,0:0:0:0:
256,192,11441,1,8,0:0:0:0:
256,192,11527,1,8,0:0:0:0:
256,192,11613,1,8,0:0:0:0:
256,192,11784,1,0,0:0:0:0:
256,192,11956,1,0,0:0:0:0:
256,192,12127,1,12,0:0:0:0:
256,192,12470,1,0,0:0:0:0:
256,192,12641,1,0,0:0:0:0:
256,192,12813,1,8,0:0:0:0:
256,192,13070,1,0,0:0:0:0:
256,192,13327,1,8,0:0:0:0:
256,192,13498,1,0,0:0:0:0:
256,192,13670,1,8,0:0:0:0:
256,192,13841,1,0,0:0:0:0:
256,192,14013,1,0,0:0:0:0:
256,192,14184,1,8,0:0:0:0:
256,192,14527,1,8,0:0:0:0:
256,192,14870,1,0,0:0:0:0:
256,192,15213,1,8,0:0:0:0:
256,192,15384,1,0,0:0:0:0:
256,192,15556,1,8,0:0:0:0:
256,192,15813,1,8,0:0:0:0:
256,192,16070,1,0,0:0:0:0:
256,192,16241,1,8,0:0:0:0:
256,192,16413,1,8,0:0:0:0:
256,192,16584,1,0,0:0:0:0:
256,192,16756,1,0,0:0:0:0:
256,192,16927,1,8,0:0:0:0:
256,192,17270,1,8,0:0:0:0:
256,192,17441,1,8,0:0:0:0:
256,192,17527,1,8,0:0:0:0:
256,192,17613,1,8,0:0:0:0:
256,192,17956,1,0,0:0:0:0:
256,192,18127,1,0,0:0:0:0:
256,192,18298,1,8,0:0:0:0:
256,192,18556,1,0,0:0:0:0:
256,192,18813,1,8,0:0:0:0:
256,192,18984,1,0,0:0:0:0:
256,192,19156,1,8,0:0:0:0:
256,192,19327,1,0,0:0:0:0:
256,192,19498,1,0,0:0:0:0:
256,192,19670,1,8,0:0:0:0:
256,192,20013,1,8,0:0:0:0:
256,192,20356,1,0,0:0:0:0:
256,192,20698,1,8,0:0:0:0:
256,192,20870,1,0,0:0:0:0:
256,192,21041,1,8,0:0:0:0:
256,192,21298,1,8,0:0:0:0:
256,192,21556,1,0,0:0:0:0:
256,192,21727,1,8,0:0:0:0:
256,192,21898,1,8,0:0:0:0:
256,192,22070,1,0,0:0:0:0:
256,192,22241,1,0,0:0:0:0:
256,192,22413,1,8,0:0:0:0:
256,192,22584,1,8,0:0:0:0:
256,192,22670,1,8,0:0:0:0:
256,192,22756,1,8,0:0:0:0:
256,192,22927,1,0,0:0:0:0:
256,192,23098,1,12,0:0:0:0:
256,192,23441,1,0,0:0:0:0:
256,192,23527,1,0,0:0:0:0:
256,192,23613,1,0,0:0:0:0:
256,192,23784,1,8,0:0:0:0:
256,192,24041,1,0,0:0:0:0:
256,192,24298,1,8,0:0:0:0:
256,192,24470,1,0,0:0:0:0:
256,192,24641,1,8,0:0:0:0:
256,192,24813,1,8,0:0:0:0:
256,192,24984,1,0,0:0:0:0:
256,192,25156,1,8,0:0:0:0:
256,192,25498,1,8,0:0:0:0:
256,192,25841,1,0,0:0:0:0:
256,192,26184,1,0,0:0:0:0:
256,192,26270,1,0,0:0:0:0:
256,192,26356,1,0,0:0:0:0:
256,192,26527,1,8,0:0:0:0:
256,192,26784,1,8,0:0:0:0:
256,192,27041,1,0,0:0:0:0:
256,192,27213,1,8,0:0:0:0:
256,192,27384,1,8,0:0:0:0:
256,192,27556,1,0,0:0:0:0:
256,192,27727,1,0,0:0:0:0:
256,192,27898,1,8,0:0:0:0:
256,192,28070,1,8,0:0:0:0:
256,192,28156,1,8,0:0:0:0:
256,192,28241,1,8,0:0:0:0:
256,192,28413,1,0,0:0:0:0:
256,192,28584,1,12,0:0:0:0:
256,192,28927,1,0,0:0:0:0:
256,192,29013,1,0,0:0:0:0:
256,192,29098,1,0,0:0:0:0:
256,192,29270,1,8,0:0:0:0:
256,192,29527,1,0,0:0:0:0:
256,192,29784,1,8,0:0:0:0:
256,192,29956,1,0,0:0:0:0:
256,192,30127,1,8,0:0:0:0:
256,192,30298,1,0,0:0:0:0:
256,192,30641,1,8,0:0:0:0:
256,192,30984,1,8,0:0:0:0:
256,192,31327,1,0,0:0:0:0:
256,192,31498,1,0,0:0:0:0:
256,192,31584,1,0,0:0:0:0:
256,192,31670,1,0,0:0:0:0:
256,192,31841,1,0,0:0:0:0:
256,192,32013,1,8,0:0:0:0:
256,192,32184,1,8,0:0:0:0:
256,192,32270,1,8,0:0:0:0:
256,192,32356,1,8,0:0:0:0:
256,192,32527,1,8,0:0:0:0:
256,192,32698,1,0,0:0:0:0:
256,192,32870,1,8,0:0:0:0:
256,192,33041,1,0,0:0:0:0:
256,192,33213,1,8,0:0:0:0:
256,192,33384,1,0,0:0:0:0:
256,192,33470,1,0,0:0:0:0:
256,192,33556,1,0,0:0:0:0:
256,192,33727,1,8,0:0:0:0:
256,192,33813,1,8,0:0:0:0:
256,192,33898,1,8,0:0:0:0:
256,192,34070,1,4,0:0:0:0:
256,192,34413,1,8,0:0:0:0:
256,192,34756,1,0,0:0:0:0:
256,192,35270,1,8,0:0:0:0:
256,192,35441,1,8,0:0:0:0:
256,192,35784,1,8,0:0:0:0:
256,192,36127,1,0,0:0:0:0:
256,192,36641,1,0,0:0:0:0:
256,192,36813,1,0,0:0:0:0:
256,192,37041,1,8,0:0:0:0:
256,192,37327,1,0,0:0:0:0:
256,192,37498,1,8,0:0:0:0:
256,192,37841,1,0,0:0:0:0:
256,192,38184,1,8,0:0:0:0:
256,192,38356,1,8,0:0:0:0:
256,192,38527,1,0,0:0:0:0:
256,192,38698,1,0,0:0:0:0:
256,192,38870,1,8,0:0:0:0:
256,192,39213,1,8,0:0:0:0:
256,192,39556,1,0,0:0:0:0:
256,192,39898,1,8,0:0:0:0:
256,192,40241,1,0,0:0:0:0:
256,192,40756,1,8,0:0:0:0:
256,192,40927,1,8,0:0:0:0:
256,192,41270,1,8,0:0:0:0:
256,192,41613,1,0,0:0:0:0:
256,192,42127,1,0,0:0:0:0:
256,192,42298,1,0,0:0:0:0:
256,192,42470,1,8,0:0:0:0:
256,192,42813,1,0,0:0:0:0:
256,192,42984,1,8,0:0:0:0:
256,192,43327,1,0,0:0:0:0:
256,192,43498,1,0,0:0:0:0:
256,192,43670,1,8,0:0:0:0:
256,192,44013,1,8,0:0:0:0:
256,192,44356,1,0,0:0:0:0:
256,192,44698,1,0,0:0:0:0:
256,192,45041,1,8,0:0:0:0:
256,192,45384,1,0,0:0:0:0:
256,192,45556,1,0,0:0:0:0:
256,192,45727,1,8,0:0:0:0:
256,192,46241,1,0,0:0:0:0:
256,192,46413,1,8,0:0:0:0:
256,192,46756,1,8,0:0:0:0:
256,192,46927,1,8,0:0:0:0:
256,192,47098,1,8,0:0:0:0:
256,192,47613,1,0,0:0:0:0:
256,192,47784,1,8,0:0:0:0:
256,192,48127,1,0,0:0:0:0:
256,192,48298,1,0,0:0:0:0:
256,192,48470,1,8,0:0:0:0:
256,192,48813,1,0,0:0:0:0:
256,192,48984,1,0,0:0:0:0:
256,192,49156,1,8,0:0:0:0:
256,192,49327,1,8,0:0:0:0:
256,192,49498,1,0,0:0:0:0:
256,192,49841,1,8,0:0:0:0:
256,192,50356,1,0,0:0:0:0:
256,192,50527,1,8,0:0:0:0:
256,192,51041,1,8,0:0:0:0:
256,192,51213,1,8,0:0:0:0:
256,192,51727,1,0,0:0:0:0:
256,192,51898,1,8,0:0:0:0:
256,192,52241,1,0,0:0:0:0:
256,192,52413,1,0,0:0:0:0:
256,192,52584,1,8,0:0:0:0:
256,192,52927,1,8,0:0:0:0:
256,192,53270,1,0,0:0:0:0:
256,192,53784,1,0,0:0:0:0:
256,192,53956,1,8,0:0:0:0:
256,192,54470,1,8,0:0:0:0:
256,192,54641,1,0,0:0:0:0:
256,192,54984,1,0,0:0:0:0:
256,192,55327,1,8,0:0:0:0:
256,192,55413,1,8,0:0:0:0:
256,192,55498,1,8,0:0:0:0:
256,192,55670,1,0,0:0:0:0:
256,192,56013,1,4,0:0:0:0:
256,192,56527,1,4,0:0:0:0:
256,192,57041,1,12,0:0:0:0:
256,192,57213,2,4,L|323:189,14,35
256,224,58756,1,4,0:0:0:0:
256,224,59270,1,12,0:0:0:0:
256,224,59784,1,4,0:0:0:0:
256,224,60298,1,12,0:0:0:0:
256,224,60813,1,0,0:0:0:0:
256,224,60984,1,0,0:0:0:0:
256,224,61156,1,8,0:0:0:0:
256,224,61241,1,8,0:0:0:0:
256,224,61327,1,8,0:0:0:0:
256,224,61498,1,4,0:0:0:0:
256,224,62013,1,4,0:0:0:0:
256,224,62527,1,12,0:0:0:0:
256,224,63041,1,12,0:0:0:0:
256,224,63556,1,4,0:0:0:0:
256,224,63898,2,0,L|319:221,20,35
256,192,66298,1,8,0:0:0:0:
256,192,66384,1,8,0:0:0:0:
256,192,66470,1,8,0:0:0:0:
256,192,66641,1,8,0:0:0:0:
256,192,66813,1,0,0:0:0:0:
256,192,66984,1,12,0:0:0:0:
256,192,67241,1,0,0:0:0:0:
256,192,67498,1,8,0:0:0:0:
256,192,67670,1,0,0:0:0:0:
256,192,67841,1,0,0:0:0:0:
256,192,68013,1,8,0:0:0:0:
256,192,68184,1,8,0:0:0:0:
256,192,68527,1,8,0:0:0:0:
256,192,68698,1,0,0:0:0:0:
256,192,69041,1,8,0:0:0:0:
256,192,69384,1,8,0:0:0:0:
256,192,69727,1,0,0:0:0:0:
256,192,69984,1,8,0:0:0:0:
256,192,70241,1,0,0:0:0:0:
256,192,70413,1,8,0:0:0:0:
256,192,70584,1,8,0:0:0:0:
256,192,70756,1,0,0:0:0:0:
256,192,70927,1,8,0:0:0:0:
256,192,71270,1,0,0:0:0:0:
256,192,71441,1,8,0:0:0:0:
256,192,71613,1,0,0:0:0:0:
256,192,71784,1,8,0:0:0:0:
256,192,72127,1,0,0:0:0:0:
256,192,72298,1,0,0:0:0:0:
256,192,72470,1,12,0:0:0:0:
256,192,72727,1,0,0:0:0:0:
256,192,72984,1,8,0:0:0:0:
256,192,73156,1,0,0:0:0:0:
256,192,73327,1,0,0:0:0:0:
256,192,73498,1,8,0:0:0:0:
256,192,73670,1,8,0:0:0:0:
256,192,73841,1,0,0:0:0:0:
256,192,74013,1,8,0:0:0:0:
256,192,74184,1,0,0:0:0:0:
256,192,74527,1,8,0:0:0:0:
256,192,74870,1,0,0:0:0:0:
256,192,75213,1,8,0:0:0:0:
256,192,75298,1,8,0:0:0:0:
256,192,75384,1,8,0:0:0:0:
256,192,75556,1,0,0:0:0:0:
256,192,75727,1,8,0:0:0:0:
256,192,75813,1,8,0:0:0:0:
256,192,75898,1,8,0:0:0:0:
256,192,76070,1,0,0:0:0:0:
256,192,76156,1,0,0:0:0:0:
256,192,76241,1,0,0:0:0:0:
256,192,76413,1,8,0:0:0:0:
256,192,76584,1,0,0:0:0:0:
256,192,77098,1,0,0:0:0:0:
256,192,77270,1,8,0:0:0:0:
256,192,77356,1,8,0:0:0:0:
256,192,77441,1,8,0:0:0:0:
256,192,77613,1,0,0:0:0:0:
256,192,77956,1,12,0:0:0:0:
256,192,78298,1,8,0:0:0:0:
256,192,78641,1,0,0:0:0:0:
256,192,78813,1,8,0:0:0:0:
256,192,78984,1,8,0:0:0:0:
256,192,79156,1,4,0:0:0:0:
256,192,79498,1,12,0:0:0:0:
256,192,79841,1,8,0:0:0:0:
256,192,80013,1,4,0:0:0:0:
256,192,80698,1,12,0:0:0:0:
256,192,81041,1,8,0:0:0:0:
256,192,81213,1,0,0:0:0:0:
256,192,81384,1,8,0:0:0:0:
256,192,81556,1,4,0:0:0:0:
256,192,81898,1,12,0:0:0:0:
256,192,82241,1,4,0:0:0:0:
256,192,82584,1,0,0:0:0:0:
256,192,82756,1,12,0:0:0:0:
256,192,83441,1,12,0:0:0:0:
256,192,83784,1,0,0:0:0:0:
256,192,84127,1,8,0:0:0:0:
256,192,84298,1,4,0:0:0:0:
256,192,84641,1,4,0:0:0:0:
256,192,84984,1,12,0:0:0:0:
256,192,85327,1,8,0:0:0:0:
256,192,85498,1,4,0:0:0:0:
256,192,86184,1,12,0:0:0:0:
256,192,86698,1,4,0:0:0:0:
256,192,86870,1,12,0:0:0:0:
256,192,87213,1,12,0:0:0:0:
256,192,87556,1,0,0:0:0:0:
256,192,87813,1,0,0:0:0:0:
256,192,88070,1,0,0:0:0:0:
256,192,88241,1,8,0:0:0:0:
256,192,88584,1,8,0:0:0:0:
256,192,88927,1,12,0:0:0:0:
256,192,89270,1,8,0:0:0:0:
256,192,89441,1,0,0:0:0:0:
256,192,89613,1,8,0:0:0:0:
256,192,89870,1,8,0:0:0:0:
256,192,90127,1,8,0:0:0:0:
256,192,90298,1,8,0:0:0:0:
256,192,90641,1,8,0:0:0:0:
256,192,90813,1,0,0:0:0:0:
256,192,90984,1,8,0:0:0:0:
256,192,91156,1,8,0:0:0:0:
256,192,91327,1,0,0:0:0:0:
256,192,91498,1,8,0:0:0:0:
256,192,91670,1,0,0:0:0:0:
256,192,92013,1,0,0:0:0:0:
256,192,92184,1,8,0:0:0:0:
256,192,92356,1,0,0:0:0:0:
256,192,92613,1,0,0:0:0:0:
256,192,92870,1,0,0:0:0:0:
256,192,93041,1,0,0:0:0:0:
256,192,93384,1,0,0:0:0:0:
256,192,93556,1,8,0:0:0:0:
256,192,93641,1,8,0:0:0:0:
256,192,93727,1,8,0:0:0:0:
256,192,94070,1,0,0:0:0:0:
256,192,94413,1,8,0:0:0:0:
256,192,94756,1,8,0:0:0:0:
256,192,94927,1,0,0:0:0:0:
256,192,95098,1,8,0:0:0:0:
256,192,95356,1,8,0:0:0:0:
256,192,95613,1,8,0:0:0:0:
256,192,95784,1,0,0:0:0:0:
256,192,96127,1,0,0:0:0:0:
256,192,96298,1,8,0:0:0:0:
256,192,96470,1,0,0:0:0:0:
256,192,96727,1,0,0:0:0:0:
256,192,96984,1,0,0:0:0:0:
256,192,97156,1,4,0:0:0:0:
256,192,98527,1,12,0:0:0:0:
256,192,98698,8,0,99727,0:0:0:0:
256,192,99898,5,4,0:0:0:0:
256,192,100241,1,0,0:0:0:0:
256,192,100584,1,8,0:0:0:0:
256,192,100756,1,0,0:0:0:0:
256,192,101098,1,8,0:0:0:0:
256,192,101441,1,0,0:0:0:0:
256,192,101613,1,8,0:0:0:0:
256,192,101784,1,0,0:0:0:0:
256,192,101956,1,8,0:0:0:0:
256,192,102298,1,8,0:0:0:0:
256,192,102470,1,8,0:0:0:0:
256,192,102641,1,0,0:0:0:0:
256,192,103156,1,0,0:0:0:0:
256,192,103327,1,8,0:0:0:0:
256,192,103498,1,0,0:0:0:0:
256,192,103841,1,8,0:0:0:0:
256,192,104184,1,0,0:0:0:0:
256,192,104527,1,0,0:0:0:0:
256,192,104698,1,8,0:0:0:0:
256,192,105041,1,8,0:0:0:0:
256,192,105213,1,8,0:0:0:0:
256,192,105384,1,0,0:0:0:0:
256,192,105727,1,0,0:0:0:0:
256,192,106070,1,8,0:0:0:0:
256,192,106241,1,8,0:0:0:0:
256,192,106584,1,0,0:0:0:0:
256,192,106927,1,0,0:0:0:0:
256,192,107098,1,8,0:0:0:0:
256,192,107270,1,0,0:0:0:0:
256,192,107441,1,8,0:0:0:0:
256,192,107784,1,8,0:0:0:0:
256,192,107956,1,8,0:0:0:0:
256,192,108127,1,0,0:0:0:0:
256,192,108470,1,0,0:0:0:0:
256,192,108813,1,8,0:0:0:0:
256,192,108984,1,0,0:0:0:0:
256,192,109327,1,8,0:0:0:0:
256,192,109670,1,8,0:0:0:0:
256,192,110013,1,0,0:0:0:0:
256,192,110184,1,8,0:0:0:0:
256,192,110527,1,8,0:0:0:0:
256,192,110870,1,4,0:0:0:0:
256,192,111213,1,0,0:0:0:0:
256,192,111556,1,8,0:0:0:0:
256,192,111727,1,0,0:0:0:0:
256,192,112070,1,8,0:0:0:0:
256,192,112413,1,0,0:0:0:0:
256,192,112584,1,8,0:0:0:0:
256,192,112756,1,0,0:0:0:0:
256,192,112927,1,8,0:0:0:0:
256,192,113270,1,8,0:0:0:0:
256,192,113441,1,8,0:0:0:0:
256,192,113613,1,0,0:0:0:0:
256,192,114127,1,0,0:0:0:0:
256,192,114298,1,8,0:0:0:0:
256,192,114470,1,0,0:0:0:0:
256,192,114813,1,8,0:0:0:0:
256,192,115156,1,0,0:0:0:0:
256,192,115498,1,0,0:0:0:0:
256,192,115670,1,8,0:0:0:0:
256,192,116013,1,8,0:0:0:0:
256,192,116184,1,8,0:0:0:0:
256,192,116356,1,0,0:0:0:0:
256,192,116698,1,8,0:0:0:0:
256,192,116870,1,0,0:0:0:0:
256,192,117041,1,8,0:0:0:0:
256,192,117384,1,0,0:0:0:0:
256,192,117556,1,8,0:0:0:0:
256,192,117898,1,0,0:0:0:0:
256,192,118070,1,8,0:0:0:0:
256,192,118241,1,0,0:0:0:0:
256,192,118413,1,8,0:0:0:0:
256,192,118756,1,8,0:0:0:0:
256,192,119098,1,0,0:0:0:0:
256,192,121841,1,4,0:0:0:0:
256,192,122356,1,0,0:0:0:0:
256,192,122870,1,8,0:0:0:0:
256,192,123384,1,8,0:0:0:0:
256,192,123556,1,8,0:0:0:0:
256,192,123727,1,0,0:0:0:0:
256,192,123898,1,8,0:0:0:0:
256,192,124241,1,8,0:0:0:0:
256,192,124584,1,0,0:0:0:0:
256,192,125270,1,8,0:0:0:0:
256,192,125784,1,0,0:0:0:0:
256,192,126127,1,8,0:0:0:0:
256,192,126298,1,8,0:0:0:0:
256,192,126470,1,0,0:0:0:0:
256,192,126641,1,8,0:0:0:0:
256,192,126984,1,0,0:0:0:0:
256,192,127327,1,8,0:0:0:0:
256,192,127841,1,8,0:0:0:0:
256,192,128356,1,0,0:0:0:0:
256,192,128870,1,0,0:0:0:0:
256,192,129213,1,0,0:0:0:0:
256,192,129384,1,8,0:0:0:0:
256,192,129727,1,0,0:0:0:0:
256,192,130070,1,8,0:0:0:0:
256,192,130413,1,0,0:0:0:0:
256,192,130584,1,8,0:0:0:0:
256,192,130927,1,0,0:0:0:0:
256,192,131098,1,8,0:0:0:0:
256,192,131270,1,8,0:0:0:0:
256,192,131613,1,8,0:0:0:0:
256,192,131784,1,0,0:0:0:0:
256,192,131956,1,8,0:0:0:0:
256,192,132298,1,8,0:0:0:0:
256,192,132470,1,8,0:0:0:0:
256,192,132641,1,0,0:0:0:0:
256,192,132813,1,12,0:0:0:0:
256,192,133156,1,8,0:0:0:0:
256,192,133241,1,8,0:0:0:0:
256,192,133327,1,8,0:0:0:0:
256,192,133841,1,8,0:0:0:0:
256,192,133927,1,8,0:0:0:0:
256,192,134013,1,8,0:0:0:0:
256,192,134356,1,8,0:0:0:0:
256,192,134527,1,0,0:0:0:0:
256,192,134698,1,8,0:0:0:0:
256,192,135041,1,8,0:0:0:0:
256,192,135213,1,8,0:0:0:0:
256,192,135384,1,0,0:0:0:0:
256,192,135556,1,8,0:0:0:0:
256,192,135898,1,8,0:0:0:0:
256,192,135984,1,8,0:0:0:0:
256,192,136070,1,8,0:0:0:0:
256,192,136584,1,8,0:0:0:0:
256,192,136670,1,8,0:0:0:0:
256,192,136756,1,8,0:0:0:0:
256,192,137098,1,8,0:0:0:0:
256,192,137270,1,0,0:0:0:0:
256,192,137441,1,8,0:0:0:0:
256,192,137784,1,8,0:0:0:0:
256,192,137956,1,8,0:0:0:0:
256,192,138127,1,0,0:0:0:0:
256,192,138298,1,8,0:0:0:0:
256,192,138641,1,8,0:0:0:0:
256,192,138727,1,8,0:0:0:0:
256,192,138813,1,8,0:0:0:0:
256,192,139327,1,8,0:0:0:0:
256,192,139413,1,8,0:0:0:0:
256,192,139498,1,8,0:0:0:0:
256,192,139841,1,8,0:0:0:0:
256,192,140013,1,0,0:0:0:0:
256,192,140184,1,8,0:0:0:0:
256,192,140527,1,8,0:0:0:0:
256,192,140698,1,8,0:0:0:0:
256,192,140870,1,0,0:0:0:0:
256,192,141041,1,8,0:0:0:0:
256,192,141384,1,8,0:0:0:0:
256,192,141470,1,8,0:0:0:0:
256,192,141556,1,8,0:0:0:0:
256,192,142070,1,8,0:0:0:0:
256,192,142156,1,8,0:0:0:0:
256,192,142241,1,8,0:0:0:0:
256,192,142413,1,0,0:0:0:0:
256,192,142584,1,8,0:0:0:0:
256,192,142756,1,0,0:0:0:0:
256,192,142841,1,0,0:0:0:0:
256,192,142927,1,0,0:0:0:0:
256,192,143098,1,8,0:0:0:0:
256,192,143270,1,8,0:0:0:0:
256,192,143441,1,0,0:0:0:0:
256,192,143784,1,12,0:0:0:0:
256,192,144041,1,0,0:0:0:0:
256,192,144298,1,8,0:0:0:0:
256,192,144470,1,0,0:0:0:0:
256,192,144641,1,8,0:0:0:0:
256,192,144813,1,0,0:0:0:0:
256,192,144984,1,8,0:0:0:0:
256,192,145327,1,8,0:0:0:0:
256,192,145498,1,0,0:0:0:0:
256,192,145841,1,8,0:0:0:0:
256,192,146184,1,8,0:0:0:0:
256,192,146527,1,0,0:0:0:0:
256,192,146784,1,8,0:0:0:0:
256,192,147041,1,0,0:0:0:0:
256,192,147213,1,8,0:0:0:0:
256,192,147384,1,8,0:0:0:0:
256,192,147556,1,0,0:0:0:0:
256,192,147727,1,0,0:0:0:0:
256,192,148070,1,0,0:0:0:0:
256,192,148241,1,8,0:0:0:0:
256,192,148413,1,0,0:0:0:0:
256,192,148584,1,8,0:0:0:0:
256,192,148927,1,0,0:0:0:0:
256,192,149098,1,0,0:0:0:0:
256,192,149270,1,12,0:0:0:0:
256,192,149527,1,0,0:0:0:0:
256,192,149784,1,8,0:0:0:0:
256,192,149956,1,0,0:0:0:0:
256,192,150127,1,0,0:0:0:0:
256,192,150298,1,8,0:0:0:0:
256,192,150470,1,8,0:0:0:0:
256,192,150641,1,0,0:0:0:0:
256,192,150813,1,8,0:0:0:0:
256,192,150984,1,0,0:0:0:0:
256,192,151327,1,8,0:0:0:0:
256,192,151670,1,0,0:0:0:0:
256,192,152013,1,8,0:0:0:0:
256,192,152098,1,8,0:0:0:0:
256,192,152184,1,8,0:0:0:0:
256,192,152356,1,0,0:0:0:0:
256,192,152527,1,8,0:0:0:0:
256,192,152613,1,8,0:0:0:0:
256,192,152698,1,8,0:0:0:0:
256,192,152870,1,0,0:0:0:0:
256,192,152956,1,0,0:0:0:0:
256,192,153041,1,0,0:0:0:0:
256,192,153213,1,8,0:0:0:0:
256,192,153384,1,0,0:0:0:0:
256,192,153898,1,0,0:0:0:0:
256,192,154070,1,8,0:0:0:0:
256,192,154156,1,8,0:0:0:0:
256,192,154241,1,8,0:0:0:0:
256,192,154413,1,0,0:0:0:0:
256,192,154756,1,12,0:0:0:0:
256,192,155098,1,8,0:0:0:0:
256,192,155184,1,8,0:0:0:0:
256,192,155270,1,8,0:0:0:0:
256,192,155613,1,0,0:0:0:0:
256,192,155784,1,8,0:0:0:0:
256,192,155870,1,8,0:0:0:0:
256,192,155956,1,8,0:0:0:0:
256,192,156298,1,8,0:0:0:0:
256,192,156470,1,0,0:0:0:0:
256,192,156641,1,8,0:0:0:0:
256,192,156813,1,0,0:0:0:0:
256,192,156984,1,8,0:0:0:0:
256,192,157156,1,8,0:0:0:0:
256,192,157327,1,0,0:0:0:0:
256,192,157498,1,8,0:0:0:0:
256,192,157841,1,0,0:0:0:0:
256,192,157927,1,0,0:0:0:0:
256,192,158013,1,0,0:0:0:0:
256,192,158356,1,8,0:0:0:0:
256,192,158527,1,0,0:0:0:0:
256,192,158613,1,0,0:0:0:0:
256,192,158698,1,0,0:0:0:0:
256,192,159041,1,0,0:0:0:0:
256,192,159213,1,8,0:0:0:0:
256,192,159298,1,8,0:0:0:0:
256,192,159384,1,8,0:0:0:0:
256,192,159898,1,8,0:0:0:0:
256,192,160241,1,0,0:0:0:0:
256,192,160584,1,8,0:0:0:0:
256,192,160670,1,8,0:0:0:0:
256,192,160756,1,8,0:0:0:0:
256,192,161098,1,0,0:0:0:0:
256,192,161270,1,8,0:0:0:0:
256,192,161356,1,8,0:0:0:0:
256,192,161441,1,8,0:0:0:0:
256,192,161784,1,8,0:0:0:0:
256,192,161956,1,0,0:0:0:0:
256,192,162127,1,8,0:0:0:0:
256,192,162298,1,8,0:0:0:0:
256,192,162470,1,0,0:0:0:0:
256,192,162641,1,0,0:0:0:0:
256,192,162813,1,8,0:0:0:0:
256,192,162984,1,8,0:0:0:0:
256,192,163156,1,0,0:0:0:0:
256,192,163327,1,8,0:0:0:0:
256,192,163498,1,0,0:0:0:0:
256,192,163670,1,8,0:0:0:0:
256,192,163756,1,8,0:0:0:0:
256,192,163841,1,8,0:0:0:0:
256,192,164184,1,8,0:0:0:0:
256,192,164698,1,8,0:0:0:0:
256,192,164870,1,0,0:0:0:0:
256,192,165041,1,8,0:0:0:0:
256,192,165213,1,0,0:0:0:0:
256,192,165298,1,0,0:0:0:0:
256,192,165384,1,0,0:0:0:0:
256,192,165556,1,0,0:0:0:0:
256,192,165727,1,12,0:0:0:0:
256,192,166070,1,8,0:0:0:0:
256,192,166156,1,8,0:0:0:0:
256,192,166241,1,8,0:0:0:0:
256,192,166584,1,0,0:0:0:0:
256,192,166756,1,8,0:0:0:0:
256,192,166841,1,8,0:0:0:0:
256,192,166927,1,8,0:0:0:0:
256,192,167270,1,8,0:0:0:0:
256,192,167441,1,0,0:0:0:0:
256,192,167613,1,8,0:0:0:0:
256,192,167784,1,0,0:0:0:0:
256,192,167956,1,8,0:0:0:0:
256,192,168127,1,8,0:0:0:0:
256,192,168298,1,0,0:0:0:0:
256,192,168470,1,8,0:0:0:0:
256,192,168813,1,0,0:0:0:0:
256,192,168898,1,0,0:0:0:0:
256,192,168984,1,0,0:0:0:0:
256,192,169327,1,8,0:0:0:0:
256,192,169498,1,0,0:0:0:0:
256,192,169584,1,0,0:0:0:0:
256,192,169670,1,0,0:0:0:0:
256,192,170013,1,0,0:0:0:0:
256,192,170184,1,8,0:0:0:0:
256,192,170270,1,8,0:0:0:0:
256,192,170356,1,8,0:0:0:0:
256,192,170870,1,8,0:0:0:0:
256,192,171213,1,0,0:0:0:0:
256,192,171556,1,8,0:0:0:0:
256,192,171641,1,8,0:0:0:0:
256,192,171727,1,8,0:0:0:0:
256,192,172070,1,0,0:0:0:0:
256,192,172241,1,8,0:0:0:0:
256,192,172327,1,8,0:0:0:0:
256,192,172413,1,8,0:0:0:0:
256,192,172756,1,8,0:0:0:0:
256,192,172927,1,0,0:0:0:0:
256,192,173098,1,8,0:0:0:0:
256,192,173270,1,8,0:0:0:0:
256,192,173441,1,0,0:0:0:0:
256,192,173613,1,0,0:0:0:0:
256,192,173784,1,8,0:0:0:0:
256,192,173956,1,8,0:0:0:0:
256,192,174127,1,0,0:0:0:0:
256,192,174298,1,8,0:0:0:0:
256,192,174470,1,0,0:0:0:0:
256,192,174641,1,8,0:0:0:0:
256,192,174727,1,8,0:0:0:0:
256,192,174813,1,8,0:0:0:0:
256,192,174984,1,0,0:0:0:0:
256,192,175156,1,8,0:0:0:0:
256,192,175498,1,0,0:0:0:0:
256,192,175841,1,8,0:0:0:0:
256,192,176184,1,0,0:0:0:0:
256,192,176356,1,8,0:0:0:0:
256,192,176527,1,0,0:0:0:0:
256,192,176698,1,12,0:0:0:0:
256,192,177041,1,0,0:0:0:0:
256,192,177127,1,0,0:0:0:0:
256,192,177213,1,0,0:0:0:0:
256,192,177384,1,8,0:0:0:0:
256,192,177641,1,0,0:0:0:0:
256,192,177898,1,8,0:0:0:0:
256,192,178070,1,0,0:0:0:0:
256,192,178241,1,8,0:0:0:0:
256,192,178413,1,8,0:0:0:0:
256,192,178584,1,0,0:0:0:0:
256,192,178756,1,8,0:0:0:0:
256,192,179098,1,8,0:0:0:0:
256,192,179441,1,0,0:0:0:0:
256,192,179784,1,0,0:0:0:0:
256,192,179870,1,0,0:0:0:0:
256,192,179956,1,0,0:0:0:0:
256,192,180127,1,8,0:0:0:0:
256,192,180384,1,8,0:0:0:0:
256,192,180641,1,0,0:0:0:0:
256,192,180813,1,8,0:0:0:0:
256,192,180984,1,8,0:0:0:0:
256,192,181156,1,0,0:0:0:0:
256,192,181327,1,0,0:0:0:0:
256,192,181498,1,8,0:0:0:0:
256,192,181670,1,8,0:0:0:0:
256,192,181756,1,8,0:0:0:0:
256,192,181841,1,8,0:0:0:0:
256,192,182013,1,0,0:0:0:0:
256,192,182184,1,8,0:0:0:0:
256,192,182527,1,0,0:0:0:0:
256,192,182613,1,0,0:0:0:0:
256,192,182698,1,0,0:0:0:0:
256,192,182870,1,8,0:0:0:0:
256,192,183127,1,0,0:0:0:0:
256,192,183384,1,8,0:0:0:0:
256,192,183556,1,0,0:0:0:0:
256,192,183727,1,8,0:0:0:0:
256,192,183898,1,8,0:0:0:0:
256,192,184070,1,0,0:0:0:0:
256,192,184241,1,8,0:0:0:0:
256,192,184584,1,8,0:0:0:0:
256,192,184927,1,0,0:0:0:0:
256,192,185270,1,0,0:0:0:0:
256,192,185356,1,0,0:0:0:0:
256,192,185441,1,0,0:0:0:0:
256,192,185613,1,8,0:0:0:0:
256,192,185870,1,8,0:0:0:0:
256,192,186127,1,0,0:0:0:0:
256,192,186298,1,8,0:0:0:0:
256,192,186470,1,8,0:0:0:0:
256,192,186641,1,0,0:0:0:0:
256,192,186813,1,0,0:0:0:0:
256,192,186984,1,8,0:0:0:0:
256,192,187156,1,8,0:0:0:0:
256,192,187241,1,8,0:0:0:0:
256,192,187327,1,8,0:0:0:0:
256,192,187498,1,0,0:0:0:0:
256,192,187670,1,12,0:0:0:0:
256,192,188013,1,0,0:0:0:0:
256,192,188184,1,0,0:0:0:0:
256,192,188356,1,8,0:0:0:0:
256,192,188613,1,0,0:0:0:0:
256,192,188870,1,8,0:0:0:0:
256,192,189041,1,0,0:0:0:0:
256,192,189213,1,8,0:0:0:0:
256,192,189384,1,0,0:0:0:0:
256,192,189556,1,0,0:0:0:0:
256,192,189727,1,8,0:0:0:0:
256,192,190070,1,8,0:0:0:0:
256,192,190413,1,0,0:0:0:0:
256,192,190756,1,8,0:0:0:0:
256,192,190927,1,0,0:0:0:0:
256,192,191098,1,8,0:0:0:0:
256,192,191356,1,8,0:0:0:0:
256,192,191613,1,0,0:0:0:0:
256,192,191784,1,8,0:0:0:0:
256,192,191956,1,8,0:0:0:0:
256,192,192127,1,0,0:0:0:0:
256,192,192298,1,0,0:0:0:0:
256,192,192470,1,8,0:0:0:0:
256,192,192813,1,8,0:0:0:0:
256,192,192984,1,8,0:0:0:0:
256,192,193070,1,8,0:0:0:0:
256,192,193156,1,8,0:0:0:0:
256,192,193498,1,0,0:0:0:0:
256,192,193670,1,0,0:0:0:0:
256,192,193841,1,8,0:0:0:0:
256,192,194098,1,0,0:0:0:0:
256,192,194356,1,8,0:0:0:0:
256,192,194527,1,0,0:0:0:0:
256,192,194698,1,8,0:0:0:0:
256,192,194870,1,0,0:0:0:0:
256,192,195041,1,0,0:0:0:0:
256,192,195213,1,8,0:0:0:0:
256,192,195556,1,8,0:0:0:0:
256,192,195898,1,0,0:0:0:0:
256,192,196241,1,8,0:0:0:0:
256,192,196413,1,0,0:0:0:0:
256,192,196584,1,8,0:0:0:0:
256,192,196841,1,8,0:0:0:0:
256,192,197098,1,0,0:0:0:0:
256,192,197270,1,8,0:0:0:0:
256,192,197441,1,8,0:0:0:0:
256,192,197613,1,0,0:0:0:0:
256,192,197784,1,0,0:0:0:0:
256,192,197956,1,8,0:0:0:0:
256,192,198127,1,8,0:0:0:0:
256,192,198213,1,8,0:0:0:0:
256,192,198298,1,8,0:0:0:0:
256,192,198470,1,0,0:0:0:0:
256,192,198641,1,12,0:0:0:0:
