osu file format v14

[General]
AudioFilename: audio.mp3
AudioLeadIn: 0
PreviewTime: 55584
Countdown: 0
SampleSet: Normal
StackLeniency: 0.7
Mode: 1
LetterboxInBreaks: 0
WidescreenStoryboard: 1

[Editor]
Bookmarks: 12122,23093,28579,34065,56008,66979,77951,99893,121836,132808,143779,154751,176693,198636
DistanceSpacing: 1.7
BeatDivisor: 4
GridSize: 32
TimelineZoom: 0.6999997

[Metadata]
Title:Call My Name feat. Yukacco
TitleUnicode:Call My Name feat. Yukacco
Artist:Mameyudoufu
ArtistUnicode:Mameyudoufu
Creator:Faputa
Version:Kantan
Source:Arcaea
Tags:osu! Memory Archive MEGAREX Lapix Featured Artist FA Mappers' Guild MG MPG FÜGENE2 FUGENE2 FUEGENE2 2 FÜGENE02 FUGENE02 FUEGENE02 02 Future Core Bass UK Hardcore Electronic Japanese English
BeatmapID:3295988
BeatmapSetID:1611416

[Difficulty]
HPDrainRate:8
CircleSize:2
OverallDifficulty:3
ApproachRate:10
SliderMultiplier:1.4
SliderTickRate:1

[Events]
//Background and Video events
0,0,"67560672_p0.jpg",0,0
//Break Periods
//Storyboard Layer 0 (Background)
//Storyboard Layer 1 (Fail)
//Storyboard Layer 2 (Pass)
//Storyboard Layer 3 (Foreground)
//Storyboard Layer 4 (Overlay)
//Storyboard Sound Samples

[TimingPoints]
1156,342.857142857143,4,1,0,75,1,0
12041,-100,4,1,0,80,0,0
23013,-100,4,1,0,85,0,0
33984,-100,4,1,0,70,0,0
44956,-100,4,1,0,75,0,0
55927,-100,4,1,0,80,0,0
63727,-100,4,1,0,40,0,0
66898,-100,4,1,0,85,0,0
72384,-100,4,1,0,90,0,0
77956,-100,4,1,0,95,0,1
99813,-100,4,1,0,80,0,1
99898,-100,4,1,0,80,0,0
119270,-100,4,1,0,75,0,0
132727,-100,4,1,0,80,0,0
143698,-100,4,1,0,85,0,0
149184,-100,4,1,0,90,0,0
154756,-100,4,1,0,95,0,1
176613,-100,4,1,0,85,0,1
176698,-100,4,1,0,85,0,0
187584,-100,4,1,0,80,0,0
198556,-100,4,1,0,75,0,0

[HitObjects]
256,192,1156,5,12,0:0:0:0:
256,192,2870,1,0,0:0:0:0:
256,192,3213,1,8,0:0:0:0:
256,192,3898,1,8,0:0:0:0:
256,192,5613,1,0,0:0:0:0:
256,192,5956,1,8,0:0:0:0:
256,192,6298,1,0,0:0:0:0:
256,192,6641,1,8,0:0:0:0:
256,192,8356,1,0,0:0:0:0:
256,192,8698,1,8,0:0:0:0:
256,192,9384,1,8,0:0:0:0:
256,192,10756,1,0,0:0:0:0:
256,192,11098,1,0,0:0:0:0:
256,192,11441,1,8,0:0:0:0:
256,192,12127,1,12,0:0:0:0:
256,192,13498,1,0,0:0:0:0:
256,192,13841,1,0,0:0:0:0:
256,192,14184,1,8,0:0:0:0:
256,192,14870,1,0,0:0:0:0:
256,192,15556,1,8,0:0:0:0:
256,192,16241,1,8,0:0:0:0:
256,192,16584,1,0,0:0:0:0:
256,192,16927,1,8,0:0:0:0:
256,192,17613,1,0,0:0:0:0:
256,192,18984,1,0,0:0:0:0:
256,192,19327,1,0,0:0:0:0:
256,192,19670,1,8,0:0:0:0:
256,192,20356,1,0,0:0:0:0:
256,192,21041,1,8,0:0:0:0:
256,192,21727,1,8,0:0:0:0:
256,192,22070,1,0,0:0:0:0:
256,192,22413,1,8,0:0:0:0:
256,192,23098,1,12,0:0:0:0:
256,192,24470,1,0,0:0:0:0:
256,192,24813,1,8,0:0:0:0:
256,192,25156,1,8,0:0:0:0:
256,192,25841,1,0,0:0:0:0:
256,192,26527,1,8,0:0:0:0:
256,192,27213,1,8,0:0:0:0:
256,192,27556,1,8,0:0:0:0:
256,192,27898,1,0,0:0:0:0:
256,192,28241,1,0,0:0:0:0:
256,192,28584,1,12,0:0:0:0:
256,192,29956,1,0,0:0:0:0:
256,192,30641,1,8,0:0:0:0:
256,192,30984,1,8,0:0:0:0:
256,192,31327,1,0,0:0:0:0:
256,192,32013,1,8,0:0:0:0:
256,192,32356,1,8,0:0:0:0:
256,192,32698,1,0,0:0:0:0:
256,192,33041,1,0,0:0:0:0:
256,192,33384,1,8,0:0:0:0:
256,192,34070,1,4,0:0:0:0:
256,192,35441,1,0,0:0:0:0:
256,192,36813,1,8,0:0:0:0:
256,192,38184,1,8,0:0:0:0:
256,192,39556,1,0,0:0:0:0:
256,192,40927,1,8,0:0:0:0:
256,192,41613,1,0,0:0:0:0:
256,192,42298,1,0,0:0:0:0:
256,192,43670,1,8,0:0:0:0:
256,192,44356,1,0,0:0:0:0:
256,192,45041,1,8,0:0:0:0:
256,192,46413,1,8,0:0:0:0:
256,192,47098,1,8,0:0:0:0:
256,192,47784,1,0,0:0:0:0:
256,192,48470,1,0,0:0:0:0:
256,192,49156,1,8,0:0:0:0:
256,192,50527,1,8,0:0:0:0:
256,192,51898,1,0,0:0:0:0:
256,192,52584,1,8,0:0:0:0:
256,192,53270,1,0,0:0:0:0:
256,192,53956,1,0,0:0:0:0:
256,192,54641,1,8,0:0:0:0:
256,192,55327,1,8,0:0:0:0:
256,192,56013,1,4,0:0:0:0:
256,192,56527,1,4,0:0:0:0:
256,192,57041,1,4,0:0:0:0:
256,224,58756,1,12,0:0:0:0:
256,224,59270,1,12,0:0:0:0:
256,224,59784,1,12,0:0:0:0:
256,224,60298,1,12,0:0:0:0:
256,224,61498,1,4,0:0:0:0:
256,224,62013,1,4,0:0:0:0:
256,224,62527,1,4,0:0:0:0:
256,224,63041,1,4,0:0:0:0:
256,224,63556,1,12,0:0:0:0:
256,192,63898,8,0,65613,0:0:0:0:
256,192,66984,5,12,0:0:0:0:
256,192,68013,1,8,0:0:0:0:
256,192,68698,1,8,0:0:0:0:
256,192,69041,1,0,0:0:0:0:
256,192,69727,1,8,0:0:0:0:
256,192,70756,1,0,0:0:0:0:
256,192,71441,1,0,0:0:0:0:
256,192,71784,1,8,0:0:0:0:
256,192,72127,1,0,0:0:0:0:
256,192,72470,1,12,0:0:0:0:
256,192,73498,1,8,0:0:0:0:
256,192,74184,1,8,0:0:0:0:
256,192,74527,1,0,0:0:0:0:
256,192,75213,1,8,0:0:0:0:
256,192,75556,1,8,0:0:0:0:
256,192,75898,1,0,0:0:0:0:
256,192,76241,1,0,0:0:0:0:
256,192,76584,1,8,0:0:0:0:
256,192,77613,1,0,0:0:0:0:
256,192,77956,1,12,0:0:0:0:
256,192,78813,1,0,0:0:0:0:
256,192,79156,1,8,0:0:0:0:
256,192,79498,1,8,0:0:0:0:
256,192,80013,1,0,0:0:0:0:
256,192,80698,1,12,0:0:0:0:
256,192,81556,1,8,0:0:0:0:
256,192,81898,1,8,0:0:0:0:
256,192,82241,1,0,0:0:0:0:
256,192,82756,1,8,0:0:0:0:
256,192,83441,1,12,0:0:0:0:
256,192,84298,1,0,0:0:0:0:
256,192,84641,1,0,0:0:0:0:
256,192,84984,1,8,0:0:0:0:
256,192,85498,1,0,0:0:0:0:
256,192,86184,1,12,0:0:0:0:
256,192,86870,1,8,0:0:0:0:
256,192,87213,1,8,0:0:0:0:
256,192,88241,1,0,0:0:0:0:
256,192,88584,1,0,0:0:0:0:
256,192,88927,1,12,0:0:0:0:
256,192,89613,1,8,0:0:0:0:
256,192,90298,1,8,0:0:0:0:
256,192,90641,1,0,0:0:0:0:
256,192,90984,1,8,0:0:0:0:
256,192,91327,1,8,0:0:0:0:
256,192,91670,1,0,0:0:0:0:
256,192,92356,1,0,0:0:0:0:
256,192,93041,1,8,0:0:0:0:
256,192,94413,1,8,0:0:0:0:
256,192,95098,1,8,0:0:0:0:
256,192,95784,1,8,0:0:0:0:
256,192,96127,1,0,0:0:0:0:
256,192,96470,1,8,0:0:0:0:
256,192,96813,1,8,0:0:0:0:
256,192,97156,1,4,0:0:0:0:
256,192,98527,1,12,0:0:0:0:
256,192,99898,1,4,0:0:0:0:
256,192,100584,1,8,0:0:0:0:
256,192,101613,1,8,0:0:0:0:
256,192,101956,1,8,0:0:0:0:
256,192,102641,1,0,0:0:0:0:
256,192,103327,1,8,0:0:0:0:
256,192,104356,1,0,0:0:0:0:
256,192,104698,1,8,0:0:0:0:
256,192,105384,1,0,0:0:0:0:
256,192,106070,1,8,0:0:0:0:
256,192,107098,1,8,0:0:0:0:
256,192,107441,1,8,0:0:0:0:
256,192,108127,1,0,0:0:0:0:
256,192,108813,1,8,0:0:0:0:
256,192,110184,1,8,0:0:0:0:
256,192,110527,1,8,0:0:0:0:
256,192,110870,1,4,0:0:0:0:
256,192,111556,1,8,0:0:0:0:
256,192,112584,1,8,0:0:0:0:
256,192,112927,1,8,0:0:0:0:
256,192,113613,1,0,0:0:0:0:
256,192,114298,1,8,0:0:0:0:
256,192,115327,1,0,0:0:0:0:
256,192,115670,1,8,0:0:0:0:
256,192,116356,1,0,0:0:0:0:
256,192,117041,1,8,0:0:0:0:
256,192,118070,1,8,0:0:0:0:
256,192,118413,1,8,0:0:0:0:
256,192,119098,1,0,0:0:0:0:
256,192,121841,1,4,0:0:0:0:
256,192,122356,1,0,0:0:0:0:
256,192,122870,1,8,0:0:0:0:
256,192,124584,1,0,0:0:0:0:
256,192,125956,1,8,0:0:0:0:
256,192,127327,1,8,0:0:0:0:
256,192,127841,1,8,0:0:0:0:
256,192,128356,1,0,0:0:0:0:
256,192,128870,1,0,0:0:0:0:
256,192,130070,1,8,0:0:0:0:
256,192,131441,1,0,0:0:0:0:
256,192,132127,1,0,0:0:0:0:
256,192,132813,1,12,0:0:0:0:
256,192,134184,1,0,0:0:0:0:
256,192,134870,1,8,0:0:0:0:
256,192,135213,1,0,0:0:0:0:
256,192,135556,1,8,0:0:0:0:
256,192,136241,1,8,0:0:0:0:
256,192,136927,1,0,0:0:0:0:
256,192,137613,1,0,0:0:0:0:
256,192,137956,1,0,0:0:0:0:
256,192,138298,1,8,0:0:0:0:
256,192,139670,1,0,0:0:0:0:
256,192,140356,1,8,0:0:0:0:
256,192,140698,1,0,0:0:0:0:
256,192,141041,1,8,0:0:0:0:
256,192,141727,1,8,0:0:0:0:
256,192,142413,1,0,0:0:0:0:
256,192,143098,1,0,0:0:0:0:
256,192,143441,1,0,0:0:0:0:
256,192,143784,1,12,0:0:0:0:
256,192,144813,1,8,0:0:0:0:
256,192,145498,1,8,0:0:0:0:
256,192,145841,1,0,0:0:0:0:
256,192,146527,1,8,0:0:0:0:
256,192,147213,1,8,0:0:0:0:
256,192,147556,1,0,0:0:0:0:
256,192,148241,1,0,0:0:0:0:
256,192,148584,1,8,0:0:0:0:
256,192,148927,1,0,0:0:0:0:
256,192,149270,1,12,0:0:0:0:
256,192,150298,1,8,0:0:0:0:
256,192,150984,1,8,0:0:0:0:
256,192,151327,1,0,0:0:0:0:
256,192,152013,1,8,0:0:0:0:
256,192,152356,1,8,0:0:0:0:
256,192,152698,1,0,0:0:0:0:
256,192,153041,1,0,0:0:0:0:
256,192,153384,1,8,0:0:0:0:
256,192,154756,1,12,0:0:0:0:
256,192,155784,1,8,0:0:0:0:
256,192,156470,1,0,0:0:0:0:
256,192,157156,1,0,0:0:0:0:
256,192,157498,1,8,0:0:0:0:
256,192,158184,1,8,0:0:0:0:
256,192,158527,1,0,0:0:0:0:
256,192,159213,1,8,0:0:0:0:
256,192,159556,1,0,0:0:0:0:
256,192,159898,1,8,0:0:0:0:
256,192,160241,1,0,0:0:0:0:
256,192,161270,1,8,0:0:0:0:
256,192,161956,1,0,0:0:0:0:
256,192,162298,1,8,0:0:0:0:
256,192,162984,1,0,0:0:0:0:
256,192,163670,1,8,0:0:0:0:
256,192,164356,1,0,0:0:0:0:
256,192,164698,1,0,0:0:0:0:
256,192,165041,1,8,0:0:0:0:
256,192,165384,1,0,0:0:0:0:
256,192,165727,1,12,0:0:0:0:
256,192,166756,1,0,0:0:0:0:
256,192,167441,1,0,0:0:0:0:
256,192,167784,1,8,0:0:0:0:
256,192,168470,1,8,0:0:0:0:
256,192,169156,1,0,0:0:0:0:
256,192,169841,1,8,0:0:0:0:
256,192,170184,1,8,0:0:0:0:
256,192,170527,1,0,0:0:0:0:
256,192,170870,1,8,0:0:0:0:
256,192,171213,1,0,0:0:0:0:
256,192,172241,1,8,0:0:0:0:
256,192,172584,1,0,0:0:0:0:
256,192,173270,1,8,0:0:0:0:
256,192,173613,1,8,0:0:0:0:
256,192,173956,1,0,0:0:0:0:
256,192,174298,1,0,0:0:0:0:
256,192,174641,1,8,0:0:0:0:
256,192,175327,1,0,0:0:0:0:
256,192,176698,1,12,0:0:0:0:
256,192,178070,1,0,0:0:0:0:
256,192,178413,1,8,0:0:0:0:
256,192,178756,1,8,0:0:0:0:
256,192,179441,1,0,0:0:0:0:
256,192,180127,1,8,0:0:0:0:
256,192,180813,1,8,0:0:0:0:
256,192,181156,1,8,0:0:0:0:
256,192,181498,1,0,0:0:0:0:
256,192,181841,1,0,0:0:0:0:
256,192,182184,1,8,0:0:0:0:
256,192,183556,1,0,0:0:0:0:
256,192,183898,1,8,0:0:0:0:
256,192,184241,1,8,0:0:0:0:
256,192,184927,1,0,0:0:0:0:
256,192,185613,1,8,0:0:0:0:
256,192,186298,1,8,0:0:0:0:
256,192,186641,1,8,0:0:0:0:
256,192,186984,1,0,0:0:0:0:
256,192,187327,1,0,0:0:0:0:
256,192,187670,1,12,0:0:0:0:
256,192,188698,1,8,0:0:0:0:
256,192,189041,1,0,0:0:0:0:
256,192,189727,1,8,0:0:0:0:
256,192,190413,1,0,0:0:0:0:
256,192,191441,1,0,0:0:0:0:
256,192,191784,1,8,0:0:0:0:
256,192,192470,1,8,0:0:0:0:
256,192,193156,1,0,0:0:0:0:
256,192,194184,1,8,0:0:0:0:
256,192,194527,1,0,0:0:0:0:
256,192,195213,1,8,0:0:0:0:
256,192,195898,1,0,0:0:0:0:
256,192,196927,1,0,0:0:0:0:
256,192,197270,1,8,0:0:0:0:
256,192,197956,1,0,0:0:0:0:
256,192,198641,1,12,0:0:0:0:
