osu file format v14

[General]
AudioFilename: audio.mp3
AudioLeadIn: 0
PreviewTime: -1
Countdown: 1
SampleSet: None
StackLeniency: 0.7
Mode: 0
LetterboxInBreaks: 0
WidescreenStoryboard: 1

[Editor]
DistanceSpacing: 2.7
BeatDivisor: 8
GridSize: 8
TimelineZoom: 1.9

[Metadata]
Title:Do Rana (prod.olek)
TitleUnicode:Do Rana (prod.olek)
Artist:Malik Montana
ArtistUnicode:Malik Montana
Creator:Kalafioras
Version:elhaberino
Source:#GM2LTV Youtube
Tags:"Polish Rap" "Hip-Hop" "Malik Montana"
BeatmapID:1447265
BeatmapSetID:683292

[Difficulty]
HPDrainRate:5
CircleSize:4
OverallDifficulty:5
ApproachRate:8
SliderMultiplier:1.4
SliderTickRate:1

[Events]
//Background and Video events
0,0,"montanadorana.jpg",0,0
//Break Periods
2,70420,84029
//Storyboard Layer 0 (Background)
//Storyboard Layer 1 (Fail)
//Storyboard Layer 2 (Pass)
//Storyboard Layer 3 (Foreground)
//Storyboard Sound Samples

[TimingPoints]
0,441.176470588235,4,1,0,100,1,0

[HitObjects]
152,192,28345,6,0,L|416:184,1,262.5
392,224,29558,1,0,0:0:0:0:
272,200,29779,1,0,0:0:0:0:
80,178,30055,2,0,L|144:120,1,70
152,112,30496,1,0,0:0:0:0:
184,168,30716,2,0,P|184:240|232:296,1,140
272,216,31378,2,0,P|360:96|360:96,1,140
336,272,32205,5,0,0:0:0:0:
304,192,32481,1,0,0:0:0:0:
240,128,32702,1,0,0:0:0:0:
168,176,32922,1,0,0:0:0:0:
296,64,33143,1,0,0:0:0:0:
240,232,33363,1,0,0:0:0:0:
360,112,33584,1,0,0:0:0:0:
304,280,33805,1,0,0:0:0:0:
424,160,34025,1,0,0:0:0:0:
376,224,34246,6,0,B|296:104|272:176,1,140
160,176,34852,2,0,B|208:256,1,87.5
328,224,35349,6,0,L|256:184,1,70
208,144,35790,2,0,L|96:240,1,140
224,200,36672,5,0,0:0:0:0:
152,144,36893,1,0,0:0:0:0:
288,144,37113,1,0,0:0:0:0:
176,80,37334,1,0,0:0:0:0:
304,72,37555,1,0,0:0:0:0:
160,144,37775,1,0,0:0:0:0:
296,144,37996,1,0,0:0:0:0:
184,224,38216,1,0,0:0:0:0:
328,216,38437,1,0,0:0:0:0:
240,304,38658,1,0,0:0:0:0:
240,304,39319,5,0,0:0:0:0:
256,160,39540,1,0,0:0:0:0:
296,304,39761,1,0,0:0:0:0:
312,160,39981,1,0,0:0:0:0:
360,312,40202,1,0,0:0:0:0:
368,152,40422,1,0,0:0:0:0:
416,320,40643,1,0,0:0:0:0:
424,152,40863,1,0,0:0:0:0:
480,320,41084,1,0,0:0:0:0:
480,232,41305,6,0,B|384:336|408:248|360:248,1,140
272,240,41966,2,0,B|232:176,1,70
232,184,42408,6,0,L|168:136,1,70
184,48,42849,2,0,L|264:64,1,70
256,64,43290,1,0,0:0:0:0:
192,120,43731,5,0,0:0:0:0:
256,256,43952,1,0,0:0:0:0:
328,128,44172,1,0,0:0:0:0:
192,200,44393,1,0,0:0:0:0:
336,208,44613,1,0,0:0:0:0:
280,176,44834,6,0,L|160:104,1,140
96,144,45496,2,0,L|88:224,1,70
88,240,45937,1,0,0:0:0:0:
152,200,46378,5,0,0:0:0:0:
224,280,46599,1,0,0:0:0:0:
256,168,46819,1,0,0:0:0:0:
312,288,47040,1,0,0:0:0:0:
360,160,47260,1,0,0:0:0:0:
416,288,47481,1,0,0:0:0:0:
152,200,47702,1,0,0:0:0:0:
224,280,47923,1,0,0:0:0:0:
256,168,48143,1,0,0:0:0:0:
320,296,48363,2,0,L|352:176,1,122.5
160,208,49025,2,0,L|192:272,1,70
312,288,49466,5,0,0:0:0:0:
360,160,49686,1,0,0:0:0:0:
416,288,49907,1,0,0:0:0:0:
432,160,50128,1,0,0:0:0:0:
432,160,50349,1,0,0:0:0:0:
312,216,50790,5,0,0:0:0:0:
288,112,51011,1,0,0:0:0:0:
200,200,51231,1,0,0:0:0:0:
352,160,51452,1,0,0:0:0:0:
216,104,51672,1,0,0:0:0:0:
312,256,51893,6,0,L|168:256,1,140
128,232,52555,2,0,L|96:96,1,140
168,160,53438,5,0,0:0:0:0:
272,120,53659,1,0,0:0:0:0:
208,224,53880,1,0,0:0:0:0:
304,176,54100,1,0,0:0:0:0:
264,280,54321,1,0,0:0:0:0:
352,240,54541,1,0,0:0:0:0:
376,168,54761,1,0,0:0:0:0:
280,272,54981,1,0,0:0:0:0:
272,152,55202,1,0,0:0:0:0:
208,264,55422,6,0,L|96:160,1,140
112,72,56084,2,0,L|192:64,1,70
181,65,56525,1,0,0:0:0:0:
320,128,57426,5,0,0:0:0:0:
168,120,58529,2,0,P|216:104|240:96,1,70
280,96,59172,1,0,0:0:0:0:
328,224,60055,1,0,0:0:0:0:
328,224,60496,1,0,0:0:0:0:
128,288,60937,1,0,0:0:0:0:
176,184,62647,1,0,0:0:0:0:
264,144,63014,2,0,B|352:88|344:96,1,93.3333333333333
344,104,63529,1,0,0:0:0:0:
360,216,64411,1,0,0:0:0:0:
120,152,65588,2,0,L|184:120,1,70
312,112,66249,1,0,0:0:0:0:
288,240,67058,2,0,L|432:272,1,140
408,184,67941,1,0,0:0:0:0:
136,200,68897,2,0,L|160:184,1,23.3333333333333
155,187,69191,1,0,0:0:0:0:
242,133,69411,1,0,0:0:0:0:
368,104,69705,1,0,0:0:0:0:
336,168,70073,2,0,L|304:208,1,46.6666666666667
64,312,84779,6,0,L|328:304,1,262.5
184,208,86029,1,0,0:0:0:0:
280,152,86249,1,0,0:0:0:0:
400,208,86489,2,0,L|448:264,1,70
112,176,86930,1,0,0:0:0:0:
48,176,87150,2,0,P|48:248|96:304,1,140
368,296,87812,6,0,P|456:176|456:176,1,140
176,272,88676,5,0,0:0:0:0:
344,272,88952,1,0,0:0:0:0:
256,128,89173,1,0,0:0:0:0:
168,264,89393,1,0,0:0:0:0:
344,272,89614,1,0,0:0:0:0:
256,128,89834,1,0,0:0:0:0:
168,264,90055,1,0,0:0:0:0:
344,272,90276,1,0,0:0:0:0:
256,128,90496,1,0,0:0:0:0:
176,264,90735,6,0,B|96:144|72:216,1,140
368,216,91341,2,0,B|416:296,1,87.5
344,304,91838,6,0,L|272:264,1,70
176,80,92279,2,0,L|64:176,1,140
176,80,93161,5,0,0:0:0:0:
328,80,93382,1,0,0:0:0:0:
256,192,93602,1,0,0:0:0:0:
176,80,93823,1,0,0:0:0:0:
328,80,94044,1,0,0:0:0:0:
256,192,94264,1,0,0:0:0:0:
256,272,94485,1,0,0:0:0:0:
168,192,94705,1,0,0:0:0:0:
344,192,94926,1,0,0:0:0:0:
256,120,95147,1,0,0:0:0:0:
184,256,95808,5,0,0:0:0:0:
320,144,96029,1,0,0:0:0:0:
192,264,96250,1,0,0:0:0:0:
328,152,96470,1,0,0:0:0:0:
200,272,96691,1,0,0:0:0:0:
336,160,96911,1,0,0:0:0:0:
416,320,97132,1,0,0:0:0:0:
424,152,97352,1,0,0:0:0:0:
480,320,97573,1,0,0:0:0:0:
480,232,97794,6,0,B|384:336|408:248|360:248,1,140
272,240,98455,2,0,B|232:176,1,70
232,184,98897,6,0,L|168:136,1,70
184,48,99338,2,0,L|264:64,1,70
256,64,99779,1,0,0:0:0:0:
192,120,100220,5,0,0:0:0:0:
256,256,100441,1,0,0:0:0:0:
328,128,100661,1,0,0:0:0:0:
192,200,100882,1,0,0:0:0:0:
336,208,101102,1,0,0:0:0:0:
280,176,101323,6,0,L|160:104,1,140
96,144,101985,2,0,L|88:224,1,70
88,240,102426,1,0,0:0:0:0:
200,248,102867,5,0,0:0:0:0:
312,144,103088,1,0,0:0:0:0:
312,248,103308,1,0,0:0:0:0:
200,144,103529,1,0,0:0:0:0:
200,248,103749,1,0,0:0:0:0:
312,144,103970,1,0,0:0:0:0:
312,248,104191,1,0,0:0:0:0:
80,280,104393,1,0,0:0:0:0:
224,256,104613,1,0,0:0:0:0:
144,264,104852,2,0,L|128:144,1,116.666666666667
160,112,105514,2,0,L|232:152,1,70
192,296,105955,5,0,0:0:0:0:
312,184,106175,1,0,0:0:0:0:
312,296,106396,1,0,0:0:0:0:
192,184,106617,1,0,0:0:0:0:
256,240,106838,1,0,0:0:0:0:
368,152,107279,5,0,0:0:0:0:
360,264,107500,1,0,0:0:0:0:
264,200,107720,1,0,0:0:0:0:
368,152,107941,1,0,0:0:0:0:
360,264,108161,1,0,0:0:0:0:
272,264,108382,6,0,L|128:264,1,140
48,216,109044,2,0,L|184:152,1,140
136,248,109907,5,0,0:0:0:0:
200,120,110148,1,0,0:0:0:0:
256,256,110349,1,0,0:0:0:0:
336,120,110589,1,0,0:0:0:0:
408,264,110810,1,0,0:0:0:0:
336,120,111030,1,0,0:0:0:0:
256,256,111231,1,0,0:0:0:0:
200,120,111452,1,0,0:0:0:0:
136,248,111672,1,0,0:0:0:0:
56,264,111911,6,0,L|56:144,1,116.666666666667
112,72,112573,2,0,L|192:64,1,70
181,65,113014,1,0,0:0:0:0:
