osu file format v14

[General]
AudioFilename: audio.mp3
AudioLeadIn: 0
PreviewTime: 62483
Countdown: 1
SampleSet: Soft
StackLeniency: 0.3
Mode: 0
LetterboxInBreaks: 0
WidescreenStoryboard: 0

[Editor]
DistanceSpacing: 1.3
BeatDivisor: 4
GridSize: 4
TimelineZoom: 1

[Metadata]
Title:Croatian Rhapsody
TitleUnicode:Croatian Rhapsody
Artist:Maksim Mrvica
ArtistUnicode:Maksim Mrvica
Creator:haha5957
Version:Presto
Source:
Tags:The Piano Player
BeatmapID:1778453
BeatmapSetID:850663

[Difficulty]
HPDrainRate:5.9
CircleSize:4.3
OverallDifficulty:9.2
ApproachRate:9.2
SliderMultiplier:3.6
SliderTickRate:2

[Events]
//Background and Video events
0,0,"bg.jpeg",0,0
//Break Periods
//Storyboard Layer 0 (Background)
//Storyboard Layer 1 (Fail)
//Storyboard Layer 2 (Pass)
//Storyboard Layer 3 (Foreground)
//Storyboard Sound Samples

[TimingPoints]
284,625,4,2,2,65,1,0
284,-100,4,2,2,5,0,0
2784,-133.333333333333,4,2,2,65,0,0
3252,-133.333333333333,4,2,2,25,0,0
3431,625,4,2,2,40,1,0
4033,625,4,2,2,65,1,0
4033,-133.333333333333,4,2,2,65,0,0
4501,-133.333333333333,4,2,2,25,0,0
4669,625,4,2,2,40,1,0
5294,625,4,2,2,65,1,0
5294,-133.333333333333,4,2,2,65,0,0
5762,-133.333333333333,4,2,2,25,0,0
5919,-133.333333333333,4,2,2,65,0,0
6075,-133.333333333333,4,2,2,25,0,0
6231,-133.333333333333,4,2,2,65,0,0
6700,-133.333333333333,4,2,2,25,0,0
6856,-133.333333333333,4,2,2,65,0,0
7481,-133.333333333333,4,2,2,25,0,0
7794,-133.333333333333,4,2,2,65,0,0
8262,-133.333333333333,4,2,2,25,0,0
8419,-133.333333333333,4,2,2,65,0,0
8575,-133.333333333333,4,2,2,25,0,0
8731,-133.333333333333,4,2,2,65,0,0
9993,625,4,2,2,65,1,0
9993,-133.333333333333,4,2,2,65,0,0
15774,-133.333333333333,4,2,2,25,0,0
15931,-133.333333333333,4,2,2,65,0,0
16555,-133.333333333333,4,2,2,25,0,0
16868,-133.333333333333,4,2,2,65,0,0
17786,625,4,2,2,65,1,0
17786,-133.333333333333,4,2,2,65,0,0
20754,-133.333333333333,4,2,2,25,0,0
20911,-133.333333333333,4,2,2,65,0,0
21536,-133.333333333333,4,2,2,25,0,0
21840,625,4,2,2,65,1,0
21996,-133.333333333333,4,2,2,65,0,0
25306,625,4,2,2,65,1,0
25306,-133.333333333333,4,2,2,65,0,0
25774,-133.333333333333,4,2,2,25,0,0
25931,-133.333333333333,4,2,2,65,0,0
26712,-133.333333333333,4,2,2,25,0,0
26868,-133.333333333333,4,2,2,65,0,0
30285,625,4,2,2,65,1,0
30285,-133.333333333333,4,2,2,65,0,0
30606,625,4,2,2,65,1,0
30606,-133.333333333333,4,2,2,65,0,0
30762,-133.333333333333,4,2,2,25,0,0
30918,-133.333333333333,4,2,2,65,0,0
31621,-100,4,2,2,25,0,0
31856,-133.333333333333,4,1,2,65,0,0
32168,-100,4,1,2,65,0,0
32806,625,4,1,2,75,1,0
33431,-80,4,1,2,75,0,0
34056,-100,4,1,2,75,0,0
34681,-80,4,1,2,75,0,0
35306,-100,4,1,2,75,0,0
35931,-80,4,1,2,75,0,0
36556,-100,4,1,2,75,0,0
38431,-80,4,1,2,75,0,0
39056,-100,4,1,2,75,0,0
39681,-80,4,1,2,75,0,0
40306,-100,4,1,2,75,0,0
40931,-80,4,1,2,75,0,0
41556,-100,4,1,2,75,0,0
44056,-66.6666666666667,4,1,2,75,0,0
44368,-72.992700729927,4,1,2,75,0,0
44681,-80,4,1,2,75,0,0
44993,-89.2857142857143,4,1,2,75,0,0
45306,-100,4,1,2,75,0,0
46556,-66.6666666666667,4,1,2,75,0,0
46868,-80,4,1,2,75,0,0
47181,-100,4,1,2,75,0,0
47493,-66.6666666666667,4,1,2,75,0,0
47806,-100,4,1,2,75,0,0
49056,-66.6666666666667,4,1,2,75,0,0
49368,-72.992700729927,4,1,2,75,0,0
49681,-80,4,1,2,75,0,0
49993,-89.2857142857143,4,1,2,75,0,0
50306,-100,4,1,2,75,0,0
52181,-133.333333333333,4,1,2,75,0,0
52337,-133.333333333333,4,1,2,50,0,0
52806,-100,4,1,2,75,0,0
54056,-66.6666666666667,4,1,2,75,0,0
54368,-72.992700729927,4,1,2,75,0,0
54681,-80,4,1,2,75,0,0
54993,-89.2857142857143,4,1,2,75,0,0
55306,-100,4,1,2,75,0,0
56556,-66.6666666666667,4,1,2,75,0,0
56868,-80,4,1,2,75,0,0
57181,-100,4,1,2,75,0,0
57493,-66.6666666666667,4,1,2,75,0,0
57806,-100,4,1,2,75,0,0
59056,-66.6666666666667,4,1,2,75,0,0
59368,-72.992700729927,4,1,2,75,0,0
59681,-80,4,1,2,75,0,0
59993,-89.2857142857143,4,1,2,75,0,0
60306,-100,4,1,2,75,0,0
62806,-80,4,1,2,75,0,0
64056,-57.1428571428571,4,1,2,75,0,0
64368,-66.6666666666667,4,1,2,75,0,0
64681,-80,4,1,2,75,0,0
64993,-100,4,1,2,75,0,0
65306,-80,4,1,2,75,0,0
66556,-66.6666666666667,4,1,2,75,0,0
66868,-72.992700729927,4,1,2,75,0,0
67181,-80,4,1,2,75,0,0
67493,-89.2857142857143,4,1,2,75,0,0
67806,-100,4,1,2,75,0,0
69056,-80,4,1,2,75,0,0
69368,-89.2857142857143,4,1,2,75,0,0
69681,-100,4,1,2,75,0,0
69993,-113.636363636364,4,1,2,75,0,0
70462,-80,4,1,2,10,0,0
70618,-80,4,1,2,75,0,0
70931,-133.333333333333,4,1,2,75,0,0
71556,-66.6666666666667,4,1,2,75,0,0
71712,-66.6666666666667,4,1,2,10,0,0
71868,-50,4,1,2,80,0,0
72024,-50,4,1,2,10,0,0
72181,-36.3636363636364,4,1,2,90,0,0
72337,-36.3636363636364,4,1,2,10,0,0
72493,-100,4,1,2,40,0,0
72806,-100,4,1,2,75,0,1
74056,-66.6666666666667,4,1,2,75,0,1
74368,-100,4,1,2,75,0,1
74681,-66.6666666666667,4,1,2,75,0,1
74993,-50,4,1,2,75,0,1
75306,-200,4,1,2,75,0,1
75918,625,4,1,2,75,1,1
75918,-57.1428571428571,4,1,2,75,0,1
76855,-66.6666666666667,4,1,2,75,0,1
77168,-80,4,1,2,75,0,1
77480,-100,4,1,2,75,0,1
77806,625,4,1,2,75,1,1
77806,-80,4,1,2,75,0,1
79056,-66.6666666666667,4,1,2,75,0,1
79368,-80,4,1,2,75,0,1
79681,-100,4,1,2,75,0,1
79993,-133.333333333333,4,1,2,75,0,1
80306,-100,4,1,2,75,0,1
82181,-80,4,1,2,85,0,1
84056,-57.1428571428571,4,1,2,90,0,1
84681,-57.1428571428571,4,1,2,95,0,1
85306,-100,4,1,2,100,0,0
85462,-100,4,1,2,40,0,0
94993,-100,4,1,2,40,0,0
95306,-100,4,1,2,75,0,0
116556,-66.6666666666667,4,1,2,75,0,0
116868,-72.992700729927,4,1,2,75,0,0
117181,-80,4,1,2,75,0,0
117493,-89.2857142857143,4,1,2,75,0,0
117806,-100,4,1,2,75,0,0
119056,-66.6666666666667,4,1,2,75,0,0
119368,-72.992700729927,4,1,2,75,0,0
119681,-80,4,1,2,75,0,0
119993,-66.6666666666667,4,1,2,75,0,0
120306,-100,4,1,2,75,0,0
121556,-66.6666666666667,4,1,2,75,0,0
121868,-72.992700729927,4,1,2,75,0,0
122181,-80,4,1,2,75,0,0
122493,-89.2857142857143,4,1,2,75,0,0
122806,-100,4,1,2,75,0,0
124993,-100,4,1,2,50,0,0
125306,-90.9090909090909,4,1,2,75,0,1
126556,-60.6060606060606,4,1,2,75,0,1
126868,-90.9090909090909,4,1,2,75,0,1
127181,-60.6060606060606,4,1,2,75,0,1
127493,-45.4545454545455,4,1,2,75,0,1
127806,-181.818181818182,4,1,2,75,0,1
128431,-51.8134715025907,4,1,2,75,0,1
129368,-60.6060606060606,4,1,2,75,0,1
129681,-72.463768115942,4,1,2,75,0,1
129993,-90.9090909090909,4,1,2,75,0,1
130306,-100,4,1,2,75,0,1
131556,-57.1428571428571,4,1,2,75,0,1
131868,-66.6666666666667,4,1,2,75,0,1
132181,-80,4,1,2,75,0,1
132493,-100,4,1,2,75,0,1
135306,-80,4,1,2,75,0,1
137806,-100,4,1,2,75,0,0
147806,-90.9090909090909,4,1,2,75,0,0
157806,-83.3333333333333,4,1,2,75,0,1
159056,-55.5555555555556,4,1,2,75,0,1
159368,-62.5,4,1,2,75,0,1
159681,-71.4285714285714,4,1,2,75,0,1
159993,-83.3333333333333,4,1,2,75,0,1
161556,-55.5555555555556,4,1,2,75,0,1
161868,-66.6666666666667,4,1,2,75,0,1
162181,-83.3333333333333,4,1,2,75,0,1
162493,-55.5555555555556,4,1,2,75,0,1
162806,-83.3333333333333,4,1,2,75,0,1
164056,-55.5555555555556,4,1,2,75,0,1
164368,-62.5,4,1,2,75,0,1
164681,-71.4285714285714,4,1,2,75,0,1
164993,-83.3333333333333,4,1,2,75,0,1
167493,-100,4,1,2,50,0,1
167806,-83.3333333333333,4,1,2,75,0,1
169056,-55.5555555555556,4,1,2,75,0,1
169368,-83.3333333333333,4,1,2,75,0,1
169681,-55.5555555555556,4,1,2,75,0,1
169993,-41.6666666666667,4,1,2,75,0,1
170306,-166.666666666667,4,1,2,75,0,1
170931,-47.6190476190476,4,1,2,75,0,1
171868,-55.5555555555556,4,1,2,75,0,1
172181,-66.6666666666667,4,1,2,75,0,1
172493,-83.3333333333333,4,1,2,75,0,1
172806,-100,4,1,2,75,0,1
174056,-55.5555555555556,4,1,2,75,0,1
174368,-62.5,4,1,2,75,0,1
174681,-71.4285714285714,4,1,2,75,0,1
174993,-83.3333333333333,4,1,2,75,0,1
176556,685.714285714286,4,1,2,75,1,1
176556,-108.695652173913,4,1,2,75,0,1
177070,744.647843623953,4,1,2,75,1,1
177070,-120.481927710843,4,1,2,75,0,1
178000,625,4,1,2,75,1,0
206750,-100,4,2,0,90,0,0
207531,-100,4,2,0,40,0,0
210500,-100,4,2,2,5,0,0

[Colours]
Combo1 : 255,19,26
Combo2 : 255,130,130
Combo3 : 255,194,121
Combo4 : 255,251,162
Combo5 : 123,255,133
Combo6 : 200,200,200

[HitObjects]
256,192,284,12,0,2471,0:0:0:0:
84,52,2784,5,0,0:0:0:0:
32,120,2940,1,0,0:0:0:0:
100,44,3096,2,0,P|136:32|182:27,1,67.5000025749208
148,180,3431,5,2,0:0:0:0:
172,172,3587,1,0,0:0:0:0:
192,168,3743,1,0,0:0:0:0:
376,344,4033,5,0,0:0:0:0:
456,356,4189,1,0,0:0:0:0:
356,332,4345,2,0,P|316:308|296:264,1,67.5000025749208
432,224,4669,5,2,0:0:0:0:
408,212,4825,1,0,0:0:0:0:
392,192,4981,1,0,0:0:0:0:
216,160,5294,37,0,0:0:0:0:
276,104,5450,1,0,0:0:0:0:
200,176,5606,2,0,P|184:216|184:284,1,67.5000025749208
48,336,5919,2,0,L|116:336,1,67.5000025749208,2|0,0:0|0:0,0:0:0:0:
80,232,6231,5,0,0:0:0:0:
80,232,6387,1,0,0:0:0:0:
80,232,6544,2,0,P|60:200|52:152,1,67.5000025749208
116,80,6856,5,0,0:0:0:0:
116,80,7012,1,0,0:0:0:0:
116,80,7169,2,0,P|188:52|272:80,1,135.000005149842,2|0,0:0|0:0,0:0:0:0:
288,244,7794,5,0,0:0:0:0:
220,288,7950,1,0,0:0:0:0:
308,240,8106,2,0,P|352:240|392:264,1,67.5000025749208
328,344,8419,1,2,0:0:0:0:
360,88,8731,37,0,0:0:0:0:
456,104,8887,1,0,0:0:0:0:
352,104,9044,5,0,0:0:0:0:
344,120,9200,1,0,0:0:0:0:
336,136,9356,2,0,P|272:148|200:120,1,135.000005149842,0|2,0:0|0:0,0:0:0:0:
68,88,9993,5,0,0:0:0:0:
176,32,10149,1,0,0:0:0:0:
76,104,10305,5,0,0:0:0:0:
84,120,10461,1,0,0:0:0:0:
92,140,10618,2,0,P|52:212|56:264,1,135.000005149842,0|2,0:0|0:0,0:0:0:0:
200,296,11243,37,0,0:0:0:0:
220,292,11399,1,0,0:0:0:0:
240,288,11555,1,0,0:0:0:0:
376,212,11868,5,0,0:0:0:0:
356,208,12024,1,0,0:0:0:0:
336,204,12180,1,2,0:0:0:0:
160,72,12805,5,0,0:0:0:0:
216,140,12961,1,0,0:0:0:0:
128,156,13118,2,0,P|72:88|84:28,1,135.000005149842,0|2,0:0|0:0,0:0:0:0:
328,24,13743,5,0,0:0:0:0:
328,24,13899,1,0,0:0:0:0:
436,24,14055,37,0,0:0:0:0:
384,96,14211,1,0,0:0:0:0:
472,108,14368,2,0,P|396:184|352:180,1,135.000005149842,0|2,0:0|0:0,0:0:0:0:
256,336,14993,5,0,0:0:0:0:
256,336,15149,1,0,0:0:0:0:
148,344,15305,5,0,0:0:0:0:
176,260,15461,1,0,0:0:0:0:
88,276,15618,2,0,P|96:212|188:176,1,135.000005149842,0|2,0:0|0:0,0:0:0:0:
328,240,16243,5,0,0:0:0:0:
328,240,16399,2,0,L|240:240,1,67.5000025749208
364,56,16868,37,0,0:0:0:0:
448,32,17024,1,0,0:0:0:0:
428,116,17180,2,0,P|352:144|296:112,1,135.000005149842,2|0,0:0|0:0,0:0:0:0:
116,56,17786,5,0,0:0:0:0:
200,32,17942,1,0,0:0:0:0:
180,116,18098,2,0,P|116:144|48:108,1,135.000005149842,0|2,0:0|0:0,0:0:0:0:
64,340,18723,5,0,0:0:0:0:
64,340,18879,1,0,0:0:0:0:
172,320,19035,5,0,0:0:0:0:
108,260,19192,1,0,0:0:0:0:
192,232,19348,2,0,P|252:276|256:364,1,135.000005149842,0|2,0:0|0:0,0:0:0:0:
420,224,19973,37,0,0:0:0:0:
420,224,20129,1,0,0:0:0:0:
356,136,20286,5,0,0:0:0:0:
444,144,20442,1,0,0:0:0:0:
404,64,20598,2,0,P|336:52|280:96,1,135.000005149842,0|2,0:0|0:0,0:0:0:0:
108,192,21223,5,0,0:0:0:0:
108,192,21379,2,0,L|192:192,1,67.5000025749208
400,284,21840,5,0,0:0:0:0:
352,356,21996,1,0,0:0:0:0:
320,272,22152,2,0,P|360:212|432:208,1,135.000005149842,2|0,0:0|0:0,0:0:0:0:
248,32,22777,37,0,0:0:0:0:
332,52,22933,1,0,0:0:0:0:
272,116,23090,2,0,P|192:100|160:36,1,135.000005149842,0|2,0:0|0:0,0:0:0:0:
60,232,23715,5,0,0:0:0:0:
60,232,23871,1,0,0:0:0:0:
116,324,24027,5,0,0:0:0:0:
176,260,24183,1,0,0:0:0:0:
196,344,24340,2,0,P|256:292|248:208,2,135.000005149842,0|2|0,0:0|0:0|0:0,0:0:0:0:
388,320,25306,5,0,0:0:0:0:
468,352,25462,1,0,0:0:0:0:
452,264,25618,2,0,P|460:204|440:180,1,67.5000025749208
408,128,25931,1,2,0:0:0:0:
252,68,26243,37,0,0:0:0:0:
252,68,26399,1,0,0:0:0:0:
252,68,26556,2,0,P|276:104|284:152,1,67.5000025749208
184,176,26868,5,0,0:0:0:0:
184,176,27024,1,0,0:0:0:0:
184,176,27181,2,0,P|136:224|116:304,1,135.000005149842,2|0,0:0|0:0,0:0:0:0:
40,48,27806,5,0,0:0:0:0:
128,48,27962,1,0,0:0:0:0:
84,124,28118,1,0,0:0:0:0:
212,24,28431,1,2,0:0:0:0:
276,240,28743,5,0,0:0:0:0:
276,240,28899,1,0,0:0:0:0:
336,332,29056,37,0,0:0:0:0:
364,248,29212,1,0,0:0:0:0:
424,312,29368,2,0,P|452:236|408:180,2,135.000005149842,0|2|0,0:0|0:0|0:0,0:0:0:0:
424,108,30285,5,0,0:0:0:0:
352,56,30441,1,0,0:0:0:0:
340,148,30606,2,0,P|272:96|268:64,1,67.5000025749208
264,32,30918,1,2,0:0:0:0:
112,144,31231,5,0,0:0:0:0:
112,144,31387,1,0,0:0:0:0:
112,144,31543,2,0,P|116:160|128:196,3,33.7500012874604
76,276,31856,5,10,0:0:0:0:
168,40,32168,1,2,0:0:0:0:
168,40,32324,1,2,0:0:0:0:
168,40,32481,1,2,0:0:0:0:
380,260,32806,37,6,0:0:0:0:
380,260,32962,1,2,0:0:0:0:
380,260,33118,2,0,P|328:244|272:272,1,90,2|0,0:0|0:0,0:0:0:0:
480,300,33431,5,10,0:0:0:0:
304,336,33587,1,2,0:0:0:0:
368,168,33743,2,0,P|304:160|248:176,1,112.5,2|0,0:0|0:0,0:0:0:0:
140,252,34056,5,2,0:0:0:0:
140,252,34212,1,2,0:0:0:0:
140,252,34368,2,0,P|96:216|88:168,1,90,2|0,0:0|0:0,0:0:0:0:
216,316,34681,5,10,0:0:0:0:
156,152,34837,1,2,0:0:0:0:
52,296,34993,2,0,P|16:240|8:172,1,112.5,2|0,0:0|0:0,0:0:0:0:
164,36,35306,37,2,0:0:0:0:
164,36,35462,1,2,0:0:0:0:
164,36,35618,2,0,P|212:76|224:124,1,90,2|0,0:0|0:0,0:0:0:0:
380,280,35931,6,0,P|388:224|348:148,1,112.5,10|0,0:0|0:0,0:0:0:0:
304,320,36243,1,2,0:0:0:0:
456,320,36399,2,0,P|472:228|424:108,1,225,2|0,0:0|0:0,0:0:0:0:
308,232,36868,5,2,0:0:0:0:
220,336,37024,1,2,0:0:0:0:
176,200,37181,2,0,P|192:144|232:116,1,90,10|0,0:0|0:0,0:0:0:0:
284,88,37493,1,0,0:0:0:0:
284,88,37649,1,0,0:0:0:0:
320,20,37806,5,2,0:0:0:0:
320,20,37962,1,2,0:0:0:0:
320,20,38118,2,0,P|360:72|356:120,1,90,2|0,0:0|0:0,0:0:0:0:
480,92,38431,37,10,0:0:0:0:
328,188,38587,1,2,0:0:0:0:
480,280,38743,2,0,P|440:336|376:356,1,112.5,2|0,0:0|0:0,0:0:0:0:
436,180,39056,5,2,0:0:0:0:
436,180,39212,1,2,0:0:0:0:
436,180,39368,2,0,P|400:240|360:264,1,90,2|0,0:0|0:0,0:0:0:0:
172,348,39681,5,10,0:0:0:0:
244,184,39837,1,2,0:0:0:0:
64,200,39993,2,0,P|36:140|52:76,1,112.5,2|0,0:0|0:0,0:0:0:0:
160,256,40306,5,2,0:0:0:0:
160,256,40462,1,2,0:0:0:0:
160,256,40618,2,0,P|144:184|144:144,1,90,2|0,0:0|0:0,0:0:0:0:
328,68,40931,38,0,P|304:148|312:196,1,112.5,10|0,0:0|0:0,0:0:0:0:
400,44,41243,1,2,0:0:0:0:
264,24,41399,2,0,P|224:128|244:240,1,225,2|0,0:0|0:0,0:0:0:0:
332,352,41868,5,2,0:0:0:0:
476,340,42024,1,2,0:0:0:0:
392,220,42181,2,0,P|384:160|388:120,1,90,10|0,0:0|0:0,0:0:0:0:
328,68,42493,1,0,0:0:0:0:
328,68,42649,1,0,0:0:0:0:
264,24,42806,5,2,0:0:0:0:
152,72,42962,5,2,0:0:0:0:
184,140,43118,1,2,0:0:0:0:
168,212,43274,1,2,0:0:0:0:
72,352,43431,37,10,0:0:0:0:
180,284,43587,5,2,0:0:0:0:
240,332,43743,1,2,0:0:0:0:
316,320,43899,1,2,0:0:0:0:
388,344,44056,6,0,P|448:284|456:208,1,135.000005149842,2|0,0:0|0:0,0:0:0:0:
456,52,44368,6,0,P|392:80|364:144,1,123.300003480606,2|0,0:0|0:0,0:0:0:0:
288,248,44681,38,0,P|248:204|232:152,1,112.5,10|0,0:0|0:0,0:0:0:0:
240,32,44993,6,0,P|176:40|140:72,1,100.800001230469,2|0,0:0|0:0,0:0:0:0:
356,24,45306,5,2,0:0:0:0:
316,172,45462,5,2,0:0:0:0:
388,196,45618,1,2,0:0:0:0:
456,172,45774,1,2,0:0:0:0:
452,40,45931,37,10,0:0:0:0:
468,216,46087,5,2,0:0:0:0:
436,284,46243,1,2,0:0:0:0:
376,324,46399,1,2,0:0:0:0:
260,315,46556,6,0,P|199:338|139:312,1,135.000005149842,2|0,0:0|0:0,0:0:0:0:
176,88,46868,6,0,P|198:139|184:196,1,112.5,2|0,0:0|0:0,0:0:0:0:
64,292,47181,38,0,P|94:244|137:240,1,90,10|0,0:0|0:0,0:0:0:0:
324,352,47493,6,0,P|360:304|356:232,1,135.000005149842,2|0,0:0|0:0,0:0:0:0:
312,36,47806,5,2,0:0:0:0:
176,88,47962,5,2,0:0:0:0:
196,156,48118,1,2,0:0:0:0:
248,208,48274,1,2,0:0:0:0:
368,152,48431,37,10,0:0:0:0:
288,272,48587,5,2,0:0:0:0:
256,336,48743,1,2,0:0:0:0:
184,356,48899,1,2,0:0:0:0:
47,225,49056,6,0,P|59:290|108:336,1,135.000005149842,2|0,0:0|0:0,0:0:0:0:
190,41,49368,6,0,P|129:32|72:52,1,123.300003480606,2|0,0:0|0:0,0:0:0:0:
284,64,49681,38,0,P|256:111|205:135,1,112.5,10|0,0:0|0:0,0:0:0:0:
136,200,49993,6,0,P|184:232|236:224,1,100.800001230469,2|0,0:0|0:0,0:0:0:0:
376,200,50306,5,2,0:0:0:0:
256,344,50618,1,2,0:0:0:0:
256,100,50931,1,10,0:0:0:0:
256,344,51243,1,2,0:0:0:0:
256,344,51556,5,2,0:0:0:0:
256,32,51868,1,10,0:0:0:0:
256,344,52181,2,0,L|256:263,2,67.5000025749208,2|0|0,0:0|0:0|0:0,0:0:0:0:
328,68,52806,37,2,0:0:0:0:
320,212,52962,1,2,0:0:0:0:
200,132,53118,1,2,0:0:0:0:
328,68,53274,1,2,0:0:0:0:
204,260,53431,5,10,0:0:0:0:
284,140,53587,1,2,0:0:0:0:
352,268,53743,1,2,0:0:0:0:
204,260,53899,1,2,0:0:0:0:
260,24,54056,6,0,P|336:72|336:172,1,135.000005149842,2|0,0:0|0:0,0:0:0:0:
400,300,54368,6,0,P|324:324|256:268,1,123.300003480606,2|0,0:0|0:0,0:0:0:0:
236,244,54681,38,0,P|240:188|300:144,1,112.5,10|0,0:0|0:0,0:0:0:0:
348,192,54993,6,0,P|420:212|436:236,1,100.800001230469,2|0,0:0|0:0,0:0:0:0:
480,160,55306,5,2,0:0:0:0:
476,16,55462,1,2,0:0:0:0:
304,76,55618,1,2,0:0:0:0:
444,88,55774,1,2,0:0:0:0:
256,272,55931,5,10,0:0:0:0:
256,128,56087,1,2,0:0:0:0:
80,188,56243,1,2,0:0:0:0:
220,200,56399,1,2,0:0:0:0:
104,44,56556,38,0,P|160:104|133:181,1,135.000005149842,2|0,0:0|0:0,0:0:0:0:
256,272,56868,6,0,P|176:308|120:284,1,112.5,2|0,0:0|0:0,0:0:0:0:
76,273,57181,6,0,P|67:220|86:179,1,90,10|0,0:0|0:0,0:0:0:0:
304,348,57493,6,0,P|340:288|320:192,1,135.000005149842,2|0,0:0|0:0,0:0:0:0:
484,68,57806,37,2,0:0:0:0:
368,148,57962,1,2,0:0:0:0:
356,4,58118,1,2,0:0:0:0:
484,68,58274,1,2,0:0:0:0:
244,84,58431,5,10,0:0:0:0:
248,228,58587,1,2,0:0:0:0:
120,160,58743,1,2,0:0:0:0:
244,84,58899,1,2,0:0:0:0:
256,344,59056,6,0,P|344:348|428:300,1,135.000005149842,2|0,0:0|0:0,0:0:0:0:
492,232,59368,6,0,P|416:232|356:256,1,123.300003480606,2|0,0:0|0:0,0:0:0:0:
280,248,59681,38,0,P|308:188|368:156,1,112.5,10|0,0:0|0:0,0:0:0:0:
392,88,59993,6,0,P|348:76|272:112,1,100.800001230469,2|0,0:0|0:0,0:0:0:0:
256,344,60306,5,2,0:0:0:0:
256,344,60618,1,2,0:0:0:0:
256,112,60931,1,10,0:0:0:0:
256,344,61243,1,2,0:0:0:0:
256,344,61556,5,2,0:0:0:0:
256,24,61868,1,10,0:0:0:0:
256,344,62181,2,0,P|304:336|344:296,1,90,2|0,0:0|0:0,0:0:0:0:
364,236,62493,1,0,0:0:0:0:
364,236,62649,1,0,0:0:0:0:
284,196,62806,38,0,P|296:132|340:88,1,112.5,2|2,0:0|0:0,0:0:0:0:
472,36,63118,1,2,0:0:0:0:
384,20,63274,1,2,0:0:0:0:
216,252,63431,6,0,P|188:180|196:128,1,112.5,10|0,0:0|0:0,0:0:0:0:
280,20,63743,1,2,0:0:0:0:
196,56,63899,1,2,0:0:0:0:
120,264,64056,6,0,P|88:180|96:108,1,157.500001502037,2|0,0:0|0:0,0:0:0:0:
384,164,64368,6,0,P|412:228|404:304,1,135.000005149842,2|0,0:0|0:0,0:0:0:0:
272,360,64681,38,0,P|300:308|288:248,1,112.5,10|0,0:0|0:0,0:0:0:0:
248,124,64993,6,0,P|204:212|236:260,1,90,2|0,0:0|0:0,0:0:0:0:
176,352,65306,6,0,P|96:356|56:340,1,112.5,2|0,0:0|0:0,0:0:0:0:
32,176,65618,1,2,0:0:0:0:
20,264,65774,1,2,0:0:0:0:
212,284,65931,6,0,P|120:224|172:112,1,225,10|2,0:0|0:0,0:0:0:0:
216,60,66399,1,2,0:0:0:0:
320,48,66556,38,0,P|388:36|464:64,1,135.000005149842,2|0,0:0|0:0,0:0:0:0:
504,264,66868,6,0,P|420:284|356:248,1,123.300003480606,2|0,0:0|0:0,0:0:0:0:
296,256,67181,6,0,P|328:216|400:196,1,112.5,10|0,0:0|0:0,0:0:0:0:
464,188,67493,6,0,P|428:132|384:116,1,100.800001230469,2|0,0:0|0:0,0:0:0:0:
240,172,67806,37,2,0:0:0:0:
108,40,67962,5,2,0:0:0:0:
188,64,68118,1,2,0:0:0:0:
128,120,68274,1,2,0:0:0:0:
24,256,68431,5,10,0:0:0:0:
216,272,68587,5,2,0:0:0:0:
136,292,68743,1,2,0:0:0:0:
192,352,68899,1,2,0:0:0:0:
360,332,69056,38,0,P|392:300|424:232,1,112.5,2|0,0:0|0:0,0:0:0:0:
428,76,69368,6,0,P|388:108|368:155,1,100.800001230469,2|0,0:0|0:0,0:0:0:0:
288,268,69681,6,0,P|268:196|280:144,1,90,10|0,0:0|0:0,0:0:0:0:
216,96,69993,6,0,P|168:144|160:176,1,79.2000024169922,2|0,0:0|0:0,0:0:0:0:
156,240,70306,22,0,B|147:239|147:239|132:228|132:228|132:252|132:252|112:240|112:240|8:240,1,158.400004833984,2|2,0:0|0:0,0:0:0:0:
160,352,70931,70,0,B|168:348|168:348|168:356|168:356|172:348|172:348|172:356|172:356|176:348|176:348|176:356|176:356|180:356|180:356|180:348|180:348|188:351|188:351|256:352,1,135.000005149842,10|2,0:0|0:0,0:0:0:0:
424,312,71556,22,0,P|358:281|288:264,1,135.000005149842,2|0,0:0|0:0,0:0:0:0:
168,192,71868,70,0,P|296:160|408:188,1,180,2|0,0:0|0:0,0:0:0:0:
484,116,72181,70,0,P|380:72|240:52,1,247.500002360344,10|0,0:0|0:0,0:0:0:0:
144,40,72493,21,2,0:0:0:0:
144,40,72649,1,2,0:0:0:0:
64,90,72806,6,0,P|43:128|52:172,1,90,6|2,0:0|0:0,0:0:0:0:
172,312,73118,1,2,0:0:0:0:
60,348,73274,1,2,0:0:0:0:
148,188,73431,5,10,0:0:0:0:
248,248,73587,1,2,0:0:0:0:
308,52,73743,1,2,0:0:0:0:
200,96,73899,1,2,0:0:0:0:
388,156,74056,6,0,P|440:100|444:8,1,135.000005149842,2|0,0:0|0:0,0:0:0:0:
440,256,74368,38,0,P|452:312|436:368,1,90,2|0,0:0|0:0,0:0:0:0:
292,344,74681,6,0,P|280:268|304:164,1,135.000005149842,10|0,0:0|0:0,0:0:0:0:
64,32,74993,6,0,P|152:64|212:160,1,180,2|0,0:0|0:0,0:0:0:0:
80,336,75306,22,0,L|24:324,2,45,2|0|0,0:0|0:0|0:0,0:0:0:0:
323,210,75774,1,2,0:0:0:0:
64,32,75918,6,0,P|38:102|40:208,1,157.500001502037,10|0,0:0|0:0,0:0:0:0:
291,357,76230,2,0,P|325:285|315:189,1,157.500001502037,2|0,0:0|0:0,0:0:0:0:
164,36,76543,6,0,B|120:104|120:104|99:213,1,157.500001502037,2|0,0:0|0:0,0:0:0:0:
192,203,76855,6,0,B|204:136|204:136|240:80,1,135.000005149842,2|0,0:0|0:0,0:0:0:0:
316,120,77168,6,0,B|288:168|288:168|276:232,1,112.5,10|0,0:0|0:0,0:0:0:0:
364,244,77480,6,0,B|372:196|372:196|392:160,1,90,2|0,0:0|0:0,0:0:0:0:
464,200,77806,37,2,0:0:0:0:
244,332,77962,5,2,0:0:0:0:
277,223,78118,1,2,0:0:0:0:
352,308,78274,1,2,0:0:0:0:
164,136,78431,5,10,0:0:0:0:
116,336,78587,5,2,0:0:0:0:
24,272,78743,1,2,0:0:0:0:
120,224,78899,1,2,0:0:0:0:
198,44,79056,38,0,L|64:48,1,135.000005149842,2|0,0:0|0:0,0:0:0:0:
164,135,79368,6,0,L|276:146,1,112.5,2|0,0:0|0:0,0:0:0:0:
326,259,79681,6,0,L|240:236,1,90,10|0,0:0|0:0,0:0:0:0:
280,340,79993,6,0,L|344:358,1,67.5000025749208,2|0,0:0|0:0,0:0:0:0:
120,336,80306,38,0,P|104:288|96:188,1,90,6|0,0:0|0:0,0:0:0:0:
164,152,80618,1,2,0:0:0:0:
48,140,80774,1,2,0:0:0:0:
168,80,80931,5,10,0:0:0:0:
32,212,81087,1,2,0:0:0:0:
160,224,81243,1,2,0:0:0:0:
64,68,81399,1,2,0:0:0:0:
264,108,81556,6,0,P|294:144|320:208,1,90,2|0,0:0|0:0,0:0:0:0:
276,292,81868,1,2,0:0:0:0:
388,268,82024,1,2,0:0:0:0:
240,216,82181,5,10,0:0:0:0:
352,356,82337,1,0,0:0:0:0:
404,184,82493,1,2,0:0:0:0:
200,328,82649,1,2,0:0:0:0:
28,272,82806,38,0,P|24:220|76:152,1,112.5,2|2,0:0|0:0,0:0:0:0:
132,44,83118,1,2,0:0:0:0:
172,184,83274,1,2,0:0:0:0:
300,52,83431,5,10,0:0:0:0:
404,184,83587,1,2,0:0:0:0:
240,216,83743,1,2,0:0:0:0:
300,52,83899,1,2,0:0:0:0:
352,304,84056,53,2,0:0:0:0:
428,80,84212,1,2,0:0:0:0:
160,128,84368,1,2,0:0:0:0:
489,228,84524,1,2,0:0:0:0:
287,13,84681,69,10,0:0:0:0:
195,298,84837,1,2,0:0:0:0:
452,66,84993,1,2,0:0:0:0:
160,128,85149,1,2,0:0:0:0:
360,352,85306,22,0,P|396:300|356:176,1,180,6|2,0:0|0:0,0:0:0:0:
292,268,85774,1,2,0:0:0:0:
195,298,85931,2,0,P|178:254|176:208,1,90,10|0,0:0|0:0,0:0:0:0:
80,284,86243,2,0,P|56:240|36:172,1,90,2|0,0:0|0:0,0:0:0:0:
56,68,86556,5,2,0:0:0:0:
56,68,86712,2,0,P|104:28|216:28,1,90,2|0,0:0|0:0,0:0:0:0:
160,136,87024,1,2,0:0:0:0:
252,56,87181,2,0,P|280:108|276:164,1,90,10|0,0:0|0:0,0:0:0:0:
396,124,87493,2,0,P|408:73|432:40,1,90,2|0,0:0|0:0,0:0:0:0:
336,248,87806,5,2,0:0:0:0:
444,264,87962,2,0,P|428:320|392:352,1,90,2|0,0:0|0:0,0:0:0:0:
284,352,88274,1,2,0:0:0:0:
424,240,88431,5,10,0:0:0:0:
284,352,88587,1,2,0:0:0:0:
308,248,88743,1,2,0:0:0:0:
407,342,88899,1,2,0:0:0:0:
360,152,89056,37,2,0:0:0:0:
236,40,89212,2,0,P|248:100|280:132,1,90,2|0,0:0|0:0,0:0:0:0:
392,80,89524,1,2,0:0:0:0:
240,196,89681,5,10,0:0:0:0:
316,56,89837,1,2,0:0:0:0:
280,272,89993,2,0,P|220:280|164:228,1,90,2|0,0:0|0:0,0:0:0:0:
52,184,90306,5,2,0:0:0:0:
48,352,90462,1,2,0:0:0:0:
180,352,90618,1,2,0:0:0:0:
112,240,90774,1,2,0:0:0:0:
48,352,90931,5,10,0:0:0:0:
176,280,91087,1,2,0:0:0:0:
48,352,91243,2,0,P|28:312|20:248,1,90,2|0,0:0|0:0,0:0:0:0:
64,104,91556,37,2,0:0:0:0:
228,180,91712,1,2,0:0:0:0:
272,52,91868,1,2,0:0:0:0:
140,76,92024,1,2,0:0:0:0:
320,136,92181,5,10,0:0:0:0:
200,20,92337,1,2,0:0:0:0:
320,136,92493,2,0,P|368:160|424:156,1,90,2|0,0:0|0:0,0:0:0:0:
384,72,92806,5,2,0:0:0:0:
344,240,92962,2,0,L|428:328,1,90,2|0,0:0|0:0,0:0:0:0:
403,160,93274,1,2,0:0:0:0:
212,336,93431,5,10,0:0:0:0:
272,204,93587,1,2,0:0:0:0:
296,360,93743,1,2,0:0:0:0:
172,204,93899,1,2,0:0:0:0:
76,332,94056,37,2,0:0:0:0:
60,168,94212,2,0,L|92:52,1,90,2|0,0:0|0:0,0:0:0:0:
172,204,94524,1,2,0:0:0:0:
32,248,94681,1,10,0:0:0:0:
160,356,94837,1,0,0:0:0:0:
284,320,94993,54,0,L|244:300,3,45
308,336,95306,53,6,0:0:0:0:
444,292,95462,1,2,0:0:0:0:
340,192,95618,2,0,P|372:144|444:120,1,90,2|0,0:0|0:0,0:0:0:0:
296,332,95931,5,10,0:0:0:0:
419,260,96087,1,2,0:0:0:0:
297,184,96243,2,0,P|318:130|383:91,1,90,2|0,0:0|0:0,0:0:0:0:
472,188,96556,37,2,0:0:0:0:
472,188,96712,1,2,0:0:0:0:
472,188,96868,2,0,P|496:144|488:88,1,90,2|0,0:0|0:0,0:0:0:0:
340,108,97181,5,10,0:0:0:0:
212,176,97337,1,2,0:0:0:0:
220,32,97493,2,0,P|176:32|128:48,1,90,2|0,0:0|0:0,0:0:0:0:
260,108,97806,5,2,0:0:0:0:
260,108,97962,1,2,0:0:0:0:
260,108,98118,2,0,P|208:100|172:108,1,90,2|0,0:0|0:0,0:0:0:0:
32,260,98431,6,0,P|76:268|132:268,1,90,10|0,0:0|0:0,0:0:0:0:
84,176,98743,1,2,0:0:0:0:
28,348,98899,2,0,P|132:356|220:336,1,180,2|0,0:0|0:0,0:0:0:0:
300,232,99368,37,2,0:0:0:0:
372,356,99524,1,2,0:0:0:0:
452,236,99681,2,0,P|472:176|456:136,1,90,10|0,0:0|0:0,0:0:0:0:
440,84,99993,1,0,0:0:0:0:
440,84,100149,1,0,0:0:0:0:
392,28,100306,5,6,0:0:0:0:
392,28,100462,1,2,0:0:0:0:
392,28,100618,2,0,P|344:32|284:72,1,90,2|0,0:0|0:0,0:0:0:0:
200,112,100931,5,10,0:0:0:0:
84,60,101087,1,2,0:0:0:0:
208,128,101243,2,0,P|224:180|204:220,1,90,2|0,0:0|0:0,0:0:0:0:
48,156,101556,5,2,0:0:0:0:
48,156,101712,1,2,0:0:0:0:
47,155,101868,2,0,P|104:176|160:164,1,90,2|0,0:0|0:0,0:0:0:0:
95,263,102181,37,10,0:0:0:0:
211,211,102337,1,2,0:0:0:0:
87,279,102493,2,0,P|71:331|91:371,1,90,2|0,0:0|0:0,0:0:0:0:
248,336,102806,5,2,0:0:0:0:
248,336,102962,1,2,0:0:0:0:
248,336,103118,2,0,P|220:324|160:320,1,90,2|0,0:0|0:0,0:0:0:0:
344,204,103431,6,0,P|392:192|444:220,1,90,10|0,0:0|0:0,0:0:0:0:
316,284,103743,1,2,0:0:0:0:
292,128,103899,2,0,P|380:104|488:136,1,180,2|0,0:0|0:0,0:0:0:0:
316,284,104368,5,2,0:0:0:0:
184,224,104524,1,2,0:0:0:0:
292,128,104681,2,0,P|332:84|368:64,1,90,10|0,0:0|0:0,0:0:0:0:
424,32,104993,1,0,0:0:0:0:
424,32,105149,1,0,0:0:0:0:
256,36,105306,37,2,0:0:0:0:
256,36,105462,1,2,0:0:0:0:
204,108,105618,2,0,P|156:148|104:168,1,90,2|0,0:0|0:0,0:0:0:0:
44,188,105931,1,10,0:0:0:0:
324,332,106243,5,2,0:0:0:0:
380,240,106399,1,2,0:0:0:0:
280,240,106556,5,2,0:0:0:0:
280,240,106712,1,2,0:0:0:0:
192,268,106868,2,0,P|132:268|88:244,1,90,2|0,0:0|0:0,0:0:0:0:
36,200,107181,1,10,0:0:0:0:
364,152,107493,5,2,0:0:0:0:
336,48,107649,1,2,0:0:0:0:
256,116,107806,37,2,0:0:0:0:
256,116,107962,1,2,0:0:0:0:
200,184,108118,2,0,P|148:208|76:208,1,90,2|0,0:0|0:0,0:0:0:0:
28,220,108431,1,10,0:0:0:0:
332,204,108743,5,2,0:0:0:0:
434,243,108899,2,0,P|384:316|272:332,1,180,2|0,0:0|0:0,0:0:0:0:
392,80,109368,5,2,0:0:0:0:
392,80,109524,1,2,0:0:0:0:
392,80,109681,2,0,P|444:188|424:264,1,180,10|0,0:0|0:0,0:0:0:0:
112,28,110306,5,2,0:0:0:0:
112,28,110462,1,2,0:0:0:0:
240,60,110618,2,0,P|172:64|124:40,1,90,2|0,0:0|0:0,0:0:0:0:
36,192,110931,2,0,P|88:180|140:184,1,90,10|0,0:0|0:0,0:0:0:0:
356,168,111243,37,2,0:0:0:0:
240,180,111399,1,2,0:0:0:0:
160,304,111556,5,2,0:0:0:0:
160,304,111712,1,2,0:0:0:0:
292,320,111868,2,0,P|248:300|196:300,1,90,2|0,0:0|0:0,0:0:0:0:
240,180,112181,2,0,P|284:168|352:168,1,90,10|0,0:0|0:0,0:0:0:0:
460,28,112493,5,2,0:0:0:0:
472,144,112649,1,2,0:0:0:0:
388,284,112806,5,2,0:0:0:0:
388,284,112962,1,2,0:0:0:0:
356,168,113118,2,0,P|360:220|384:280,1,90,2|0,0:0|0:0,0:0:0:0:
240,180,113431,2,0,P|240:136|260:92,1,90,10|0,0:0|0:0,0:0:0:0:
184,20,113743,37,2,0:0:0:0:
132,260,113899,2,0,P|116:172|144:76,1,180,2|0,0:0|0:0,0:0:0:0:
16,108,114368,5,2,0:0:0:0:
16,108,114524,1,2,0:0:0:0:
40,276,114681,2,0,P|136:256|232:260,1,180,10|0,0:0|0:0,0:0:0:0:
464,192,115306,5,6,0:0:0:0:
332,300,115462,5,2,0:0:0:0:
312,232,115618,1,2,0:0:0:0:
328,164,115774,1,2,0:0:0:0:
124,144,115931,37,10,0:0:0:0:
260,40,116087,5,2,0:0:0:0:
272,112,116243,1,2,0:0:0:0:
256,184,116399,1,2,0:0:0:0:
88,332,116556,6,0,P|58:271|54:204,1,135.000005149842,2|0,0:0|0:0,0:0:0:0:
164,92,116868,6,0,P|124:140|132:216,1,123.300003480606,2|0,0:0|0:0,0:0:0:0:
256,276,117181,38,0,P|208:228|192:156,1,112.5,10|0,0:0|0:0,0:0:0:0:
276,112,117493,6,0,P|264:176|288:212,1,100.800001230469,2|0,0:0|0:0,0:0:0:0:
364,156,117806,5,2,0:0:0:0:
472,232,117962,5,2,0:0:0:0:
444,304,118118,1,2,0:0:0:0:
376,332,118274,1,2,0:0:0:0:
276,112,118431,37,10,0:0:0:0:
308,304,118587,5,2,0:0:0:0:
236,288,118743,1,2,0:0:0:0:
172,324,118899,1,2,0:0:0:0:
48,148,119056,6,0,P|56:88|136:40,1,135.000005149842,2|0,0:0|0:0,0:0:0:0:
188,240,119368,6,0,P|180:176|132:128,1,123.300003480606,2|0,0:0|0:0,0:0:0:0:
104,216,119681,38,0,P|55:275|48:316,1,112.5,10|0,0:0|0:0,0:0:0:0:
268,168,119993,6,0,P|328:164|384:216,1,135.000005149842,2|0,0:0|0:0,0:0:0:0:
156,340,120306,5,2,0:0:0:0:
296,264,120462,5,2,0:0:0:0:
352,312,120618,1,2,0:0:0:0:
280,336,120774,1,2,0:0:0:0:
352,128,120931,37,10,0:0:0:0:
464,232,121087,5,2,0:0:0:0:
396,256,121243,1,2,0:0:0:0:
452,304,121399,1,2,0:0:0:0:
436,140,121556,6,0,P|416:72|352:44,1,135.000005149842,2|0,0:0|0:0,0:0:0:0:
240,168,121868,6,0,P|301:160|353:128,1,123.300003480606,2|0,0:0|0:0,0:0:0:0:
200,92,122181,38,0,P|164:136|164:200,1,112.5,10|0,0:0|0:0,0:0:0:0:
128,268,122493,6,0,P|176:272|223:250,1,100.800001230469,2|0,0:0|0:0,0:0:0:0:
256,348,122806,5,2,0:0:0:0:
256,348,123118,1,2,0:0:0:0:
256,112,123431,1,10,0:0:0:0:
256,348,123743,1,2,0:0:0:0:
256,348,124056,5,2,0:0:0:0:
256,32,124368,1,10,0:0:0:0:
256,348,124681,2,0,P|220:300|168:292,1,90,2|4,0:0|0:3,0:0:0:0:
124,336,124993,1,4,3:3:0:0:
124,336,125149,1,4,3:3:0:0:
48,316,125306,38,0,P|28:256|40:208,1,99.0000030212403,6|2,0:0|0:0,0:0:0:0:
156,64,125618,1,2,0:0:0:0:
56,44,125774,1,2,0:0:0:0:
124,228,125931,6,0,P|112:168|48:132,2,99.0000030212403,10|0|0,0:0|0:0|0:0,0:0:0:0:
124,336,126399,1,2,0:0:0:0:
360,352,126556,6,0,P|412:312|456:232,1,148.500001416206,2|0,0:0|0:0,0:0:0:0:
376,68,126868,6,0,P|340:92|312:163,1,99.0000030212403,2|0,0:0|0:0,0:0:0:0:
300,288,127181,38,0,P|356:248|388:172,1,148.500001416206,10|0,0:0|0:0,0:0:0:0:
300,16,127493,6,0,P|244:88|232:204,1,198.000006042481,2|0,0:0|0:0,0:0:0:0:
88,352,127806,38,0,P|56:328|40:304,2,49.5000015106202,2|0|0,0:0|0:0|0:0,0:0:0:0:
319,139,128274,1,2,0:0:0:0:
453,341,128431,6,0,P|384:344|272:312,1,173.699995825539,10|0,0:0|0:0,0:0:0:0:
208,40,128743,2,0,P|277:37|389:69,1,173.699995825539,2|0,0:0|0:0,0:0:0:0:
453,341,129056,6,0,P|366:342|283:319,1,173.699995825539,2|0,0:0|0:0,0:0:0:0:
128,208,129368,6,0,P|198:229|272:228,1,148.500001416206,2|0,0:0|0:0,0:0:0:0:
448,176,129681,6,0,P|386:175|326:157,1,124.200000189514,10|0,0:0|0:0,0:0:0:0:
168,87,129993,6,0,P|215:99|264:94,1,99.0000030212403,2|0,0:0|0:0,0:0:0:0:
464,92,130306,38,0,P|424:52|344:36,1,90,2|2,0:0|0:0,0:0:0:0:
336,84,130618,1,2,0:0:0:0:
336,84,130774,1,2,0:0:0:0:
160,224,130931,6,0,P|200:200|272:196,1,90,10|2,0:0|0:0,0:0:0:0:
296,248,131243,1,2,0:0:0:0:
296,248,131399,1,2,0:0:0:0:
40,336,131556,6,0,P|112:304|204:308,1,157.500001502037,2|0,0:0|0:0,0:0:0:0:
168,120,131868,6,0,P|96:120|32:140,1,135.000005149842,2|0,0:0|0:0,0:0:0:0:
52,228,132181,38,0,P|104:212|172:212,1,112.5,10|0,0:0|0:0,0:0:0:0:
136,32,132493,6,0,P|84:32|40:44,1,90,2|0,0:0|0:0,0:0:0:0:
252,40,132806,6,0,P|344:56|368:156,1,180,6|2,0:0|0:0,0:0:0:0:
372,244,133274,1,2,0:0:0:0:
268,188,133431,5,10,0:0:0:0:
375,130,133587,1,2,0:0:0:0:
372,272,133743,1,2,0:0:0:0:
249,195,133899,1,2,0:0:0:0:
432,204,134056,37,2,0:0:0:0:
288,112,134212,1,2,0:0:0:0:
283,286,134368,1,2,0:0:0:0:
375,130,134524,1,2,0:0:0:0:
260,316,134681,5,10,0:0:0:0:
276,88,134837,1,2,0:0:0:0:
464,204,134993,1,2,0:0:0:0:
224,192,135149,1,2,0:0:0:0:
340,192,135306,6,0,P|372:236|360:304,2,112.5,2|0|2,0:0|0:0|0:0,0:0:0:0:
276,88,135774,1,2,0:0:0:0:
164,104,135931,5,10,0:0:0:0:
140,220,136087,1,2,0:0:0:0:
252,180,136244,1,2,0:0:0:0:
157,79,136399,1,2,0:0:0:0:
280,196,136556,21,2,0:0:0:0:
125,244,136712,1,2,0:0:0:0:
152,55,136868,1,2,0:0:0:0:
308,212,137024,1,2,0:0:0:0:
92,308,137181,69,10,0:0:0:0:
288,48,137337,1,2,0:0:0:0:
32,152,137493,1,2,0:0:0:0:
252,328,137649,1,2,0:0:0:0:
192,180,137806,21,6,0:0:0:0:
364,136,137962,1,2,0:0:0:0:
184,260,138118,2,0,P|184:308|196:384,1,90,2|0,0:0|0:0,0:0:0:0:
308,212,138431,5,10,0:0:0:0:
128,212,138587,1,2,0:0:0:0:
292,116,138743,2,0,P|308:76|348:44,1,90,2|0,0:0|0:0,0:0:0:0:
128,136,139056,5,2,0:0:0:0:
100,312,139212,1,2,0:0:0:0:
96,68,139368,2,0,P|52:68|-8:96,1,90,2|0,0:0|0:0,0:0:0:0:
232,200,139681,5,10,0:0:0:0:
60,248,139837,1,2,0:0:0:0:
312,212,139993,2,0,P|352:236|384:280,1,90,2|0,0:0|0:0,0:0:0:0:
144,212,140306,37,2,0:0:0:0:
236,56,140462,1,2,0:0:0:0:
76,160,140618,2,0,P|60:216|68:260,1,90,2|0,0:0|0:0,0:0:0:0:
356,192,140931,2,0,L|244:192,1,90,10|0,0:0|0:0,0:0:0:0:
424,240,141243,5,2,0:0:0:0:
235,55,141399,2,0,P|320:27|407:48,1,180,2|0,0:0|0:0,0:0:0:0:
496,192,141868,5,2,0:0:0:0:
348,108,142024,1,2,0:0:0:0:
348,280,142181,2,0,P|284:304|232:256,1,90,10|0,0:0|0:0,0:0:0:0:
184,220,142493,1,0,0:0:0:0:
184,220,142649,1,0,0:0:0:0:
156,112,142806,5,2,0:0:0:0:
368,80,142962,1,2,0:0:0:0:
160,28,143118,2,0,L|264:56,1,90,2|0,0:0|0:0,0:0:0:0:
328,212,143431,37,10,0:0:0:0:
132,188,143587,1,2,0:0:0:0:
324,132,143743,2,0,L|220:160,1,90,2|0,0:0|0:0,0:0:0:0:
164,316,144056,5,2,0:0:0:0:
348,288,144212,1,2,0:0:0:0:
164,240,144368,2,0,L|268:268,1,90,2|0,0:0|0:0,0:0:0:0:
432,224,144681,5,10,0:0:0:0:
250,263,144837,1,2,0:0:0:0:
434,312,144993,2,0,L|334:284,1,90,2|0,0:0|0:0,0:0:0:0:
108,208,145306,5,2,0:0:0:0:
44,52,145462,1,2,0:0:0:0:
25,224,145618,2,0,B|37:121,1,90,2|0,0:0|0:0,0:0:0:0:
288,40,145931,38,0,P|243:33|199:41,1,90,10|0,0:0|0:0,0:0:0:0:
372,32,146243,1,2,0:0:0:0:
244,120,146399,2,0,P|316:184|400:184,1,180,2|0,0:0|0:0,0:0:0:0:
232,232,146868,5,2,0:0:0:0:
344,104,147024,1,2,0:0:0:0:
384,272,147181,2,0,P|336:288|276:264,1,90,10|0,0:0|0:0,0:0:0:0:
172,176,147493,5,0,0:0:0:0:
172,176,147649,1,0,0:0:0:0:
172,176,147806,6,0,L|216:284,1,99.0000030212403,6|0,0:0|0:0,0:0:0:0:
372,348,148118,2,0,L|336:256,1,99.0000030212403,2|2,0:0|0:0,0:0:0:0:
168,320,148431,37,10,0:0:0:0:
264,352,148587,1,2,0:0:0:0:
368,152,148743,1,2,0:0:0:0:
276,120,148899,1,2,0:0:0:0:
134,24,149056,6,0,P|146:71|180:108,1,99.0000030212403,2|2,0:0|0:0,0:0:0:0:
368,151,149368,2,0,P|355:104|324:66,1,99.0000030212403,2|0,0:0|0:0,0:0:0:0:
168,320,149681,5,10,0:0:0:0:
280,284,149837,1,0,0:0:0:0:
296,68,149993,1,2,0:0:0:0:
184,104,150149,1,0,0:0:0:0:
280,284,150306,6,0,L|224:184,1,99.0000030212403,2|2,0:0|0:0,0:0:0:0:
404,164,150618,2,0,L|472:276,1,99.0000030212403,2|0,0:0|0:0,0:0:0:0:
296,68,150931,37,10,0:0:0:0:
320,164,151087,1,0,0:0:0:0:
480,340,151243,1,2,0:0:0:0:
457,247,151399,1,2,0:0:0:0:
320,164,151556,6,0,P|352:108|400:88,2,99.0000030212403,2|0|2,0:0|0:0|0:0,0:0:0:0:
256,284,152024,1,2,0:0:0:0:
196,108,152181,2,0,P|164:52|96:24,2,99.0000030212403,10|0|2,0:0|0:0|0:0,0:0:0:0:
256,284,152649,1,2,0:0:0:0:
64,280,152806,5,2,0:0:0:0:
248,200,152962,1,2,0:0:0:0:
68,140,153118,1,2,0:0:0:0:
152,336,153274,1,0,0:0:0:0:
196,108,153431,5,10,0:0:0:0:
64,280,153587,1,0,0:0:0:0:
236,360,153743,1,2,0:0:0:0:
152,192,153899,1,2,0:0:0:0:
424,120,154056,37,2,0:0:0:0:
292,224,154212,1,2,0:0:0:0:
456,228,154368,1,2,0:0:0:0:
332,64,154524,1,0,0:0:0:0:
372,268,154681,5,10,0:0:0:0:
424,120,154837,1,0,0:0:0:0:
232,40,154993,1,2,0:0:0:0:
292,224,155149,1,2,0:0:0:0:
104,200,155306,5,2,0:0:0:0:
288,128,155462,1,2,0:0:0:0:
184,296,155618,1,2,0:0:0:0:
168,96,155774,1,0,0:0:0:0:
268,304,155931,5,10,0:0:0:0:
428,104,156087,1,0,0:0:0:0:
428,256,156243,1,2,0:0:0:0:
344,56,156399,1,2,0:0:0:0:
368,304,156556,38,0,P|424:336|476:336,1,99.0000030212403,2|0,0:0|0:0,0:0:0:0:
476,168,156868,5,2,0:0:0:0:
476,168,157024,1,2,0:0:0:0:
396,196,157181,2,0,P|328:200|284:184,1,99.0000030212403,10|0,0:0|0:0,0:0:0:0:
232,140,157493,1,0,0:0:0:0:
232,140,157649,1,0,0:0:0:0:
256,60,157806,5,6,0:0:0:0:
172,204,157962,1,0,0:0:0:0:
76,60,158118,1,2,0:0:0:0:
256,232,158274,1,2,0:0:0:0:
400,104,158431,5,10,0:0:0:0:
312,296,158587,1,0,0:0:0:0:
308,152,158743,1,2,0:0:0:0:
428,316,158899,1,2,0:0:0:0:
96,352,159056,38,0,L|52:192,1,161.999995056153,2|0,0:0|0:0,0:0:0:0:
380,20,159368,6,0,L|424:184,1,144,2|0,0:0|0:0,0:0:0:0:
205,325,159681,6,0,L|169:193,1,125.999996154785,10|0,0:0|0:0,0:0:0:0:
278,48,159993,6,0,L|310:160,1,107.999996704102,2|0,0:0|0:0,0:0:0:0:
120,128,160306,37,2,0:0:0:0:
307,151,160462,1,0,0:0:0:0:
171,203,160618,1,2,0:0:0:0:
278,48,160774,1,2,0:0:0:0:
360,240,160931,5,10,0:0:0:0:
216,120,161087,1,0,0:0:0:0:
288,300,161243,1,2,0:0:0:0:
360,92,161399,1,0,0:0:0:0:
64,112,161556,6,0,B|52:192|52:192|64:272,1,161.999995056153,2|0,0:0|0:0,0:0:0:0:
268,260,161868,6,0,B|252:192|252:192|268:128,1,135.000005149842,2|0,0:0|0:0,0:0:0:0:
444,140,162181,38,0,B|424:192|424:192|444:248,1,107.999996704102,10|0,0:0|0:0,0:0:0:0:
184,336,162493,6,0,B|160:264|160:264|160:168,1,161.999995056153,2|0,0:0|0:0,0:0:0:0:
296,24,162806,5,2,0:0:0:0:
440,64,162962,1,0,0:0:0:0:
264,132,163118,1,2,0:0:0:0:
440,64,163274,1,2,0:0:0:0:
264,224,163431,5,10,0:0:0:0:
321,351,163587,1,0,0:0:0:0:
380,180,163743,1,2,0:0:0:0:
321,351,163899,1,2,0:0:0:0:
436,36,164056,38,0,P|472:108|468:220,1,161.999995056153,2|0,0:0|0:0,0:0:0:0:
188,340,164368,6,0,P|156:276|160:188,1,144,2|0,0:0|0:0,0:0:0:0:
344,84,164681,6,0,P|380:140|376:212,1,125.999996154785,10|0,0:0|0:0,0:0:0:0:
272,296,164993,6,0,P|248:244|256:192,1,107.999996704102,2|0,0:0|0:0,0:0:0:0:
448,48,165306,37,2,0:0:0:0:
164,352,165618,1,2,0:0:0:0:
64,48,165931,1,10,0:0:0:0:
348,352,166243,1,2,0:0:0:0:
256,32,166556,5,2,0:0:0:0:
44,356,166868,1,2,0:0:0:0:
468,356,167181,1,10,0:0:0:0:
136,100,167493,38,0,B|152:156,3,45
128,68,167806,21,6,0:0:0:0:
256,164,167962,1,2,0:0:0:0:
156,292,168118,1,2,0:0:0:0:
28,196,168274,1,2,0:0:0:0:
76,40,168431,37,10,0:0:0:0:
64,200,168587,1,2,0:0:0:0:
224,212,168743,1,2,0:0:0:0:
236,52,168899,1,2,0:0:0:0:
356,28,169056,38,0,P|396:88|400:228,1,161.999995056153,2|0,0:0|0:0,0:0:0:0:
408,348,169368,6,0,P|364:312|330:248,1,107.999996704102,2|0,0:0|0:0,0:0:0:0:
236,52,169681,6,0,P|216:128|232:244,1,161.999995056153,10|0,0:0|0:0,0:0:0:0:
180,356,169993,6,0,P|100:248|96:120,1,215.999993408203,2|0,0:0|0:0,0:0:0:0:
436,40,170306,6,0,P|440:72|436:104,2,53.9999983520508,2|0|0,0:0|0:0|0:0,0:0:0:0:
180,356,170774,1,2,0:0:0:0:
436,349,170931,6,0,P|436:225|394:157,1,188.999994232178,10|0,0:0|0:0,0:0:0:0:
76,35,171243,2,0,P|76:159|118:227,1,188.999994232178,2|0,0:0|0:0,0:0:0:0:
476,32,171556,6,0,L|232:56,1,188.999994232178,2|0,0:0|0:0,0:0:0:0:
24,136,171868,6,0,L|220:156,1,161.999995056153,2|0,0:0|0:0,0:0:0:0:
436,232,172181,6,0,L|288:248,1,135.000005149842,10|0,0:0|0:0,0:0:0:0:
80,316,172493,6,0,L|200:332,1,107.999996704102,2|0,0:0|0:0,0:0:0:0:
348,344,172806,38,0,L|460:328,2,90,2|0|2,0:0|0:0|0:0,0:0:0:0:
208,336,173274,1,2,0:0:0:0:
152,192,173431,2,0,L|52:180,2,90,10|0|2,0:0|0:0|0:0,0:0:0:0:
300,176,173899,1,2,0:0:0:0:
304,36,174056,6,0,P|372:48|464:128,1,161.999995056153,2|0,0:0|0:0,0:0:0:0:
328,340,174368,6,0,P|252:324|200:272,1,144,2|0,0:0|0:0,0:0:0:0:
284,124,174681,6,0,P|347:131|396:200,1,125.999996154785,10|0,0:0|0:0,0:0:0:0:
348,252,174993,38,0,P|296:244|252:188,1,107.999996704102,2|0,0:0|0:0,0:0:0:0:
107,91,175306,6,0,P|171:43|328:36,1,215.999993408203,6|2,0:0|0:0,0:0:0:0:
424,48,175774,1,2,0:0:0:0:
460,152,175931,2,0,L|460:280,1,107.999996704102,10|2,0:0|0:0,0:0:0:0:
315,123,176243,2,0,L|316:0,1,107.999996704102,2|2,0:0|0:0,0:0:0:0:
192,256,176556,54,0,P|147:285|120:344,1,82.7999972204591,2|2,0:0|0:0,0:0:0:0:
192,128,176898,2,0,P|147:98|120:40,1,82.7999972204591,2|2,0:0|0:0,0:0:0:0:
256,192,177256,70,0,L|192:128,1,74.70000108284,10|2,0:0|0:0,0:0:0:0:
256,192,177628,2,0,L|188:256,1,74.70000108284,2|2,0:0|0:0,0:0:0:0:
424,96,178000,21,6,0:0:0:0:
336,36,178156,1,2,0:0:0:0:
232,60,178312,1,2,0:0:0:0:
456,224,178625,5,10,0:0:0:0:
464,116,178781,1,2,0:0:0:0:
408,24,178937,1,2,0:0:0:0:
236,148,179250,5,2,0:0:0:0:
228,256,179406,1,2,0:0:0:0:
284,348,179562,1,2,0:0:0:0:
16,296,179875,5,10,0:0:0:0:
104,356,180031,1,2,0:0:0:0:
208,332,180187,1,2,0:0:0:0:
68,48,180500,37,2,0:0:0:0:
60,156,180656,1,2,0:0:0:0:
116,248,180812,1,2,0:0:0:0:
344,92,181125,5,10,0:0:0:0:
96,256,181437,5,2,0:0:0:0:
40,164,181593,1,2,0:0:0:0:
48,56,181749,1,2,0:0:0:0:
400,136,182062,5,2,0:0:0:0:
456,228,182218,1,2,0:0:0:0:
448,336,182375,2,0,P|352:360|288:284,1,180,10|0,0:0|0:0,0:0:0:0:
304,64,183000,37,2,0:0:0:0:
304,64,183156,1,2,0:0:0:0:
96,72,183312,2,0,L|208:68,1,90,2|0,0:0|0:0,0:0:0:0:
68,228,183625,5,10,0:0:0:0:
68,228,183781,1,2,0:0:0:0:
268,168,183937,2,0,L|176:196,1,90,2|0,0:0|0:0,0:0:0:0:
320,336,184250,5,2,0:0:0:0:
320,336,184406,1,2,0:0:0:0:
128,336,184562,2,0,L|248:336,1,90,2|0,0:0|0:0,0:0:0:0:
416,124,184875,5,10,0:0:0:0:
416,124,185031,1,2,0:0:0:0:
480,308,185187,2,0,L|448:224,1,90,2|0,0:0|0:0,0:0:0:0:
256,260,185500,37,2,0:0:0:0:
256,260,185656,1,2,0:0:0:0:
277,78,185812,2,0,L|265:190,1,90,2|0,0:0|0:0,0:0:0:0:
416,124,186125,2,0,L|424:24,1,90,10|0,0:0|0:0,0:0:0:0:
260,40,186437,5,2,0:0:0:0:
260,40,186593,2,0,P|156:52|92:156,1,180,2|0,0:0|0:0,0:0:0:0:
66,203,187062,1,2,0:0:0:0:
174,187,187218,1,2,0:0:0:0:
106,103,187375,1,10,0:0:0:0:
376,52,187687,5,0,0:0:0:0:
376,52,187843,1,0,0:0:0:0:
376,52,188000,6,0,L|428:176,1,90,6|0,0:0|0:0,0:0:0:0:
296,284,188312,2,0,L|256:200,1,90,2|2,0:0|0:0,0:0:0:0:
468,224,188625,37,10,0:0:0:0:
376,224,188781,1,2,0:0:0:0:
204,104,188937,1,2,0:0:0:0:
308,112,189093,1,2,0:0:0:0:
296,284,189250,6,0,P|236:324|196:328,1,90,2|2,0:0|0:0,0:0:0:0:
127,147,189562,2,0,P|187:107|227:103,1,90,2|0,0:0|0:0,0:0:0:0:
140,336,189875,5,10,0:0:0:0:
104,244,190031,1,0,0:0:0:0:
292,80,190187,1,2,0:0:0:0:
324,184,190343,1,0,0:0:0:0:
128,148,190500,6,0,L|72:52,1,90,2|2,0:0|0:0,0:0:0:0:
300,28,190812,2,0,L|244:136,1,90,2|0,0:0|0:0,0:0:0:0:
296,280,191125,37,10,0:0:0:0:
220,204,191281,1,0,0:0:0:0:
380,76,191437,1,2,0:0:0:0:
338,155,191593,1,2,0:0:0:0:
400,284,191750,6,0,P|432:340|488:368,2,90,2|0|2,0:0|0:0|0:0,0:0:0:0:
320,236,192218,1,2,0:0:0:0:
400,100,192375,2,0,P|432:44|488:16,2,90,10|0|2,0:0|0:0|0:0,0:0:0:0:
312,144,192843,1,2,0:0:0:0:
196,32,193000,5,2,0:0:0:0:
200,144,193156,1,2,0:0:0:0:
96,112,193312,1,2,0:0:0:0:
292,80,193468,1,0,0:0:0:0:
104,24,193625,5,10,0:0:0:0:
124,204,193781,1,0,0:0:0:0:
196,32,193937,1,2,0:0:0:0:
32,188,194093,1,2,0:0:0:0:
180,304,194250,37,2,0:0:0:0:
96,112,194406,1,2,0:0:0:0:
60,292,194562,1,2,0:0:0:0:
200,144,194718,1,0,0:0:0:0:
332,304,194875,5,10,0:0:0:0:
416,112,195031,1,0,0:0:0:0:
452,292,195187,1,2,0:0:0:0:
312,144,195343,1,2,0:0:0:0:
180,300,195500,5,2,0:0:0:0:
312,144,195656,1,2,0:0:0:0:
332,304,195812,1,2,0:0:0:0:
200,144,195968,1,0,0:0:0:0:
128,248,196125,5,10,0:0:0:0:
256,84,196281,1,0,0:0:0:0:
384,248,196437,1,2,0:0:0:0:
256,56,196593,1,2,0:0:0:0:
256,248,196750,38,0,L|256:372,2,90,2|0|2,0:0|0:0|0:0,0:0:0:0:
256,152,197218,1,2,0:0:0:0:
256,152,197375,1,10,0:0:0:0:
72,112,198000,5,6,0:0:0:0:
56,220,198156,1,2,0:0:0:0:
40,328,198312,1,2,0:0:0:0:
416,36,198625,5,10,0:0:0:0:
432,144,198781,1,2,0:0:0:0:
448,252,198937,1,2,0:0:0:0:
160,312,199250,5,2,0:0:0:0:
116,212,199406,1,2,0:0:0:0:
72,112,199562,1,2,0:0:0:0:
388,44,199875,37,10,0:0:0:0:
432,144,200031,1,2,0:0:0:0:
476,244,200187,1,2,0:0:0:0:
28,12,200500,5,2,0:0:0:0:
72,112,200656,1,2,0:0:0:0:
116,212,200812,1,2,0:0:0:0:
432,144,201125,1,10,0:0:0:0:
120,212,201437,5,2,0:0:0:0:
120,212,201593,1,2,0:0:0:0:
120,212,201749,1,2,0:0:0:0:
432,144,202062,5,2,0:0:0:0:
432,144,202218,1,2,0:0:0:0:
432,144,202374,1,10,0:0:0:0:
52,68,203000,37,2,0:0:0:0:
156,48,203156,1,2,0:0:0:0:
264,36,203312,1,2,0:0:0:0:
460,316,203625,5,10,0:0:0:0:
356,336,203781,1,2,0:0:0:0:
248,348,203937,1,2,0:0:0:0:
444,32,204250,5,2,0:0:0:0:
444,140,204406,1,2,0:0:0:0:
440,248,204562,1,2,0:0:0:0:
120,96,204875,5,10,0:0:0:0:
136,204,205031,1,2,0:0:0:0:
156,308,205187,1,2,0:0:0:0:
380,196,205500,37,2,0:0:0:0:
380,196,205656,1,2,0:0:0:0:
380,196,205812,1,2,0:0:0:0:
92,192,206125,1,10,0:0:0:0:
460,192,206437,1,2,0:0:0:0:
88,116,206750,54,0,P|144:132|176:208,1,135,2|0,0:0|0:0,0:0:0:0:
256,287,207062,6,0,P|231:229|168:232,1,135,2|0,0:0|0:0,0:0:0:0:
120,336,207375,69,6,0:0:0:0:
256,192,207531,12,0,210500,0:0:0:0:
