osu file format v14

[General]
AudioFilename: audio.mp3
AudioLeadIn: 0
PreviewTime: 62483
Countdown: 1
SampleSet: Soft
StackLeniency: 0.3
Mode: 0
LetterboxInBreaks: 0
WidescreenStoryboard: 1

[Editor]
DistanceSpacing: 0.9
BeatDivisor: 4
GridSize: 4
TimelineZoom: 1

[Metadata]
Title:Croatian Rhapsody
TitleUnicode:Croatian Rhapsody
Artist:Maksim Mrvica
ArtistUnicode:Maksim Mrvica
Creator:haha5957
Version:Molto Allegro
Source:
Tags:The Piano Player
BeatmapID:1802949
BeatmapSetID:850663

[Difficulty]
HPDrainRate:4
CircleSize:4
OverallDifficulty:7
ApproachRate:8
SliderMultiplier:2.2
SliderTickRate:2

[Events]
//Background and Video events
0,0,"bg.jpeg",0,0
//Break Periods
2,85506,91906
//Storyboard Layer 0 (Background)
//Storyboard Layer 1 (Fail)
//Storyboard Layer 2 (Pass)
//Storyboard Layer 3 (Foreground)
//Storyboard Sound Samples

[TimingPoints]
284,625,4,2,2,65,1,0
2784,-133.333333333333,4,2,2,65,0,0
3252,-133.333333333333,4,2,2,25,0,0
3431,625,4,2,2,40,1,0
4033,625,4,2,2,65,1,0
4033,-133.333333333333,4,2,2,65,0,0
4501,-133.333333333333,4,2,2,25,0,0
4669,625,4,2,2,40,1,0
5294,625,4,2,2,65,1,0
5294,-133.333333333333,4,2,2,65,0,0
5762,-133.333333333333,4,2,2,25,0,0
5919,-133.333333333333,4,2,2,65,0,0
6700,-133.333333333333,4,2,2,25,0,0
6856,-133.333333333333,4,2,2,65,0,0
7481,-133.333333333333,4,2,2,25,0,0
7794,-133.333333333333,4,2,2,65,0,0
8575,-133.333333333333,4,2,2,25,0,0
8731,-133.333333333333,4,2,2,65,0,0
9993,625,4,2,2,65,1,0
9993,-133.333333333333,4,2,2,65,0,0
15774,-133.333333333333,4,2,2,25,0,0
15931,-133.333333333333,4,2,2,65,0,0
16555,-133.333333333333,4,2,2,25,0,0
16868,-133.333333333333,4,2,2,65,0,0
17786,625,4,2,2,65,1,0
17786,-133.333333333333,4,2,2,65,0,0
21536,-133.333333333333,4,2,2,25,0,0
21840,625,4,2,2,65,1,0
21996,-133.333333333333,4,2,2,65,0,0
25306,625,4,2,2,65,1,0
25306,-133.333333333333,4,2,2,65,0,0
30285,625,4,2,2,65,1,0
30285,-133.333333333333,4,2,2,65,0,0
30606,625,4,2,2,65,1,0
30606,-133.333333333333,4,2,2,65,0,0
31621,-100,4,2,2,25,0,0
31856,-133.333333333333,4,1,2,65,0,0
32168,-100,4,1,2,65,0,0
32806,625,4,1,2,75,1,0
33431,-80,4,1,2,75,0,0
34056,-100,4,1,2,75,0,0
34681,-80,4,1,2,75,0,0
35306,-100,4,1,2,75,0,0
35931,-80,4,1,2,75,0,0
36556,-100,4,1,2,75,0,0
38431,-80,4,1,2,75,0,0
39056,-100,4,1,2,75,0,0
39681,-80,4,1,2,75,0,0
40306,-100,4,1,2,75,0,0
40931,-80,4,1,2,75,0,0
41556,-100,4,1,2,75,0,0
69993,-113.636363636364,4,1,2,75,0,0
70306,-66.6666666666667,4,1,2,75,0,0
70462,-80,4,1,2,10,0,0
70618,-80,4,1,2,75,0,0
71556,-66.6666666666667,4,1,2,75,0,0
71712,-66.6666666666667,4,1,2,10,0,0
71868,-50,4,1,2,80,0,0
72024,-50,4,1,2,10,0,0
72181,-36.3636363636364,4,1,2,90,0,0
72337,-36.3636363636364,4,1,2,10,0,0
72806,-100,4,1,2,75,0,1
74056,-66.6666666666667,4,1,2,75,0,1
74368,-100,4,1,2,75,0,1
74681,-66.6666666666667,4,1,2,75,0,1
74993,-50,4,1,2,75,0,1
75306,-100,4,1,2,75,0,1
75918,625,4,1,2,75,1,1
76543,-57.1428571428571,4,1,2,75,0,1
76855,-66.6666666666667,4,1,2,75,0,1
77168,-80,4,1,2,75,0,1
77480,-100,4,1,2,75,0,1
77806,625,4,1,2,75,1,1
81556,-83.3333333333333,4,1,2,85,0,1
82806,-71.4285714285714,4,1,2,85,0,1
84056,-57.1428571428571,4,1,2,90,0,1
84681,-50,4,1,2,95,0,1
85306,-50,4,1,2,100,0,0
94993,-100,4,1,2,40,0,0
95306,-100,4,1,2,75,0,0
124993,-100,4,1,2,50,0,0
125306,-90.9090909090909,4,1,2,75,0,1
126556,-60.6060606060606,4,1,2,75,0,1
126868,-90.9090909090909,4,1,2,75,0,1
127181,-60.6060606060606,4,1,2,75,0,1
127493,-45.4545454545455,4,1,2,75,0,1
127806,-90.9090909090909,4,1,2,75,0,1
129056,-51.8134715025907,4,1,2,75,0,1
129368,-60.6060606060606,4,1,2,75,0,1
129681,-72.463768115942,4,1,2,75,0,1
129993,-90.9090909090909,4,1,2,75,0,1
130306,-100,4,1,2,75,0,1
131556,-57.1428571428571,4,1,2,75,0,1
131868,-66.6666666666667,4,1,2,75,0,1
132181,-80,4,1,2,75,0,1
132493,-100,4,1,2,75,0,1
135306,-80,4,1,2,75,0,1
137806,-100,4,1,2,75,0,0
147806,-90.9090909090909,4,1,2,75,0,0
157806,-83.3333333333333,4,1,2,75,0,1
159056,-55.5555555555556,4,1,2,75,0,1
159368,-62.5,4,1,2,75,0,1
159681,-71.4285714285714,4,1,2,75,0,1
159993,-83.3333333333333,4,1,2,75,0,1
161556,-55.5555555555556,4,1,2,75,0,1
161868,-66.6666666666667,4,1,2,75,0,1
162181,-83.3333333333333,4,1,2,75,0,1
162493,-55.5555555555556,4,1,2,75,0,1
162806,-83.3333333333333,4,1,2,75,0,1
164056,-55.5555555555556,4,1,2,75,0,1
164368,-62.5,4,1,2,75,0,1
164681,-71.4285714285714,4,1,2,75,0,1
164993,-83.3333333333333,4,1,2,75,0,1
167493,-100,4,1,2,50,0,1
167806,-83.3333333333333,4,1,2,75,0,1
169056,-55.5555555555556,4,1,2,75,0,1
169368,-83.3333333333333,4,1,2,75,0,1
169681,-55.5555555555556,4,1,2,75,0,1
169993,-41.6666666666667,4,1,2,75,0,1
170306,-83.3333333333333,4,1,2,75,0,1
171556,-47.6190476190476,4,1,2,75,0,1
171868,-55.5555555555556,4,1,2,75,0,1
172181,-66.6666666666667,4,1,2,75,0,1
172493,-83.3333333333333,4,1,2,75,0,1
172806,-100,4,1,2,75,0,1
174056,-55.5555555555556,4,1,2,75,0,1
174368,-62.5,4,1,2,75,0,1
174681,-71.4285714285714,4,1,2,75,0,1
174993,-83.3333333333333,4,1,2,75,0,1
176556,685.714285714286,4,1,2,75,1,1
176556,-108.695652173913,4,1,2,75,0,1
177070,744.647843623953,4,1,2,75,1,1
177070,-120.481927710843,4,1,2,75,0,1
178000,625,4,1,2,75,1,0
188000,-90.9090909090909,4,1,2,75,0,0
198000,-100,4,1,2,75,0,0
206750,-100,4,2,0,90,0,0
207531,-100,4,2,0,40,0,0
210500,-100,4,2,2,5,0,0

[Colours]
Combo1 : 255,19,26
Combo2 : 255,130,130
Combo3 : 255,194,121
Combo4 : 255,251,162
Combo5 : 123,255,133
Combo6 : 200,200,200

[HitObjects]
56,56,2784,5,0,0:0:0:0:
56,56,2940,1,0,0:0:0:0:
56,56,3096,2,0,P|96:48|120:48,1,41.2500015735627
172,40,3431,2,0,P|208:36|240:24,2,55,2|0|0,0:0|0:0|0:0,0:0:0:0:
223,116,4033,5,0,0:0:0:0:
223,116,4189,1,0,0:0:0:0:
223,116,4345,2,0,P|183:124|151:116,1,41.2500015735627
108,132,4669,2,0,P|72:136|40:148,2,55,2|0|0,0:0|0:0|0:0,0:0:0:0:
104,224,5294,5,0,0:0:0:0:
104,224,5450,1,0,0:0:0:0:
104,224,5606,2,0,P|136:232|176:232,1,41.2500015735627
220,228,5919,1,2,0:0:0:0:
296,312,6231,5,0,0:0:0:0:
296,312,6387,1,0,0:0:0:0:
296,312,6544,2,0,P|316:324|357:323,1,41.2500015735627
416,292,6856,37,0,0:0:0:0:
416,292,7012,1,0,0:0:0:0:
416,292,7169,2,0,P|446:283|475:242,1,82.5000031471254,2|0,0:0|0:0,0:0:0:0:
468,136,7794,5,0,0:0:0:0:
468,136,7950,1,0,0:0:0:0:
468,136,8106,1,0,0:0:0:0:
388,192,8419,6,0,P|344:196|292:168,1,82.5000031471254,2|0,0:0|0:0,0:0:0:0:
268,164,8887,1,0,0:0:0:0:
252,116,9044,2,0,L|256:72,2,41.2500015735627
152,108,9669,1,2,0:0:0:0:
108,204,9993,5,0,0:0:0:0:
88,216,10149,1,0,0:0:0:0:
68,228,10305,2,0,L|12:232,2,41.2500015735627
132,304,10930,1,2,0:0:0:0:
224,340,11243,37,0,0:0:0:0:
224,340,11399,1,0,0:0:0:0:
224,340,11555,1,0,0:0:0:0:
212,240,11868,5,0,0:0:0:0:
212,240,12024,1,0,0:0:0:0:
212,240,12180,1,2,0:0:0:0:
392,320,12805,5,0,0:0:0:0:
392,320,12961,1,0,0:0:0:0:
392,320,13118,2,0,P|416:284|428:228,1,82.5000031471254,0|2,0:0|0:0,0:0:0:0:
436,148,13743,2,0,L|428:108,1,41.2500015735627
420,72,14055,5,0,0:0:0:0:
400,56,14211,1,0,0:0:0:0:
380,40,14368,2,0,P|336:24|288:48,1,82.5000031471254,0|2,0:0|0:0,0:0:0:0:
220,32,14993,2,0,L|200:72,1,41.2500015735627
188,96,15305,37,0,0:0:0:0:
172,120,15461,1,0,0:0:0:0:
156,144,15618,2,0,P|112:168|68:144,1,82.5000031471254,0|2,0:0|0:0,0:0:0:0:
32,268,16243,5,0,0:0:0:0:
32,268,16399,2,0,P|68:248|96:240,1,41.2500015735627
152,304,16868,5,0,0:0:0:0:
152,304,17024,1,0,0:0:0:0:
152,304,17180,2,0,P|196:324|236:320,1,82.5000031471254,2|0,0:0|0:0,0:0:0:0:
300,224,17786,5,0,0:0:0:0:
300,224,17942,1,0,0:0:0:0:
300,224,18098,2,0,P|336:260|352:312,1,82.5000031471254,0|2,0:0|0:0,0:0:0:0:
448,320,18723,2,0,L|440:280,1,41.2500015735627
432,244,19035,37,0,0:0:0:0:
444,216,19191,1,0,0:0:0:0:
456,188,19348,2,0,P|436:140|440:96,1,82.5000031471254,0|2,0:0|0:0,0:0:0:0:
388,28,19973,2,0,L|348:36,1,41.2500015735627
312,44,20285,5,0,0:0:0:0:
296,64,20441,1,0,0:0:0:0:
280,84,20598,2,0,P|236:84|184:52,1,82.5000031471254,0|2,0:0|0:0,0:0:0:0:
108,32,21223,5,0,0:0:0:0:
108,32,21379,2,0,P|104:76|112:104,1,41.2500015735627
36,164,21840,5,0,0:0:0:0:
36,164,21996,1,0,0:0:0:0:
36,164,22152,2,0,P|48:200|40:248,1,82.5000031471254,2|0,0:0|0:0,0:0:0:0:
112,336,22777,37,0,0:0:0:0:
112,336,22933,1,0,0:0:0:0:
112,336,23090,2,0,P|156:340|228:320,1,82.5000031471254,0|2,0:0|0:0,0:0:0:0:
256,248,23715,5,0,0:0:0:0:
284,240,23871,1,0,0:0:0:0:
312,240,24027,5,0,0:0:0:0:
336,256,24183,1,0,0:0:0:0:
356,276,24340,2,0,P|392:328|412:336,2,82.5000031471254,0|2|0,0:0|0:0|0:0,0:0:0:0:
448,244,25306,5,0,0:0:0:0:
440,216,25462,1,0,0:0:0:0:
432,188,25618,2,0,P|392:148|384:112,1,82.5000031471254,0|2,0:0|0:0,0:0:0:0:
320,56,26243,37,0,0:0:0:0:
320,56,26399,1,0,0:0:0:0:
320,56,26556,1,0,0:0:0:0:
232,44,26868,5,0,0:0:0:0:
232,44,27024,1,0,0:0:0:0:
232,44,27181,2,0,P|192:40|140:40,1,82.5000031471254,2|0,0:0|0:0,0:0:0:0:
76,100,27806,5,0,0:0:0:0:
76,100,27962,1,0,0:0:0:0:
76,100,28118,1,0,0:0:0:0:
40,192,28431,1,2,0:0:0:0:
140,172,28743,5,0,0:0:0:0:
160,192,28899,1,0,0:0:0:0:
172,220,29056,37,0,0:0:0:0:
172,248,29212,1,0,0:0:0:0:
160,276,29368,2,0,P|204:320|248:336,1,82.5000031471254,0|2,0:0|0:0,0:0:0:0:
384,328,30285,5,0,0:0:0:0:
392,300,30441,1,0,0:0:0:0:
400,272,30606,2,0,P|432:236|468:224,1,82.5000031471254,0|2,0:0|0:0,0:0:0:0:
488,124,31231,5,0,0:0:0:0:
488,124,31387,1,0,0:0:0:0:
488,124,31543,1,0,0:0:0:0:
396,144,31856,5,10,0:0:0:0:
416,40,32168,1,2,0:0:0:0:
416,40,32324,1,2,0:0:0:0:
416,40,32481,1,2,0:0:0:0:
316,72,32806,37,6,0:0:0:0:
316,72,32962,1,2,0:0:0:0:
316,72,33118,2,0,P|280:104|264:132,1,55,2|0,0:0|0:0,0:0:0:0:
248,192,33431,5,10,0:0:0:0:
208,216,33587,1,2,0:0:0:0:
164,200,33743,2,0,P|128:180|76:184,1,68.75,2|0,0:0|0:0,0:0:0:0:
40,232,34056,5,2,0:0:0:0:
40,232,34212,1,2,0:0:0:0:
40,232,34368,2,0,P|24:276|32:304,1,55,2|0,0:0|0:0,0:0:0:0:
72,352,34681,5,10,0:0:0:0:
116,332,34837,1,2,0:0:0:0:
164,340,34993,2,0,P|200:344|236:328,1,68.75,2|0,0:0|0:0,0:0:0:0:
296,284,35306,37,2,0:0:0:0:
296,284,35462,1,2,0:0:0:0:
296,284,35618,2,0,P|324:292|360:320,1,55,2|0,0:0|0:0,0:0:0:0:
412,360,35931,6,0,P|428:320|420:268,1,68.75,10|0,0:0|0:0,0:0:0:0:
404,220,36243,1,2,0:0:0:0:
404,220,36399,2,0,P|400:144|440:64,1,137.5,2|0,0:0|0:0,0:0:0:0:
380,28,36868,5,2,0:0:0:0:
344,44,37024,1,2,0:0:0:0:
308,32,37181,2,0,P|244:48|212:92,1,110,10|0,0:0|0:0,0:0:0:0:
128,200,37806,5,2,0:0:0:0:
128,200,37962,1,2,0:0:0:0:
128,200,38118,2,0,P|164:184|208:196,1,55,2|0,0:0|0:0,0:0:0:0:
256,196,38431,37,10,0:0:0:0:
256,244,38587,1,2,0:0:0:0:
236,288,38743,2,0,P|200:324|156:336,1,68.75,2|0,0:0|0:0,0:0:0:0:
104,352,39056,5,2,0:0:0:0:
104,352,39212,1,2,0:0:0:0:
104,352,39368,2,0,P|64:312|56:284,1,55,2|0,0:0|0:0,0:0:0:0:
88,232,39681,5,10,0:0:0:0:
116,192,39837,1,2,0:0:0:0:
120,144,39993,2,0,P|104:104|60:80,1,68.75,2|0,0:0|0:0,0:0:0:0:
144,24,40306,5,2,0:0:0:0:
144,24,40462,1,2,0:0:0:0:
144,24,40618,2,0,P|192:48|224:48,1,55,2|0,0:0|0:0,0:0:0:0:
284,28,40931,38,0,P|284:68|256:112,1,68.75,10|0,0:0|0:0,0:0:0:0:
228,168,41243,1,2,0:0:0:0:
228,168,41399,2,0,P|232:248|280:280,1,137.5,2|0,0:0|0:0,0:0:0:0:
340,336,41868,5,2,0:0:0:0:
376,344,42024,1,2,0:0:0:0:
412,332,42181,2,0,P|468:296|472:228,1,110,10|0,0:0|0:0,0:0:0:0:
424,104,42806,6,0,L|476:80,1,55,6|2,0:0|0:0,0:0:0:0:
392,176,43118,2,0,L|416:228,1,55,2|2,0:0|0:0,0:0:0:0:
320,144,43431,2,0,L|270:167,1,55,10|2,0:0|0:0,0:0:0:0:
348,72,43743,2,0,L|324:22,1,55,2|2,0:0|0:0,0:0:0:0:
232,24,44056,5,2,0:0:0:0:
176,196,44368,1,2,0:0:0:0:
68,72,44681,1,10,0:0:0:0:
56,176,44993,1,2,0:0:0:0:
72,332,45306,38,0,L|72:277,1,55,2|2,0:0|0:0,0:0:0:0:
156,288,45618,2,0,L|156:343,1,55,2|2,0:0|0:0,0:0:0:0:
240,336,45931,2,0,L|240:281,1,55,10|2,0:0|0:0,0:0:0:0:
324,284,46243,2,0,L|324:339,1,55,2|2,0:0|0:0,0:0:0:0:
400,328,46556,5,2,0:0:0:0:
400,148,46868,1,2,0:0:0:0:
496,280,47181,1,10,0:0:0:0:
312,204,47493,1,2,0:0:0:0:
200,240,47806,6,0,L|200:295,1,55,2|2,0:0|0:0,0:0:0:0:
116,336,48118,2,0,L|116:281,1,55,2|2,0:0|0:0,0:0:0:0:
32,236,48431,2,0,L|32:291,1,55,10|2,0:0|0:0,0:0:0:0:
116,200,48743,2,0,L|116:145,1,55,2|2,0:0|0:0,0:0:0:0:
192,84,49056,5,2,0:0:0:0:
356,164,49368,1,2,0:0:0:0:
256,32,49681,1,10,0:0:0:0:
256,192,49993,1,2,0:0:0:0:
356,64,50306,37,2,0:0:0:0:
448,160,50618,1,2,0:0:0:0:
256,192,50931,1,10,0:0:0:0:
340,292,51243,1,2,0:0:0:0:
212,316,51556,5,2,0:0:0:0:
256,192,51868,1,10,0:0:0:0:
212,316,52181,1,2,0:0:0:0:
80,48,52806,5,2,0:0:0:0:
152,48,52962,2,0,L|228:48,2,55,2|2|2,0:0|0:0|0:0,0:0:0:0:
116,120,53431,5,10,0:0:0:0:
188,120,53587,2,0,L|264:120,2,55,2|2|2,0:0|0:0|0:0,0:0:0:0:
152,188,54056,37,2,0:0:0:0:
36,328,54368,1,2,0:0:0:0:
200,356,54681,1,10,0:0:0:0:
248,256,54993,1,2,0:0:0:0:
344,356,55306,5,2,0:0:0:0:
416,356,55462,2,0,L|492:356,2,55,2|2|2,0:0|0:0|0:0,0:0:0:0:
380,284,55931,5,10,0:0:0:0:
452,284,56087,2,0,L|528:284,2,55,2|2|2,0:0|0:0|0:0,0:0:0:0:
416,216,56556,5,2,0:0:0:0:
324,80,56868,1,2,0:0:0:0:
336,212,57181,1,10,0:0:0:0:
428,36,57493,1,2,0:0:0:0:
468,156,57806,37,2,0:0:0:0:
460,228,57962,2,0,L|452:292,2,55,2|2|2,0:0|0:0|0:0,0:0:0:0:
392,168,58431,5,10,0:0:0:0:
384,240,58587,2,0,L|376:304,2,55,2|2|2,0:0|0:0|0:0,0:0:0:0:
320,184,59056,5,2,0:0:0:0:
432,44,59368,1,2,0:0:0:0:
268,20,59681,1,10,0:0:0:0:
176,136,59993,1,2,0:0:0:0:
112,252,60306,5,2,0:0:0:0:
244,252,60618,1,2,0:0:0:0:
300,132,60931,1,10,0:0:0:0:
112,252,61243,1,2,0:0:0:0:
52,136,61556,37,2,0:0:0:0:
112,252,61868,1,10,0:0:0:0:
52,136,62181,1,2,0:0:0:0:
72,336,62806,6,0,P|64:284|80:256,1,55,2|2,0:0|0:0,0:0:0:0:
80,260,63118,1,2,0:0:0:0:
104,244,63274,1,2,0:0:0:0:
132,236,63431,6,0,P|144:200|132:148,1,55,10|0,0:0|0:0,0:0:0:0:
140,156,63743,1,2,0:0:0:0:
116,144,63899,1,2,0:0:0:0:
88,152,64056,6,0,P|80:96|136:44,1,110,2|2,0:0|0:0,0:0:0:0:
244,236,64681,2,0,P|252:180|196:128,1,110,10|2,0:0|0:0,0:0:0:0:
168,324,65306,38,0,P|204:336|244:312,1,55,2|0,0:0|0:0,0:0:0:0:
244,320,65618,1,2,0:0:0:0:
272,320,65774,1,2,0:0:0:0:
296,332,65931,6,0,P|356:336|388:284,1,110,10|2,0:0|0:0,0:0:0:0:
388,272,66399,1,2,0:0:0:0:
376,248,66556,6,0,P|416:200|484:188,1,110,2|2,0:0|0:0,0:0:0:0:
497,91,67181,2,0,P|443:88|392:108,1,110,10|2,0:0|0:0,0:0:0:0:
260,40,67806,5,2,0:0:0:0:
248,120,67962,2,0,L|240:184,2,55,2|2|2,0:0|0:0|0:0,0:0:0:0:
180,76,68431,37,10,0:0:0:0:
168,156,68587,2,0,L|160:220,2,55,2|2|2,0:0|0:0|0:0,0:0:0:0:
100,112,69056,5,2,0:0:0:0:
152,280,69368,1,2,0:0:0:0:
48,224,69681,1,10,0:0:0:0:
52,344,69993,1,2,0:0:0:0:
216,340,70306,6,0,P|304:325|402:354,1,165.000006294251,2|2,0:0|0:0,0:0:0:0:
216,340,70931,6,0,P|244:264|320:212,1,137.5,10|2,0:0|0:0,0:0:0:0:
424,80,71556,38,0,P|420:120|428:180,1,82.5000031471254,2|0,0:0|0:0,0:0:0:0:
340,168,71868,70,0,P|332:113|344:60,1,110,2|0,0:0|0:0,0:0:0:0:
256,36,72181,70,0,P|240:108|248:184,1,151.250001442432,10|0,0:0|0:0,0:0:0:0:
56,52,72806,21,6,0:0:0:0:
52,92,72962,1,2,0:0:0:0:
64,128,73118,2,0,P|60:156|44:180,1,55,2|2,0:0|0:0,0:0:0:0:
32,216,73431,5,10,0:0:0:0:
24,252,73587,1,2,0:0:0:0:
40,288,73743,2,0,P|56:320|80:336,1,55,2|2,0:0|0:0,0:0:0:0:
124,360,74056,6,0,P|136:336|140:264,1,82.5000031471254,2|0,0:0|0:0,0:0:0:0:
220,236,74368,6,0,L|220:328,1,55,2|0,0:0|0:0,0:0:0:0:
296,324,74681,38,0,L|296:216,1,82.5000031471254,10|0,0:0|0:0,0:0:0:0:
372,216,74993,6,0,L|372:356,1,110,2|0,0:0|0:0,0:0:0:0:
476,220,75306,38,0,L|476:320,2,55,2|0|0,0:0|0:0|0:0,0:0:0:0:
472,140,75774,1,2,0:0:0:0:
420,56,75918,2,0,B|352:56,1,55,10|0,0:0|0:0,0:0:0:0:
296,140,76230,2,0,B|364:140,1,55,2|0,0:0|0:0,0:0:0:0:
216,40,76543,22,0,B|168:40|168:40|108:52,1,96.2500009179115,2|0,0:0|0:0,0:0:0:0:
106,140,76855,6,0,B|136:124|136:124|184:116,1,82.5000031471254,2|0,0:0|0:0,0:0:0:0:
164,200,77168,6,0,B|128:216|128:216|92:244,1,68.75,10|0,0:0|0:0,0:0:0:0:
130,315,77480,6,0,B|144:300|144:300|172:280,1,55,2|0,0:0|0:0,0:0:0:0:
280,236,77806,37,2,0:0:0:0:
260,264,77962,1,2,0:0:0:0:
256,300,78118,1,2,0:0:0:0:
268,332,78274,1,2,0:0:0:0:
292,356,78431,5,10,0:0:0:0:
324,344,78587,1,2,0:0:0:0:
356,332,78743,1,2,0:0:0:0:
388,320,78899,1,2,0:0:0:0:
420,308,79056,5,2,0:0:0:0:
328,160,79368,1,2,0:0:0:0:
456,180,79681,1,10,0:0:0:0:
408,52,79993,1,2,0:0:0:0:
286,32,80306,6,0,P|223:44|182:90,1,110,6|2,0:0|0:0,0:0:0:0:
179,99,80774,1,2,0:0:0:0:
168,124,80931,2,0,L|168:207,1,55,10|2,0:0|0:0,0:0:0:0:
88,240,81243,2,0,L|88:183,1,55,2|2,0:0|0:0,0:0:0:0:
44,328,81556,38,0,P|124:328|188:264,1,131.99999597168,2|2,0:0|0:0,0:0:0:0:
192,272,82024,1,2,0:0:0:0:
216,252,82181,2,0,L|288:252,1,65.9999979858399,10|2,0:0|0:0,0:0:0:0:
348,340,82493,2,0,L|282:340,1,65.9999979858399,2|2,0:0|0:0,0:0:0:0:
428,260,82806,6,0,P|428:188|352:140,1,153.999995300293,2|2,0:0|0:0,0:0:0:0:
332,156,83274,1,2,0:0:0:0:
296,172,83431,2,0,L|200:136,1,76.9999976501466,10|2,0:0|0:0,0:0:0:0:
136,32,83743,2,0,L|232:68,1,76.9999976501466,2|2,0:0|0:0,0:0:0:0:
132,136,84056,54,0,L|20:180,1,96.2500009179115,2|2,0:0|0:0,0:0:0:0:
80,284,84368,2,0,L|192:240,1,96.2500009179115,2|2,0:0|0:0,0:0:0:0:
296,172,84681,69,10,0:0:0:0:
282,297,84837,1,2,0:0:0:0:
366,203,84993,1,2,0:0:0:0:
244,230,85149,1,2,0:0:0:0:
359,281,85306,5,6,0:0:0:0:
256,192,92806,12,10,94681,0:0:0:0:
76,128,95306,5,6,0:0:0:0:
96,88,95462,1,2,0:0:0:0:
136,68,95618,2,0,P|172:48|220:48,1,55,2|0,0:0|0:0,0:0:0:0:
192,128,95931,5,10,0:0:0:0:
236,120,96087,1,2,0:0:0:0:
276,140,96243,2,0,P|312:128|360:144,1,55,2|0,0:0|0:0,0:0:0:0:
320,212,96556,5,2,0:0:0:0:
320,212,96712,1,2,0:0:0:0:
320,212,96868,2,0,P|360:208|392:184,1,55,2|0,0:0|0:0,0:0:0:0:
444,152,97181,5,10,0:0:0:0:
464,192,97337,1,2,0:0:0:0:
444,232,97493,2,0,P|412:272|372:276,1,55,2|0,0:0|0:0,0:0:0:0:
304,348,97806,37,2,0:0:0:0:
304,348,97962,1,2,0:0:0:0:
304,348,98118,2,0,P|284:312|280:264,1,55,2|0,0:0|0:0,0:0:0:0:
288,228,98431,6,0,P|255:229|232:240,1,55,10|0,0:0|0:0,0:0:0:0:
184,300,98743,1,2,0:0:0:0:
184,300,98899,1,2,0:0:0:0:
184,300,99056,2,0,P|160:264|160:208,1,55,2|0,0:0|0:0,0:0:0:0:
184,176,99368,5,2,0:0:0:0:
184,176,99524,1,2,0:0:0:0:
184,176,99681,2,0,P|152:128|96:120,1,110,10|0,0:0|0:0,0:0:0:0:
102,259,100306,5,6,0:0:0:0:
102,259,100462,1,2,0:0:0:0:
102,259,100618,2,0,P|142:255|178:247,1,55,2|0,0:0|0:0,0:0:0:0:
232,208,100931,37,10,0:0:0:0:
268,184,101087,1,2,0:0:0:0:
312,192,101243,2,0,P|352:192|392:168,1,55,2|0,0:0|0:0,0:0:0:0:
440,148,101556,5,2,0:0:0:0:
440,148,101712,1,2,0:0:0:0:
440,148,101868,2,0,P|408:112|376:104,1,55,2|0,0:0|0:0,0:0:0:0:
328,100,102181,5,10,0:0:0:0:
288,84,102337,1,2,0:0:0:0:
244,88,102493,2,0,P|216:72|200:52,1,55,2|0,0:0|0:0,0:0:0:0:
124,24,102806,5,2,0:0:0:0:
124,24,102962,1,2,0:0:0:0:
124,24,103118,2,0,P|120:60|144:100,1,55,2|0,0:0|0:0,0:0:0:0:
140,152,103431,38,0,P|142:194|128:216,1,55,10|0,0:0|0:0,0:0:0:0:
96,264,103743,1,2,0:0:0:0:
96,264,103899,2,0,P|128:320|184:344,1,110,2|0,0:0|0:0,0:0:0:0:
244,360,104368,5,2,0:0:0:0:
280,336,104524,1,2,0:0:0:0:
324,340,104681,2,0,P|376:324|412:280,1,110,10|0,0:0|0:0,0:0:0:0:
436,136,105306,5,2,0:0:0:0:
436,136,105462,1,2,0:0:0:0:
436,136,105618,2,0,P|400:132|320:152,1,110,2|10,0:0|0:0,0:0:0:0:
140,32,106243,2,0,L|220:32,1,55,2|2,0:0|0:0,0:0:0:0:
232,116,106556,5,2,0:0:0:0:
232,116,106712,1,2,0:0:0:0:
232,116,106868,2,0,P|196:160|132:176,1,110,2|10,0:0|0:0,0:0:0:0:
40,336,107493,2,0,L|40:276,1,55,2|2,0:0|0:0,0:0:0:0:
120,260,107806,37,2,0:0:0:0:
120,260,107962,1,2,0:0:0:0:
120,260,108118,2,0,P|184:280|204:336,1,110,2|10,0:0|0:0,0:0:0:0:
310,347,108743,5,2,0:0:0:0:
310,347,108899,2,0,P|296:296|320:232,1,110,2|0,0:0|0:0,0:0:0:0:
380,188,109368,1,2,0:0:0:0:
380,188,109524,1,2,0:0:0:0:
380,188,109681,2,0,P|395:239|381:292,1,110,10|0,0:0|0:0,0:0:0:0:
456,120,110306,21,2,0:0:0:0:
456,120,110462,1,2,0:0:0:0:
456,120,110618,2,0,P|416:96|336:92,1,110,2|10,0:0|0:0,0:0:0:0:
244,40,111243,37,2,0:0:0:0:
244,40,111399,1,2,0:0:0:0:
196,96,111556,2,0,P|232:112|276:108,1,55,2|2,0:0|0:0,0:0:0:0:
260,184,111868,2,0,P|200:180|128:132,1,110,2|10,0:0|0:0,0:0:0:0:
44,268,112493,5,2,0:0:0:0:
44,268,112649,1,2,0:0:0:0:
100,316,112806,2,0,P|116:280|108:224,1,55,2|2,0:0|0:0,0:0:0:0:
188,252,113118,2,0,P|184:312|136:384,1,110,2|10,0:0|0:0,0:0:0:0:
296,348,113743,5,2,0:0:0:0:
296,348,113899,2,0,P|344:332|372:272,1,110,2|0,0:0|0:0,0:0:0:0:
360,204,114368,1,2,0:0:0:0:
360,204,114524,1,2,0:0:0:0:
360,204,114681,2,0,P|416:188|472:216,1,110,10|0,0:0|0:0,0:0:0:0:
392,56,115306,5,6,0:0:0:0:
364,52,115462,1,2,0:0:0:0:
336,48,115618,1,2,0:0:0:0:
308,44,115774,1,2,0:0:0:0:
284,56,115931,37,10,0:0:0:0:
256,52,116087,1,2,0:0:0:0:
228,48,116243,1,2,0:0:0:0:
200,44,116399,1,2,0:0:0:0:
172,40,116556,6,0,P|68:52|40:88,1,110,2|2,0:0|0:0,0:0:0:0:
36,192,117181,2,0,P|140:180|168:144,1,110,10|2,0:0|0:0,0:0:0:0:
120,328,117806,5,2,0:0:0:0:
148,332,117962,1,2,0:0:0:0:
176,336,118118,1,2,0:0:0:0:
204,340,118274,1,2,0:0:0:0:
228,328,118431,5,10,0:0:0:0:
256,332,118587,1,2,0:0:0:0:
284,336,118743,1,2,0:0:0:0:
312,340,118899,1,2,0:0:0:0:
340,344,119056,38,0,P|444:332|472:296,1,110,2|2,0:0|0:0,0:0:0:0:
476,192,119681,2,0,P|372:204|344:240,1,110,10|2,0:0|0:0,0:0:0:0:
256,332,120306,5,2,0:0:0:0:
260,304,120462,1,2,0:0:0:0:
264,276,120618,1,2,0:0:0:0:
268,248,120774,1,2,0:0:0:0:
256,224,120931,5,10,0:0:0:0:
252,196,121087,1,2,0:0:0:0:
248,168,121243,1,2,0:0:0:0:
244,140,121399,1,2,0:0:0:0:
240,116,121556,6,0,P|184:40|136:24,1,110,2|2,0:0|0:0,0:0:0:0:
48,144,122181,2,0,P|104:220|152:236,1,110,10|2,0:0|0:0,0:0:0:0:
184,340,122806,37,2,0:0:0:0:
316,328,123118,1,2,0:0:0:0:
240,220,123431,1,10,0:0:0:0:
184,340,123743,1,2,0:0:0:0:
316,328,124056,5,2,0:0:0:0:
364,204,124368,1,10,0:0:0:0:
316,328,124681,1,2,0:0:0:0:
104,320,125306,6,0,P|108:284|92:240,1,60.5000018463135,6|2,0:0|0:0,0:0:0:0:
88,232,125618,1,2,0:0:0:0:
68,212,125774,1,2,0:0:0:0:
52,184,125931,6,0,P|36:152|44:112,1,60.5000018463135,10|0,0:0|0:0,0:0:0:0:
48,100,126243,1,2,0:0:0:0:
72,80,126399,1,2,0:0:0:0:
104,72,126556,38,0,P|156:68|196:32,1,90.7500008654595,2|0,0:0|0:0,0:0:0:0:
268,48,126868,6,0,P|248:92|232:108,1,60.5000018463135,2|0,0:0|0:0,0:0:0:0:
240,200,127181,6,0,P|280:172|312:132,1,90.7500008654595,10|0,0:0|0:0,0:0:0:0:
404,116,127493,6,0,P|372:188|328:240,1,121.000003692627,2|0,0:0|0:0,0:0:0:0:
336,344,127806,6,0,P|368:324|384:300,2,60.5000018463135,2|0|0,0:0|0:0|0:0,0:0:0:0:
256,320,128274,1,2,0:0:0:0:
180,352,128431,2,0,P|144:348|112:324,1,60.5000018463135,10|0,0:0|0:0,0:0:0:0:
36,244,128743,2,0,P|72:248|104:272,1,60.5000018463135,2|0,0:0|0:0,0:0:0:0:
120,184,129056,38,0,P|92:112|96:60,1,106.14999744894,2|0,0:0|0:0,0:0:0:0:
180,51,129368,6,0,P|171:95|180:140,1,90.7500008654595,2|0,0:0|0:0,0:0:0:0:
256,120,129681,6,0,P|256:80|272:48,1,75.9000001158142,10|0,0:0|0:0,0:0:0:0:
374,60,129993,38,0,P|350:77|336:104,1,60.5000018463135,2|0,0:0|0:0,0:0:0:0:
408,136,130306,6,0,P|432:164|460:168,1,55,2|2,0:0|0:0,0:0:0:0:
468,188,130618,1,2,0:0:0:0:
480,212,130774,1,2,0:0:0:0:
480,240,130931,6,0,P|460:280|416:276,1,55,10|2,0:0|0:0,0:0:0:0:
428,296,131243,1,2,0:0:0:0:
408,316,131399,1,2,0:0:0:0:
376,328,131556,6,0,P|336:328|252:336,1,96.2500009179115,2|0,0:0|0:0,0:0:0:0:
224,260,131868,38,0,P|272:252|324:252,1,82.5000031471254,2|0,0:0|0:0,0:0:0:0:
236,172,132181,6,0,P|196:180|156:192,1,68.75,10|0,0:0|0:0,0:0:0:0:
120,124,132493,6,0,P|152:108|176:104,1,55,2|0,0:0|0:0,0:0:0:0:
108,36,132806,6,0,P|48:76|32:128,1,110,6|2,0:0|0:0,0:0:0:0:
32,152,133274,1,2,0:0:0:0:
37,223,133431,2,0,L|17:295,2,55,10|2|2,0:0|0:0|0:0,0:0:0:0:
100,184,133899,1,2,0:0:0:0:
124,256,134056,38,0,L|152:332,1,55,2|2,0:0|0:0,0:0:0:0:
244,344,134368,2,0,L|216:268,1,55,2|2,0:0|0:0,0:0:0:0:
280,208,134681,2,0,L|308:284,1,55,10|2,0:0|0:0,0:0:0:0:
400,324,134993,2,0,L|372:248,1,55,2|2,0:0|0:0,0:0:0:0:
395,149,135306,6,0,P|345:197|245:197,1,137.5,6|2,0:0|0:0,0:0:0:0:
196,180,135774,1,2,0:0:0:0:
212,92,135931,2,0,P|176:64|160:32,2,68.75,10|2|2,0:0|0:0|0:0,0:0:0:0:
296,112,136399,1,2,0:0:0:0:
372,68,136556,6,0,L|436:24,1,68.75,2|2,0:0|0:0,0:0:0:0:
464,144,136868,2,0,L|381:197,1,68.75,2|2,0:0|0:0,0:0:0:0:
392,336,137181,6,0,L|480:284,1,68.75,10|2,0:0|0:0,0:0:0:0:
312,196,137493,2,0,L|232:244,1,68.75,2|2,0:0|0:0,0:0:0:0:
104,280,137806,37,6,0:0:0:0:
60,268,137962,1,2,0:0:0:0:
44,228,138118,2,0,P|24:196|16:160,1,55,2|0,0:0|0:0,0:0:0:0:
164,228,138431,5,10,0:0:0:0:
132,200,138587,1,2,0:0:0:0:
124,156,138743,2,0,P|128:120|152:88,1,55,2|0,0:0|0:0,0:0:0:0:
200,148,139056,5,2,0:0:0:0:
216,108,139212,1,2,0:0:0:0:
256,88,139368,2,0,P|292:64|328:64,1,55,2|0,0:0|0:0,0:0:0:0:
312,136,139681,5,10,0:0:0:0:
356,128,139837,1,2,0:0:0:0:
392,156,139993,2,0,P|416:192|412:236,1,55,2|0,0:0|0:0,0:0:0:0:
344,212,140306,37,2,0:0:0:0:
360,252,140462,1,2,0:0:0:0:
340,292,140618,2,0,P|316:324|276:340,1,55,2|0,0:0|0:0,0:0:0:0:
224,292,140931,2,0,P|236:268|272:248,1,55,10|0,0:0|0:0,0:0:0:0:
224,172,141243,5,2,0:0:0:0:
224,172,141399,1,2,0:0:0:0:
224,172,141556,2,0,P|188:192|164:228,1,55,2|0,0:0|0:0,0:0:0:0:
136,264,141868,5,2,0:0:0:0:
108,288,142024,1,2,0:0:0:0:
68,284,142181,2,0,P|12:240|4:188,1,110,10|0,0:0|0:0,0:0:0:0:
120,56,142806,5,2,0:0:0:0:
164,48,142962,1,2,0:0:0:0:
208,40,143118,2,0,L|304:56,1,55,2|0,0:0|0:0,0:0:0:0:
228,124,143431,37,10,0:0:0:0:
272,132,143587,1,2,0:0:0:0:
316,140,143743,2,0,L|412:128,1,55,2|0,0:0|0:0,0:0:0:0:
360,216,144056,5,2,0:0:0:0:
316,220,144212,1,2,0:0:0:0:
272,224,144368,2,0,L|192:208,1,55,2|0,0:0|0:0,0:0:0:0:
228,296,144681,5,10,0:0:0:0:
184,288,144837,1,2,0:0:0:0:
140,280,144993,2,0,L|72:292,1,55,2|0,0:0|0:0,0:0:0:0:
96,208,145306,5,2,0:0:0:0:
76,168,145462,1,2,0:0:0:0:
60,128,145618,2,0,B|68:96|120:56,1,55,2|0,0:0|0:0,0:0:0:0:
172,40,145931,2,0,P|212:40|268:52,1,55,10|0,0:0|0:0,0:0:0:0:
312,72,146243,37,2,0:0:0:0:
312,72,146399,1,2,0:0:0:0:
312,72,146556,2,0,P|308:128|296:160,1,55,2|0,0:0|0:0,0:0:0:0:
244,184,146868,5,2,0:0:0:0:
268,212,147024,1,2,0:0:0:0:
308,212,147181,2,0,P|368:196|392:136,1,110,10|0,0:0|0:0,0:0:0:0:
448,248,147806,6,0,L|448:308,1,60.5000018463135,6|0,0:0|0:0,0:0:0:0:
376,352,148118,2,0,L|376:284,1,60.5000018463135,2|2,0:0|0:0,0:0:0:0:
304,312,148431,5,10,0:0:0:0:
276,332,148587,1,2,0:0:0:0:
240,340,148743,1,2,0:0:0:0:
204,340,148899,1,2,0:0:0:0:
172,324,149056,38,0,P|152:300|148:244,1,60.5000018463135,2|2,0:0|0:0,0:0:0:0:
200,208,149368,2,0,P|220:232|224:288,1,60.5000018463135,2|2,0:0|0:0,0:0:0:0:
128,196,149681,5,10,0:0:0:0:
104,168,149837,1,0,0:0:0:0:
96,132,149993,1,2,0:0:0:0:
104,96,150149,1,0,0:0:0:0:
124,68,150306,6,0,P|156:40|208:36,1,60.5000018463135,2|2,0:0|0:0,0:0:0:0:
236,88,150618,2,0,P|204:116|152:120,1,60.5000018463135,2|0,0:0|0:0,0:0:0:0:
256,12,150931,5,10,0:0:0:0:
288,24,151087,1,0,0:0:0:0:
308,52,151243,1,2,0:0:0:0:
316,88,151399,1,2,0:0:0:0:
308,124,151556,38,0,P|328:172|356:192,3,60.5000018463135,2|0|2|2,0:0|0:0|0:0|0:0,0:0:0:0:
368,220,152181,2,0,P|364:276|352:296,3,60.5000018463135,10|0|2|2,0:0|0:0|0:0|0:0,0:0:0:0:
340,320,152806,6,0,L|264:336,1,60.5000018463135,2|2,0:0|0:0,0:0:0:0:
224,264,153118,2,0,L|304:248,1,60.5000018463135,2|0,0:0|0:0,0:0:0:0:
204,340,153431,5,10,0:0:0:0:
172,328,153587,1,0,0:0:0:0:
140,316,153743,1,2,0:0:0:0:
108,304,153899,1,2,0:0:0:0:
76,292,154056,6,0,L|28:224,1,60.5000018463135,2|2,0:0|0:0,0:0:0:0:
100,168,154368,2,0,L|148:236,1,60.5000018463135,2|0,0:0|0:0,0:0:0:0:
24,168,154681,37,10,0:0:0:0:
36,132,154837,1,0,0:0:0:0:
48,96,154993,1,2,0:0:0:0:
60,60,155149,1,2,0:0:0:0:
72,32,155306,6,0,L|136:32,1,60.5000018463135,2|2,0:0|0:0,0:0:0:0:
176,104,155618,2,0,L|112:104,1,60.5000018463135,2|0,0:0|0:0,0:0:0:0:
208,32,155931,5,10,0:0:0:0:
244,32,156087,1,0,0:0:0:0:
280,32,156243,1,2,0:0:0:0:
316,32,156399,1,2,0:0:0:0:
348,52,156556,6,0,P|376:104|380:184,1,121.000003692627,2|2,0:0|0:0,0:0:0:0:
360,232,157024,1,2,0:0:0:0:
360,232,157181,2,0,P|344:280|384:352,1,121.000003692627,10|2,0:0|0:0,0:0:0:0:
80,352,157806,38,0,P|108:324|104:268,1,65.9999979858399,6|0,0:0|0:0,0:0:0:0:
104,260,158118,1,2,0:0:0:0:
84,228,158274,1,2,0:0:0:0:
80,188,158431,6,0,P|92:152|120:124,1,65.9999979858399,10|0,0:0|0:0,0:0:0:0:
144,108,158743,1,2,0:0:0:0:
184,96,158899,1,2,0:0:0:0:
224,96,159056,6,0,B|328:68,1,98.9999969787599,2|0,0:0|0:0,0:0:0:0:
372,136,159368,6,0,B|288:160,1,88,2|0,0:0|0:0,0:0:0:0:
344,224,159681,38,0,L|420:200,1,76.9999976501466,10|0,0:0|0:0,0:0:0:0:
460,268,159993,6,0,L|388:292,1,65.9999979858399,2|0,0:0|0:0,0:0:0:0:
304,336,160306,6,0,P|224:336|192:300,1,131.99999597168,2|2,0:0|0:0,0:0:0:0:
176,264,160774,1,2,0:0:0:0:
160,228,160931,2,0,P|128:204|88:200,1,65.9999979858399,10|0,0:0|0:0,0:0:0:0:
40,248,161243,2,0,P|72:272|112:276,1,65.9999979858399,2|0,0:0|0:0,0:0:0:0:
32,176,161556,6,0,B|24:124|24:124|36:80,1,98.9999969787599,2|0,0:0|0:0,0:0:0:0:
112,80,161868,38,0,B|100:124|100:124|104:160,1,82.5000031471254,2|0,0:0|0:0,0:0:0:0:
177,150,162181,6,0,B|176:128|176:128|188:80,1,65.9999979858399,10|0,0:0|0:0,0:0:0:0:
248,140,162493,6,0,B|300:152|300:152|356:124,1,98.9999969787599,2|0,0:0|0:0,0:0:0:0:
396,64,162806,6,0,P|424:108|428:136,1,65.9999979858399,2|0,0:0|0:0,0:0:0:0:
436,160,163118,1,2,0:0:0:0:
440,200,163274,1,2,0:0:0:0:
436,240,163431,38,0,P|432:308|412:340,1,65.9999979858399,10|0,0:0|0:0,0:0:0:0:
408,336,163743,1,2,0:0:0:0:
372,348,163899,1,2,0:0:0:0:
336,344,164056,6,0,P|260:352|176:328,1,98.9999969787599,2|0,0:0|0:0,0:0:0:0:
240,268,164368,6,0,P|280:276|340:260,1,88,2|0,0:0|0:0,0:0:0:0:
320,184,164681,6,0,P|280:200|236:180,1,76.9999976501466,10|0,0:0|0:0,0:0:0:0:
280,120,164993,38,0,P|288:92|316:64,1,65.9999979858399,2|0,0:0|0:0,0:0:0:0:
352,56,165306,5,2,0:0:0:0:
484,56,165618,1,2,0:0:0:0:
484,188,165931,1,10,0:0:0:0:
352,192,166243,1,2,0:0:0:0:
416,320,166556,5,2,0:0:0:0:
284,324,166868,1,2,0:0:0:0:
416,320,167181,1,10,0:0:0:0:
204,344,167806,5,6,0:0:0:0:
164,320,167962,1,2,0:0:0:0:
120,308,168118,1,2,0:0:0:0:
76,324,168274,1,2,0:0:0:0:
36,352,168431,37,10,0:0:0:0:
8,316,168587,1,2,0:0:0:0:
4,272,168743,1,2,0:0:0:0:
24,228,168899,1,2,0:0:0:0:
60,200,169056,6,0,P|108:172|192:196,1,98.9999969787599,2|0,0:0|0:0,0:0:0:0:
208,236,169368,6,0,P|176:252|132:256,1,65.9999979858399,2|0,0:0|0:0,0:0:0:0:
228,156,169681,6,0,P|280:136|320:96,1,98.9999969787599,10|0,0:0|0:0,0:0:0:0:
372,40,169993,38,0,P|396:128|380:196,1,131.99999597168,2|0,0:0|0:0,0:0:0:0:
316,288,170306,54,0,P|316:320|352:364,2,65.9999979858399,2|0|0,0:0|0:0|0:0,0:0:0:0:
404,268,170774,1,2,0:0:0:0:
472,136,170931,2,0,P|464:192|432:236,1,65.9999979858399,10|0,0:0|0:0,0:0:0:0:
300,180,171243,2,0,P|308:124|340:80,1,65.9999979858399,2|0,0:0|0:0,0:0:0:0:
392,32,171556,22,0,P|332:16|272:28,1,115.49999647522,2|0,0:0|0:0,0:0:0:0:
142,150,171868,6,0,P|174:113|220:96,1,98.9999969787599,2|0,0:0|0:0,0:0:0:0:
168,232,172181,6,0,P|132:256|112:296,1,82.5000031471254,10|0,0:0|0:0,0:0:0:0:
231,356,172493,6,0,P|204:339|196:308,1,65.9999979858399,2|0,0:0|0:0,0:0:0:0:
348,352,172806,38,0,L|412:352,2,55,2|0|2,0:0|0:0|0:0,0:0:0:0:
312,288,173274,1,2,0:0:0:0:
276,224,173431,2,0,L|200:224,2,55,10|0|2,0:0|0:0|0:0,0:0:0:0:
344,188,173899,1,2,0:0:0:0:
412,152,174056,6,0,L|440:52,1,98.9999969787599,2|0,0:0|0:0,0:0:0:0:
360,28,174368,6,0,L|336:112,1,88,2|0,0:0|0:0,0:0:0:0:
248,120,174681,6,0,L|272:44,1,76.9999976501466,10|0,0:0|0:0,0:0:0:0:
196,32,174993,38,0,L|172:104,1,65.9999979858399,2|0,0:0|0:0,0:0:0:0:
96,176,175306,6,0,P|104:244|156:288,1,131.99999597168,6|2,0:0|0:0,0:0:0:0:
216,312,175774,1,2,0:0:0:0:
216,312,175931,2,0,L|284:312,1,65.9999979858399,10|2,0:0|0:0,0:0:0:0:
332,236,176243,2,0,L|264:236,1,65.9999979858399,2|2,0:0|0:0,0:0:0:0:
300,160,176556,54,0,L|356:160,3,50.5999983013917,2|2|2|2,0:0|0:0|0:0|0:0,0:0:0:0:
392,160,177256,70,0,L|436:140,3,45.6500006617355,10|2|2|2,0:0|0:0|0:0|0:0,0:0:0:0:
464,124,178000,21,6,0:0:0:0:
472,80,178156,1,2,0:0:0:0:
480,36,178312,1,2,0:0:0:0:
344,24,178625,5,10,0:0:0:0:
344,68,178781,1,2,0:0:0:0:
344,112,178937,1,2,0:0:0:0:
212,144,179250,5,2,0:0:0:0:
200,100,179406,1,2,0:0:0:0:
188,56,179562,1,2,0:0:0:0:
64,112,179875,5,10,0:0:0:0:
80,152,180031,1,2,0:0:0:0:
96,192,180187,1,2,0:0:0:0:
188,328,180500,37,2,0:0:0:0:
232,340,180656,1,2,0:0:0:0:
272,324,180812,1,2,0:0:0:0:
408,336,181125,1,10,0:0:0:0:
352,208,181437,5,2,0:0:0:0:
352,208,181593,1,2,0:0:0:0:
352,208,181749,1,2,0:0:0:0:
212,200,182062,5,2,0:0:0:0:
212,200,182218,1,2,0:0:0:0:
212,200,182375,2,0,P|164:252|112:256,1,110,10|0,0:0|0:0,0:0:0:0:
48,120,183000,5,6,0:0:0:0:
48,76,183156,1,2,0:0:0:0:
48,32,183312,1,2,0:0:0:0:
160,80,183625,37,10,0:0:0:0:
160,124,183781,1,2,0:0:0:0:
160,168,183937,1,2,0:0:0:0:
272,216,184250,5,2,0:0:0:0:
272,172,184406,1,2,0:0:0:0:
272,128,184562,1,2,0:0:0:0:
384,176,184875,5,10,0:0:0:0:
384,220,185031,1,2,0:0:0:0:
384,264,185187,1,2,0:0:0:0:
284,336,185500,5,2,0:0:0:0:
240,348,185656,1,2,0:0:0:0:
200,332,185812,1,2,0:0:0:0:
72,336,186125,37,10,0:0:0:0:
128,220,186437,1,2,0:0:0:0:
128,220,186593,1,2,0:0:0:0:
128,220,186749,1,2,0:0:0:0:
68,104,187062,5,2,0:0:0:0:
92,76,187218,1,2,0:0:0:0:
132,68,187375,2,0,P|184:44|248:68,1,110,10|0,0:0|0:0,0:0:0:0:
256,216,188000,6,0,L|256:156,1,60.5000018463135,6|0,0:0|0:0,0:0:0:0:
336,124,188312,2,0,L|336:192,1,60.5000018463135,2|2,0:0|0:0,0:0:0:0:
412,220,188625,5,10,0:0:0:0:
412,184,188781,1,2,0:0:0:0:
412,148,188937,1,2,0:0:0:0:
412,112,189093,1,2,0:0:0:0:
412,76,189250,38,0,P|392:48|340:20,1,60.5000018463135,2|2,0:0|0:0,0:0:0:0:
295,80,189562,2,0,P|315:108|367:136,1,60.5000018463135,2|2,0:0|0:0,0:0:0:0:
236,24,189875,5,10,0:0:0:0:
200,32,190031,1,0,0:0:0:0:
172,52,190187,1,2,0:0:0:0:
148,80,190343,1,0,0:0:0:0:
140,116,190500,6,0,P|132:156|140:188,1,60.5000018463135,2|2,0:0|0:0,0:0:0:0:
208,212,190812,2,0,P|216:172|208:140,1,60.5000018463135,2|0,0:0|0:0,0:0:0:0:
144,252,191125,5,10,0:0:0:0:
148,288,191281,1,0,0:0:0:0:
168,320,191437,1,2,0:0:0:0:
200,340,191593,1,2,0:0:0:0:
236,340,191750,38,0,P|264:332|292:296,3,60.5000018463135,2|0|2|2,0:0|0:0|0:0|0:0,0:0:0:0:
312,284,192375,2,0,P|352:276|400:296,3,60.5000018463135,10|0|2|2,0:0|0:0|0:0|0:0,0:0:0:0:
404,296,193000,6,0,L|448:232,1,60.5000018463135,2|2,0:0|0:0,0:0:0:0:
408,152,193312,2,0,L|368:208,1,60.5000018463135,2|0,0:0|0:0,0:0:0:0:
484,184,193625,5,10,0:0:0:0:
484,148,193781,1,0,0:0:0:0:
484,112,193937,1,2,0:0:0:0:
468,80,194093,1,2,0:0:0:0:
448,52,194250,6,0,L|372:24,1,60.5000018463135,2|2,0:0|0:0,0:0:0:0:
312,84,194562,2,0,L|384:112,1,60.5000018463135,2|2,0:0|0:0,0:0:0:0:
236,24,194875,37,10,0:0:0:0:
204,44,195031,1,0,0:0:0:0:
172,64,195187,1,2,0:0:0:0:
140,84,195343,1,2,0:0:0:0:
108,104,195500,6,0,L|68:164,1,60.5000018463135,2|2,0:0|0:0,0:0:0:0:
112,232,195812,2,0,L|152:176,1,60.5000018463135,2|0,0:0|0:0,0:0:0:0:
44,284,196125,5,10,0:0:0:0:
60,316,196281,1,0,0:0:0:0:
88,340,196437,1,2,0:0:0:0:
124,348,196593,1,2,0:0:0:0:
160,340,196750,6,0,P|212:312|276:312,1,121.000003692627,2|2,0:0|0:0,0:0:0:0:
340,332,197218,1,2,0:0:0:0:
340,332,197375,1,10,0:0:0:0:
460,192,198000,37,6,0:0:0:0:
460,160,198156,1,2,0:0:0:0:
460,128,198312,1,2,0:0:0:0:
328,48,198625,5,10,0:0:0:0:
328,80,198781,1,2,0:0:0:0:
328,112,198937,1,2,0:0:0:0:
256,244,199250,5,2,0:0:0:0:
256,212,199406,1,2,0:0:0:0:
256,180,199562,1,2,0:0:0:0:
184,28,199875,5,10,0:0:0:0:
184,60,200031,1,2,0:0:0:0:
184,92,200187,1,2,0:0:0:0:
88,276,200500,37,2,0:0:0:0:
76,244,200656,1,2,0:0:0:0:
64,212,200812,1,2,0:0:0:0:
256,180,201125,1,10,0:0:0:0:
100,308,201437,5,2,0:0:0:0:
100,308,201593,1,2,0:0:0:0:
100,308,201749,1,2,0:0:0:0:
256,344,202062,5,2,0:0:0:0:
256,344,202218,1,2,0:0:0:0:
256,344,202374,1,10,0:0:0:0:
360,84,203000,5,2,0:0:0:0:
392,92,203156,1,2,0:0:0:0:
424,100,203312,1,2,0:0:0:0:
448,244,203625,37,10,0:0:0:0:
416,236,203781,1,2,0:0:0:0:
384,228,203937,1,2,0:0:0:0:
232,228,204250,5,2,0:0:0:0:
236,196,204406,1,2,0:0:0:0:
240,164,204562,1,2,0:0:0:0:
144,44,204875,5,10,0:0:0:0:
140,76,205031,1,2,0:0:0:0:
136,108,205187,1,2,0:0:0:0:
80,260,205500,5,2,0:0:0:0:
80,260,205656,1,2,0:0:0:0:
80,260,205812,1,2,0:0:0:0:
188,336,206125,1,10,0:0:0:0:
196,196,206437,1,2,0:0:0:0:
256,64,206750,6,0,P|296:96|312:140,1,82.5,2|0,0:0|0:0,0:0:0:0:
320,152,207062,6,0,P|332:196|368:240,1,82.5,2|0,0:0|0:0,0:0:0:0:
380,252,207375,69,6,0:0:0:0:
256,192,207531,12,0,210500,0:0:0:0:
