osu file format v14

[General]
AudioFilename: audio.mp3
AudioLeadIn: 0
PreviewTime: 62483
Countdown: 1
SampleSet: Soft
StackLeniency: 0.3
Mode: 0
LetterboxInBreaks: 0
WidescreenStoryboard: 1

[Editor]
DistanceSpacing: 2
BeatDivisor: 4
GridSize: 4
TimelineZoom: 1

[Metadata]
Title:Croatian Rhapsody
TitleUnicode:Croatian Rhapsody
Artist:Maksim Mrvica
ArtistUnicode:Maksim Mrvica
Creator:haha5957
Version:Allegro Vivace
Source:
Tags:The Piano Player
BeatmapID:1785750
BeatmapSetID:850663

[Difficulty]
HPDrainRate:5.7
CircleSize:4
OverallDifficulty:8
ApproachRate:8.5
SliderMultiplier:2.6
SliderTickRate:2

[Events]
//Background and Video events
0,0,"bg.jpeg",0,0
//Break Periods
2,85506,92131
//Storyboard Layer 0 (Background)
//Storyboard Layer 1 (Fail)
//Storyboard Layer 2 (Pass)
//Storyboard Layer 3 (Foreground)
//Storyboard Sound Samples

[TimingPoints]
284,625,4,2,2,65,1,0
2784,-133.333333333333,4,2,2,65,0,0
3252,-133.333333333333,4,2,2,25,0,0
3431,625,4,2,2,40,1,0
4033,625,4,2,2,65,1,0
4033,-133.333333333333,4,2,2,65,0,0
4501,-133.333333333333,4,2,2,25,0,0
4669,625,4,2,2,40,1,0
5294,625,4,2,2,65,1,0
5294,-133.333333333333,4,2,2,65,0,0
5762,-133.333333333333,4,2,2,25,0,0
5919,-133.333333333333,4,2,2,65,0,0
6075,-133.333333333333,4,2,2,25,0,0
6231,-133.333333333333,4,2,2,65,0,0
6700,-133.333333333333,4,2,2,25,0,0
6856,-133.333333333333,4,2,2,65,0,0
7481,-133.333333333333,4,2,2,25,0,0
7794,-133.333333333333,4,2,2,65,0,0
8575,-133.333333333333,4,2,2,25,0,0
8731,-133.333333333333,4,2,2,65,0,0
9993,625,4,2,2,65,1,0
9993,-133.333333333333,4,2,2,65,0,0
15774,-133.333333333333,4,2,2,25,0,0
15931,-133.333333333333,4,2,2,65,0,0
16555,-133.333333333333,4,2,2,25,0,0
16868,-133.333333333333,4,2,2,65,0,0
17786,625,4,2,2,65,1,0
17786,-133.333333333333,4,2,2,65,0,0
20754,-133.333333333333,4,2,2,25,0,0
20911,-133.333333333333,4,2,2,65,0,0
21536,-133.333333333333,4,2,2,25,0,0
21840,625,4,2,2,65,1,0
21996,-133.333333333333,4,2,2,65,0,0
25306,625,4,2,2,65,1,0
25306,-133.333333333333,4,2,2,65,0,0
26712,-133.333333333333,4,2,2,45,0,0
26868,-133.333333333333,4,2,2,65,0,0
30285,625,4,2,2,65,1,0
30285,-133.333333333333,4,2,2,65,0,0
30606,625,4,2,2,65,1,0
30606,-133.333333333333,4,2,2,65,0,0
31621,-100,4,2,2,25,0,0
31856,-133.333333333333,4,1,2,65,0,0
32168,-100,4,1,2,65,0,0
32806,625,4,1,2,75,1,0
33431,-80,4,1,2,75,0,0
34056,-100,4,1,2,75,0,0
34681,-80,4,1,2,75,0,0
35306,-100,4,1,2,75,0,0
35931,-80,4,1,2,75,0,0
36556,-100,4,1,2,75,0,0
38431,-80,4,1,2,75,0,0
39056,-100,4,1,2,75,0,0
39681,-80,4,1,2,75,0,0
40306,-100,4,1,2,75,0,0
40931,-80,4,1,2,75,0,0
41556,-100,4,1,2,75,0,0
44056,-66.6666666666667,4,1,2,75,0,0
44368,-72.992700729927,4,1,2,75,0,0
44681,-80,4,1,2,75,0,0
44993,-89.2857142857143,4,1,2,75,0,0
45306,-100,4,1,2,75,0,0
46556,-66.6666666666667,4,1,2,75,0,0
46868,-72.992700729927,4,1,2,75,0,0
47181,-80,4,1,2,75,0,0
47493,-66.6666666666667,4,1,2,75,0,0
47806,-100,4,1,2,75,0,0
49056,-66.6666666666667,4,1,2,75,0,0
49368,-72.992700729927,4,1,2,75,0,0
49681,-80,4,1,2,75,0,0
49993,-89.2857142857143,4,1,2,75,0,0
50306,-100,4,1,2,75,0,0
52181,-133.333333333333,4,1,2,75,0,0
52337,-133.333333333333,4,1,2,50,0,0
52806,-100,4,1,2,75,0,0
54056,-66.6666666666667,4,1,2,75,0,0
54368,-72.992700729927,4,1,2,75,0,0
54681,-80,4,1,2,75,0,0
54993,-89.2857142857143,4,1,2,75,0,0
55306,-100,4,1,2,75,0,0
56556,-66.6666666666667,4,1,2,75,0,0
56868,-80,4,1,2,75,0,0
57181,-100,4,1,2,75,0,0
57493,-66.6666666666667,4,1,2,75,0,0
57806,-100,4,1,2,75,0,0
59056,-66.6666666666667,4,1,2,75,0,0
59368,-72.992700729927,4,1,2,75,0,0
59681,-80,4,1,2,75,0,0
59993,-89.2857142857143,4,1,2,75,0,0
60306,-100,4,1,2,75,0,0
62806,-80,4,1,2,75,0,0
64056,-57.1428571428571,4,1,2,75,0,0
64368,-66.6666666666667,4,1,2,75,0,0
64681,-80,4,1,2,75,0,0
64993,-100,4,1,2,75,0,0
65306,-80,4,1,2,75,0,0
66556,-66.6666666666667,4,1,2,75,0,0
66868,-72.992700729927,4,1,2,75,0,0
67181,-80,4,1,2,75,0,0
67493,-89.2857142857143,4,1,2,75,0,0
67806,-100,4,1,2,75,0,0
69056,-80,4,1,2,75,0,0
69368,-89.2857142857143,4,1,2,75,0,0
69681,-100,4,1,2,75,0,0
69993,-113.636363636364,4,1,2,75,0,0
70306,-66.6666666666667,4,1,2,75,0,0
70462,-80,4,1,2,10,0,0
70618,-80,4,1,2,75,0,0
70931,-133.333333333333,4,1,2,75,0,0
71556,-66.6666666666667,4,1,2,75,0,0
71712,-66.6666666666667,4,1,2,10,0,0
71868,-50,4,1,2,80,0,0
72024,-50,4,1,2,10,0,0
72181,-36.3636363636364,4,1,2,90,0,0
72337,-36.3636363636364,4,1,2,10,0,0
72493,-100,4,1,2,40,0,0
72806,-100,4,1,2,75,0,1
74056,-66.6666666666667,4,1,2,75,0,1
74368,-100,4,1,2,75,0,1
74681,-66.6666666666667,4,1,2,75,0,1
74993,-50,4,1,2,75,0,1
75306,-200,4,1,2,75,0,1
75918,625,4,1,2,75,1,1
75918,-57.1428571428571,4,1,2,75,0,1
76855,-66.6666666666667,4,1,2,75,0,1
77168,-80,4,1,2,75,0,1
77480,-100,4,1,2,75,0,1
77806,625,4,1,2,75,1,1
77806,-80,4,1,2,75,0,1
80306,-100,4,1,2,75,0,1
82181,-80,4,1,2,85,0,1
84056,-57.1428571428571,4,1,2,90,0,1
84681,-57.1428571428571,4,1,2,95,0,1
85306,-100,4,1,2,100,0,0
94993,-100,4,1,2,40,0,0
95306,-100,4,1,2,75,0,0
116556,-66.6666666666667,4,1,2,75,0,0
116868,-72.992700729927,4,1,2,75,0,0
117181,-80,4,1,2,75,0,0
117493,-89.2857142857143,4,1,2,75,0,0
117806,-100,4,1,2,75,0,0
119056,-66.6666666666667,4,1,2,75,0,0
119368,-72.992700729927,4,1,2,75,0,0
119681,-80,4,1,2,75,0,0
119993,-66.6666666666667,4,1,2,75,0,0
120306,-100,4,1,2,75,0,0
121556,-66.6666666666667,4,1,2,75,0,0
121868,-72.992700729927,4,1,2,75,0,0
122181,-80,4,1,2,75,0,0
122493,-89.2857142857143,4,1,2,75,0,0
122806,-100,4,1,2,75,0,0
124993,-100,4,1,2,50,0,0
125306,-90.9090909090909,4,1,2,75,0,1
126556,-60.6060606060606,4,1,2,75,0,1
126868,-90.9090909090909,4,1,2,75,0,1
127181,-60.6060606060606,4,1,2,75,0,1
127493,-45.4545454545455,4,1,2,75,0,1
127806,-181.818181818182,4,1,2,75,0,1
128431,-51.8134715025907,4,1,2,75,0,1
129368,-60.6060606060606,4,1,2,75,0,1
129681,-72.463768115942,4,1,2,75,0,1
129993,-90.9090909090909,4,1,2,75,0,1
130306,-100,4,1,2,75,0,1
131556,-57.1428571428571,4,1,2,75,0,1
131868,-66.6666666666667,4,1,2,75,0,1
132181,-80,4,1,2,75,0,1
132493,-100,4,1,2,75,0,1
135306,-80,4,1,2,75,0,1
137806,-100,4,1,2,75,0,0
147806,-90.9090909090909,4,1,2,75,0,0
157806,-83.3333333333333,4,1,2,75,0,1
159056,-55.5555555555556,4,1,2,75,0,1
159368,-62.5,4,1,2,75,0,1
159681,-71.4285714285714,4,1,2,75,0,1
159993,-83.3333333333333,4,1,2,75,0,1
161556,-55.5555555555556,4,1,2,75,0,1
161868,-66.6666666666667,4,1,2,75,0,1
162181,-83.3333333333333,4,1,2,75,0,1
162493,-55.5555555555556,4,1,2,75,0,1
162806,-83.3333333333333,4,1,2,75,0,1
164056,-55.5555555555556,4,1,2,75,0,1
164368,-62.5,4,1,2,75,0,1
164681,-71.4285714285714,4,1,2,75,0,1
164993,-83.3333333333333,4,1,2,75,0,1
167493,-100,4,1,2,50,0,1
167806,-83.3333333333333,4,1,2,75,0,1
169056,-55.5555555555556,4,1,2,75,0,1
169368,-83.3333333333333,4,1,2,75,0,1
169681,-55.5555555555556,4,1,2,75,0,1
169993,-41.6666666666667,4,1,2,75,0,1
170306,-166.666666666667,4,1,2,75,0,1
170931,-47.6190476190476,4,1,2,75,0,1
171868,-55.5555555555556,4,1,2,75,0,1
172181,-66.6666666666667,4,1,2,75,0,1
172493,-83.3333333333333,4,1,2,75,0,1
172806,-100,4,1,2,75,0,1
174056,-55.5555555555556,4,1,2,75,0,1
174368,-62.5,4,1,2,75,0,1
174681,-71.4285714285714,4,1,2,75,0,1
174993,-83.3333333333333,4,1,2,75,0,1
176556,685.714285714286,4,1,2,75,1,1
176556,-108.695652173913,4,1,2,75,0,1
177070,744.647843623953,4,1,2,75,1,1
177070,-120.481927710843,4,1,2,75,0,1
178000,625,4,1,2,75,1,0
188000,-90.9090909090909,4,1,2,75,0,0
198000,-100,4,1,2,75,0,0
206750,-100,4,2,0,90,0,0
207531,-100,4,2,0,40,0,0
210500,-100,4,2,2,5,0,0

[Colours]
Combo1 : 255,19,26
Combo2 : 255,130,130
Combo3 : 255,194,121
Combo4 : 255,251,162
Combo5 : 123,255,133
Combo6 : 200,200,200

[HitObjects]
56,56,2784,5,0,0:0:0:0:
88,48,2940,1,0,0:0:0:0:
120,40,3096,2,0,P|160:32|208:32,1,48.750001859665
240,68,3431,5,2,0:0:0:0:
240,68,3587,1,0,0:0:0:0:
240,68,3743,1,0,0:0:0:0:
208,168,4033,5,0,0:0:0:0:
176,180,4189,1,0,0:0:0:0:
144,188,4345,2,0,P|100:188|64:172,1,48.750001859665
32,160,4669,5,2,0:0:0:0:
32,160,4825,1,0,0:0:0:0:
32,160,4981,1,0,0:0:0:0:
40,316,5294,37,0,0:0:0:0:
72,320,5450,1,0,0:0:0:0:
104,324,5606,2,0,P|139:322|172:312,1,48.750001859665
256,276,5919,2,0,L|256:344,1,48.750001859665,2|0,0:0|0:0,0:0:0:0:
368,336,6231,5,0,0:0:0:0:
348,308,6387,1,0,0:0:0:0:
340,276,6544,2,0,P|336:240|348:208,1,48.750001859665
440,228,6856,5,0,0:0:0:0:
444,196,7012,1,0,0:0:0:0:
444,160,7169,2,0,P|448:100|412:40,1,97.50000371933,2|0,0:0|0:0,0:0:0:0:
304,24,7794,5,0,0:0:0:0:
304,60,7950,1,0,0:0:0:0:
304,96,8106,1,0,0:0:0:0:
212,40,8419,38,0,L|163:40,1,48.750001859665,2|0,0:0|0:0,0:0:0:0:
91,34,8731,5,0,0:0:0:0:
56,32,8887,1,0,0:0:0:0:
44,68,9044,5,0,0:0:0:0:
44,68,9200,1,0,0:0:0:0:
44,68,9356,2,0,P|44:140|52:180,1,97.50000371933,0|2,0:0|0:0,0:0:0:0:
96,288,9993,5,0,0:0:0:0:
120,312,10149,1,0,0:0:0:0:
152,324,10305,37,0,0:0:0:0:
152,324,10461,1,0,0:0:0:0:
152,324,10618,2,0,P|208:328|248:360,1,97.50000371933,0|2,0:0|0:0,0:0:0:0:
400,320,11243,5,0,0:0:0:0:
400,320,11399,1,0,0:0:0:0:
400,320,11555,1,0,0:0:0:0:
316,212,11868,5,0,0:0:0:0:
316,212,12024,1,0,0:0:0:0:
316,212,12180,1,2,0:0:0:0:
72,348,12805,5,0,0:0:0:0:
104,340,12961,1,0,0:0:0:0:
136,324,13118,2,0,P|168:284|172:232,1,97.50000371933,0|2,0:0|0:0,0:0:0:0:
56,240,13743,37,0,0:0:0:0:
56,240,13899,1,0,0:0:0:0:
44,208,14055,5,0,0:0:0:0:
52,176,14211,1,0,0:0:0:0:
80,156,14368,2,0,P|112:128|196:124,1,97.50000371933,0|2,0:0|0:0,0:0:0:0:
256,192,14993,5,0,0:0:0:0:
256,192,15149,1,0,0:0:0:0:
272,224,15305,5,0,0:0:0:0:
300,244,15461,1,0,0:0:0:0:
332,252,15618,2,0,P|372:280|384:296,1,48.750001859665
392,308,15930,1,2,0:0:0:0:
484,236,16243,37,0,0:0:0:0:
484,236,16399,2,0,P|448:216|404:204,1,48.750001859665
400,124,16868,5,0,0:0:0:0:
384,96,17024,1,0,0:0:0:0:
368,64,17180,2,0,P|320:44|268:48,1,97.50000371933,2|0,0:0|0:0,0:0:0:0:
96,64,17786,5,0,0:0:0:0:
128,56,17942,1,0,0:0:0:0:
160,68,18098,2,0,P|204:100|240:160,1,97.50000371933,0|2,0:0|0:0,0:0:0:0:
124,172,18723,5,0,0:0:0:0:
124,172,18879,1,0,0:0:0:0:
104,200,19035,37,0,0:0:0:0:
108,236,19192,1,0,0:0:0:0:
128,264,19348,2,0,P|184:296|212:344,1,97.50000371933,0|2,0:0|0:0,0:0:0:0:
324,336,19973,5,0,0:0:0:0:
324,336,20129,1,0,0:0:0:0:
340,304,20286,5,0,0:0:0:0:
356,276,20442,1,0,0:0:0:0:
372,244,20598,2,0,P|364:196|356:184,1,48.750001859665
348,168,20911,1,2,0:0:0:0:
296,72,21223,5,0,0:0:0:0:
320,48,21379,2,0,P|352:36|400:40,1,48.750001859665
208,40,21840,37,0,0:0:0:0:
176,48,21996,1,0,0:0:0:0:
144,64,22152,2,0,P|96:108|80:148,1,97.50000371933,2|0,0:0|0:0,0:0:0:0:
44,296,22777,5,0,0:0:0:0:
76,304,22933,1,0,0:0:0:0:
108,308,23090,2,0,P|160:320|228:304,1,97.50000371933,0|2,0:0|0:0,0:0:0:0:
352,292,23715,5,0,0:0:0:0:
352,292,23871,1,0,0:0:0:0:
372,264,24027,5,0,0:0:0:0:
388,236,24183,1,0,0:0:0:0:
400,204,24340,2,0,P|428:144|472:120,2,97.50000371933,0|2|0,0:0|0:0|0:0,0:0:0:0:
256,72,25306,37,0,0:0:0:0:
256,72,25462,1,0,0:0:0:0:
224,85,25618,2,0,P|179:88|153:76,1,48.750001859665
140,84,25931,1,2,0:0:0:0:
36,180,26243,5,0,0:0:0:0:
60,204,26399,1,0,0:0:0:0:
88,220,26556,2,0,P|136:224|156:220,1,48.750001859665
224,264,26868,5,0,0:0:0:0:
196,284,27024,1,0,0:0:0:0:
168,304,27181,2,0,P|116:312|56:300,1,97.50000371933,2|0,0:0|0:0,0:0:0:0:
284,344,27806,5,0,0:0:0:0:
316,348,27962,1,0,0:0:0:0:
348,340,28118,1,0,0:0:0:0:
312,200,28431,1,2,0:0:0:0:
456,256,28743,37,0,0:0:0:0:
456,256,28899,1,0,0:0:0:0:
440,224,29056,5,0,0:0:0:0:
436,192,29212,1,0,0:0:0:0:
444,160,29368,2,0,P|464:124|460:64,1,97.50000371933,0|2,0:0|0:0,0:0:0:0:
284,84,30285,5,0,0:0:0:0:
316,96,30441,1,0,0:0:0:0:
348,112,30606,2,0,P|352:156|320:204,1,97.50000371933,0|2,0:0|0:0,0:0:0:0:
188,192,31231,5,0,0:0:0:0:
188,192,31387,1,0,0:0:0:0:
188,192,31543,1,0,0:0:0:0:
256,332,31856,37,10,0:0:0:0:
116,324,32168,1,2,0:0:0:0:
116,324,32324,1,2,0:0:0:0:
116,324,32481,1,2,0:0:0:0:
36,192,32806,5,6,0:0:0:0:
36,192,32962,1,2,0:0:0:0:
36,192,33118,2,0,P|72:160|88:120,1,65,2|0,0:0|0:0,0:0:0:0:
136,80,33431,5,10,0:0:0:0:
156,160,33587,1,2,0:0:0:0:
212,100,33743,2,0,P|256:88|292:92,1,81.25,2|0,0:0|0:0,0:0:0:0:
360,132,34056,5,2,0:0:0:0:
360,132,34212,1,2,0:0:0:0:
360,132,34368,2,0,P|372:84|360:44,1,65,2|0,0:0|0:0,0:0:0:0:
456,36,34681,37,10,0:0:0:0:
476,116,34837,1,2,0:0:0:0:
444,192,34993,2,0,P|448:240|464:272,1,81.25,2|0,0:0|0:0,0:0:0:0:
400,340,35306,5,2,0:0:0:0:
400,340,35462,1,2,0:0:0:0:
400,340,35618,2,0,P|360:320|320:316,1,65,2|0,0:0|0:0,0:0:0:0:
260,324,35931,6,0,P|264:288|304:240,1,81.25,10|0,0:0|0:0,0:0:0:0:
368,244,36243,1,2,0:0:0:0:
324,176,36399,2,0,P|256:180|200:252,1,162.5,2|0,0:0|0:0,0:0:0:0:
176,332,36868,5,2,0:0:0:0:
104,352,37024,1,2,0:0:0:0:
120,272,37181,2,0,P|128:204|176:136,1,130,10|0,0:0|0:0,0:0:0:0:
40,32,37806,37,2,0:0:0:0:
40,32,37962,1,2,0:0:0:0:
40,32,38118,2,0,P|76:80|120:88,1,65,2|0,0:0|0:0,0:0:0:0:
160,76,38431,5,10,0:0:0:0:
236,48,38587,1,2,0:0:0:0:
308,84,38743,2,0,P|352:80|392:56,1,81.25,2|0,0:0|0:0,0:0:0:0:
456,96,39056,5,2,0:0:0:0:
456,96,39212,1,2,0:0:0:0:
456,96,39368,2,0,P|416:140|392:152,1,65,2|0,0:0|0:0,0:0:0:0:
336,176,39681,5,10,0:0:0:0:
256,156,39837,1,2,0:0:0:0:
184,192,39993,2,0,P|144:168|124:128,1,81.25,2|0,0:0|0:0,0:0:0:0:
64,76,40306,37,2,0:0:0:0:
64,76,40462,1,2,0:0:0:0:
64,76,40618,2,0,P|40:124|44:160,1,65,2|0,0:0|0:0,0:0:0:0:
64,216,40931,6,0,P|44:272|56:324,1,81.25,10|0,0:0|0:0,0:0:0:0:
124,272,41243,1,2,0:0:0:0:
168,340,41399,2,0,P|204:288|168:204,1,162.5,2|0,0:0|0:0,0:0:0:0:
116,144,41868,5,2,0:0:0:0:
188,116,42024,1,2,0:0:0:0:
256,152,42181,2,0,P|288:200|304:300,1,130,10|0,0:0|0:0,0:0:0:0:
80,48,42806,5,2,0:0:0:0:
52,120,42962,37,2,0:0:0:0:
52,120,43118,1,2,0:0:0:0:
52,120,43274,1,2,0:0:0:0:
120,192,43431,5,10,0:0:0:0:
164,128,43587,5,2,0:0:0:0:
164,128,43743,1,2,0:0:0:0:
164,128,43899,1,2,0:0:0:0:
248,48,44056,6,0,P|272:96|268:152,1,97.50000371933,2|0,0:0|0:0,0:0:0:0:
256,288,44368,38,0,P|220:248|216:204,1,89.0500025137711,2|0,0:0|0:0,0:0:0:0:
324,208,44681,6,0,P|352:252|356:304,1,81.25,10|0,0:0|0:0,0:0:0:0:
392,352,44993,6,0,P|424:324|432:276,1,72.8000008886719,2|0,0:0|0:0,0:0:0:0:
480,192,45306,5,2,0:0:0:0:
432,128,45462,37,2,0:0:0:0:
432,128,45618,1,2,0:0:0:0:
432,128,45774,1,2,0:0:0:0:
380,24,45931,5,10,0:0:0:0:
336,88,46087,5,2,0:0:0:0:
336,88,46243,1,2,0:0:0:0:
336,88,46399,1,2,0:0:0:0:
288,180,46556,6,0,P|224:208|184:200,1,97.50000371933,2|0,0:0|0:0,0:0:0:0:
128,122,46868,38,0,P|168:120|216:88,1,89.0500025137711,2|0,0:0|0:0,0:0:0:0:
132,16,47181,6,0,P|84:40|40:20,1,81.25,10|0,0:0|0:0,0:0:0:0:
44,156,47493,6,0,P|20:208|36:268,1,97.50000371933,2|0,0:0|0:0,0:0:0:0:
128,216,47806,5,2,0:0:0:0:
96,288,47962,37,2,0:0:0:0:
96,288,48118,1,2,0:0:0:0:
96,288,48274,1,2,0:0:0:0:
176,352,48431,5,10,0:0:0:0:
196,276,48587,5,2,0:0:0:0:
196,276,48743,1,2,0:0:0:0:
196,276,48899,1,2,0:0:0:0:
296,256,49056,6,0,P|282:209|246:177,1,97.50000371933,2|0,0:0|0:0,0:0:0:0:
152,127,49368,38,0,P|181:94|220:72,1,89.0500025137711,2|0,0:0|0:0,0:0:0:0:
344,164,49681,6,0,P|320:132|272:104,1,81.25,10|0,0:0|0:0,0:0:0:0:
167,210,49993,6,0,P|175:246|200:280,1,72.8000008886719,2|0,0:0|0:0,0:0:0:0:
256,344,50306,5,2,0:0:0:0:
256,344,50618,1,2,0:0:0:0:
256,112,50931,1,10,0:0:0:0:
256,344,51243,1,2,0:0:0:0:
256,344,51556,37,2,0:0:0:0:
256,32,51868,1,10,0:0:0:0:
256,344,52181,1,2,0:0:0:0:
359,324,52806,5,2,0:0:0:0:
417,211,52962,1,2,0:0:0:0:
305,269,53118,1,2,0:0:0:0:
428,288,53274,1,2,0:0:0:0:
338,198,53431,5,10,0:0:0:0:
336,72,53587,1,2,0:0:0:0:
263,174,53743,1,2,0:0:0:0:
382,133,53899,1,2,0:0:0:0:
260,96,54056,6,0,P|204:64|184:36,1,97.50000371933,2|0,0:0|0:0,0:0:0:0:
56,72,54368,38,0,P|84:108|132:140,1,89.0500025137711,2|0,0:0|0:0,0:0:0:0:
184,228,54681,6,0,P|136:244|88:240,1,81.25,10|0,0:0|0:0,0:0:0:0:
48,336,54993,6,0,P|80:344|120:344,1,72.8000008886719,2|0,0:0|0:0,0:0:0:0:
208,308,55306,5,2,0:0:0:0:
328,300,55462,1,2,0:0:0:0:
272,360,55618,1,2,0:0:0:0:
264,244,55774,1,2,0:0:0:0:
380,232,55931,37,10,0:0:0:0:
372,112,56087,1,2,0:0:0:0:
316,176,56243,1,2,0:0:0:0:
436,168,56399,1,2,0:0:0:0:
428,48,56556,6,0,P|364:24|308:68,1,97.50000371933,2|0,0:0|0:0,0:0:0:0:
316,175,56868,6,0,P|334:135|368:112,1,81.25,2|0,0:0|0:0,0:0:0:0:
436,168,57181,6,0,P|428:208|456:240,1,65,10|0,0:0|0:0,0:0:0:0:
464,328,57493,38,0,P|404:344|336:328,1,97.50000371933,2|0,0:0|0:0,0:0:0:0:
310,246,57806,5,2,0:0:0:0:
164,300,57962,1,2,0:0:0:0:
250,196,58118,1,2,0:0:0:0:
296,323,58274,1,2,0:0:0:0:
176,224,58431,5,10,0:0:0:0:
223,350,58587,1,2,0:0:0:0:
88,328,58743,1,2,0:0:0:0:
236,272,58899,1,2,0:0:0:0:
100,252,59056,6,0,P|100:192|132:136,1,97.50000371933,2|0,0:0|0:0,0:0:0:0:
236,56,59368,38,0,P|232:104|212:156,1,89.0500025137711,2|0,0:0|0:0,0:0:0:0:
312,236,59681,6,0,P|320:188|360:152,1,81.25,10|0,0:0|0:0,0:0:0:0:
400,240,59993,6,0,P|380:296|344:324,1,72.8000008886719,2|0,0:0|0:0,0:0:0:0:
256,344,60306,5,2,0:0:0:0:
256,344,60618,1,2,0:0:0:0:
256,112,60931,1,10,0:0:0:0:
256,344,61243,1,2,0:0:0:0:
256,344,61556,37,2,0:0:0:0:
256,32,61868,1,10,0:0:0:0:
256,344,62181,1,2,0:0:0:0:
72,336,62806,6,0,P|64:284|104:240,1,81.25,2|2,0:0|0:0,0:0:0:0:
120,192,63118,1,2,0:0:0:0:
160,264,63274,1,2,0:0:0:0:
228,308,63431,6,0,P|240:248|224:216,1,81.25,10|0,0:0|0:0,0:0:0:0:
196,160,63743,1,2,0:0:0:0:
120,192,63899,1,2,0:0:0:0:
120,76,64056,6,0,P|168:40|272:44,1,113.750001084805,2|0,0:0|0:0,0:0:0:0:
416,64,64368,38,0,P|360:68|312:56,1,97.50000371933,2|0,0:0|0:0,0:0:0:0:
316,184,64681,6,0,P|352:192|412:188,1,81.25,10|0,0:0|0:0,0:0:0:0:
376,312,64993,6,0,P|331:312|303:305,1,65,2|0,0:0|0:0,0:0:0:0:
132,340,65306,6,0,P|168:336|220:304,1,81.25,2|0,0:0|0:0,0:0:0:0:
216,236,65618,1,2,0:0:0:0:
144,200,65774,1,2,0:0:0:0:
68,232,65931,38,0,P|52:144|132:72,1,162.5,10|2,0:0|0:0,0:0:0:0:
164,52,66399,1,2,0:0:0:0:
260,52,66556,6,0,P|320:64|408:32,1,97.50000371933,2|0,0:0|0:0,0:0:0:0:
456,140,66868,6,0,P|404:152|344:152,1,89.0500025137711,2|0,0:0|0:0,0:0:0:0:
264,224,67181,6,0,P|320:244|360:240,1,81.25,10|0,0:0|0:0,0:0:0:0:
408,328,67493,38,0,P|372:340|332:344,1,72.8000008886719,2|0,0:0|0:0,0:0:0:0:
252,320,67806,5,2,0:0:0:0:
176,356,67962,5,2,0:0:0:0:
176,356,68118,1,2,0:0:0:0:
176,356,68274,1,2,0:0:0:0:
124,240,68431,5,10,0:0:0:0:
76,336,68587,37,2,0:0:0:0:
76,336,68743,1,2,0:0:0:0:
76,336,68899,1,2,0:0:0:0:
32,244,69056,6,0,P|24:196|36:116,1,81.25,2|0,0:0|0:0,0:0:0:0:
80,40,69368,6,0,P|88:88|84:128,1,72.8000008886719,2|0,0:0|0:0,0:0:0:0:
128,240,69681,6,0,P|128:184|136:136,1,65,10|0,0:0|0:0,0:0:0:0:
192,88,69993,38,0,P|200:128|188:168,1,57.2000017456055,2|0,0:0|0:0,0:0:0:0:
216,232,70306,70,0,B|240:216|240:216|240:248|240:248|260:232|260:232|412:232,1,195.00000743866,2|2,0:0|0:0,0:0:0:0:
512,228,70931,70,0,B|508:232|508:232|508:224|508:224|504:232|504:232|504:224|504:224|500:232|500:232|500:224|500:224|496:232|496:232|496:224|496:224|488:228|488:228|448:228,1,97.50000371933,10|2,0:0|0:0,0:0:0:0:
256,332,71556,22,0,P|300:296|368:276,1,97.50000371933,2|0,0:0|0:0,0:0:0:0:
408,172,71868,70,0,P|320:164|272:184,1,130,2|0,0:0|0:0,0:0:0:0:
152,344,72181,70,0,P|124:252|148:164,1,178.750001704693,10|0,0:0|0:0,0:0:0:0:
352,32,72806,22,0,P|352:76|344:116,1,65,6|2,0:0|0:0,0:0:0:0:
220,36,73118,1,2,0:0:0:0:
344,116,73274,1,2,0:0:0:0:
144,108,73431,6,0,P|140:148|144:188,1,65,10|2,0:0|0:0,0:0:0:0:
268,144,73743,1,2,0:0:0:0:
144,196,73899,1,2,0:0:0:0:
292,256,74056,6,0,P|348:232|372:188,1,97.50000371933,2|0,0:0|0:0,0:0:0:0:
464,148,74368,6,0,P|476:208|468:236,1,65,2|0,0:0|0:0,0:0:0:0:
375,298,74681,38,0,P|363:230|375:178,1,97.50000371933,10|0,0:0|0:0,0:0:0:0:
352,32,74993,6,0,P|320:80|304:160,1,130,2|0,0:0|0:0,0:0:0:0:
256,312,75306,38,0,L|268:344,2,32.5,2|0|0,0:0|0:0|0:0,0:0:0:0:
232,127,75774,1,2,0:0:0:0:
88,68,75918,6,0,P|49:113|40:188,1,113.750001084805,10|0,0:0|0:0,0:0:0:0:
40,336,76230,2,0,P|78:296|96:204,1,113.750001084805,2|0,0:0|0:0,0:0:0:0:
184,56,76543,6,0,B|152:112|152:112|128:188,1,113.750001084805,2|0,0:0|0:0,0:0:0:0:
232,128,76855,6,0,B|252:92|252:92|288:48,1,97.50000371933,2|0,0:0|0:0,0:0:0:0:
384,56,77168,6,0,B|348:88|348:88|308:144,1,81.25,10|0,0:0|0:0,0:0:0:0:
412,131,77480,6,0,B|428:116|428:116|464:92,1,65,2|0,0:0|0:0,0:0:0:0:
476,192,77806,37,2,0:0:0:0:
460,308,77962,5,2,0:0:0:0:
432,304,78118,1,2,0:0:0:0:
404,300,78274,1,2,0:0:0:0:
328,200,78431,5,10,0:0:0:0:
296,312,78587,5,2,0:0:0:0:
268,320,78743,1,2,0:0:0:0:
236,328,78899,1,2,0:0:0:0:
184,208,79056,37,2,0:0:0:0:
48,168,79368,1,2,0:0:0:0:
60,276,79681,1,10,0:0:0:0:
92,344,79993,1,2,0:0:0:0:
104,344,80306,6,0,P|136:296|108:212,1,130,6|0,0:0|0:0,0:0:0:0:
92,192,80774,1,2,0:0:0:0:
68,92,80931,5,10,0:0:0:0:
168,124,81087,1,2,0:0:0:0:
92,192,81243,1,2,0:0:0:0:
68,92,81399,1,2,0:0:0:0:
188,156,81556,6,0,P|232:232|240:300,1,130,2|0,0:0|0:0,0:0:0:0:
220,328,82024,1,2,0:0:0:0:
316,224,82181,37,10,0:0:0:0:
352,352,82337,1,0,0:0:0:0:
452,252,82493,1,2,0:0:0:0:
316,224,82649,1,2,0:0:0:0:
436,328,82806,6,0,P|376:260|416:184,1,162.5,2|2,0:0|0:0,0:0:0:0:
456,160,83274,1,2,0:0:0:0:
412,24,83431,5,10,0:0:0:0:
316,132,83587,1,2,0:0:0:0:
456,160,83743,1,2,0:0:0:0:
412,24,83899,1,2,0:0:0:0:
280,116,84056,37,2,0:0:0:0:
120,168,84212,1,2,0:0:0:0:
176,64,84368,1,2,0:0:0:0:
224,220,84524,1,2,0:0:0:0:
300,300,84681,69,10,0:0:0:0:
392,136,84837,1,2,0:0:0:0:
224,220,84993,1,2,0:0:0:0:
404,252,85149,1,2,0:0:0:0:
280,116,85306,5,6,0:0:0:0:
256,192,92806,12,10,94681,0:0:0:0:
308,336,95306,5,6,0:0:0:0:
240,296,95462,1,2,0:0:0:0:
200,228,95618,2,0,P|192:188|212:140,1,65,2|0,0:0|0:0,0:0:0:0:
300,228,95931,5,10,0:0:0:0:
280,152,96087,1,2,0:0:0:0:
308,80,96243,2,0,P|328:56|384:40,1,65,2|0,0:0|0:0,0:0:0:0:
476,140,96556,5,2,0:0:0:0:
476,140,96712,1,2,0:0:0:0:
476,140,96868,2,0,P|472:188|444:232,1,65,2|0,0:0|0:0,0:0:0:0:
416,304,97181,5,10,0:0:0:0:
340,292,97337,1,2,0:0:0:0:
300,228,97493,2,0,P|260:232|220:256,1,65,2|0,0:0|0:0,0:0:0:0:
152,332,97806,37,2,0:0:0:0:
152,332,97962,1,2,0:0:0:0:
152,332,98118,2,0,P|132:304|140:244,1,65,2|0,0:0|0:0,0:0:0:0:
140,176,98431,6,0,P|107:177|76:188,1,65,10|0,0:0|0:0,0:0:0:0:
36,120,98743,1,2,0:0:0:0:
36,120,98899,1,2,0:0:0:0:
36,120,99056,2,0,P|80:104|116:52,1,65,2|0,0:0|0:0,0:0:0:0:
184,32,99368,5,2,0:0:0:0:
252,72,99524,1,2,0:0:0:0:
324,40,99681,2,0,P|384:60|428:140,1,130,10|0,0:0|0:0,0:0:0:0:
144,184,100306,5,6,0:0:0:0:
144,184,100462,1,2,0:0:0:0:
144,184,100618,2,0,P|164:216|200:240,1,65,2|0,0:0|0:0,0:0:0:0:
324,296,100931,37,10,0:0:0:0:
252,324,101087,1,2,0:0:0:0:
328,308,101243,2,0,P|368:308|416:328,1,65,2|0,0:0|0:0,0:0:0:0:
440,240,101556,5,2,0:0:0:0:
440,240,101712,1,2,0:0:0:0:
440,240,101868,2,0,P|404:204|356:196,1,65,2|0,0:0|0:0,0:0:0:0:
296,136,102181,5,10,0:0:0:0:
372,116,102337,1,2,0:0:0:0:
296,120,102493,2,0,P|260:104|236:76,1,65,2|0,0:0|0:0,0:0:0:0:
128,36,102806,5,2,0:0:0:0:
128,36,102962,1,2,0:0:0:0:
128,36,103118,2,0,P|132:76|116:112,1,65,2|0,0:0|0:0,0:0:0:0:
48,232,103431,38,0,P|40:200|56:152,1,65,10|0,0:0|0:0,0:0:0:0:
124,252,103743,1,2,0:0:0:0:
68,308,103899,2,0,P|148:344|212:336,1,130,2|0,0:0|0:0,0:0:0:0:
360,316,104368,5,2,0:0:0:0:
284,332,104524,1,2,0:0:0:0:
356,296,104681,2,0,P|412:264|488:256,1,130,10|0,0:0|0:0,0:0:0:0:
424,56,105306,5,2,0:0:0:0:
424,56,105462,1,2,0:0:0:0:
372,112,105618,2,0,P|324:152|300:160,1,65,2|0,0:0|0:0,0:0:0:0:
248,176,105931,1,10,0:0:0:0:
112,48,106243,5,2,0:0:0:0:
112,48,106399,1,2,0:0:0:0:
88,124,106556,37,2,0:0:0:0:
116,196,106712,1,2,0:0:0:0:
176,244,106868,2,0,P|207:250|239:245,1,65,2|0,0:0|0:0,0:0:0:0:
308,208,107181,1,10,0:0:0:0:
92,328,107493,5,2,0:0:0:0:
92,328,107649,1,2,0:0:0:0:
164,360,107806,5,2,0:0:0:0:
240,348,107962,1,2,0:0:0:0:
312,320,108118,2,0,P|352:292|384:244,1,65,2|0,0:0|0:0,0:0:0:0:
392,208,108431,1,10,0:0:0:0:
464,68,108743,5,2,0:0:0:0:
464,68,108899,1,2,0:0:0:0:
464,68,109056,1,2,0:0:0:0:
308,64,109368,37,2,0:0:0:0:
308,64,109524,1,2,0:0:0:0:
308,64,109681,2,0,P|240:80|192:116,1,130,10|0,0:0|0:0,0:0:0:0:
44,68,110306,5,2,0:0:0:0:
44,68,110462,1,2,0:0:0:0:
20,144,110618,2,0,P|16:172|36:236,1,65,2|0,0:0|0:0,0:0:0:0:
136,320,110931,2,0,P|140:276|128:240,1,65,10|0,0:0|0:0,0:0:0:0:
212,152,111243,5,2,0:0:0:0:
212,152,111399,1,2,0:0:0:0:
212,232,111556,5,2,0:0:0:0:
240,304,111712,1,2,0:0:0:0:
308,344,111868,2,0,P|344:360|400:348,1,65,2|0,0:0|0:0,0:0:0:0:
436,256,112181,2,0,P|392:240|352:244,1,65,10|0,0:0|0:0,0:0:0:0:
320,140,112493,37,2,0:0:0:0:
320,140,112649,1,2,0:0:0:0:
400,144,112806,5,2,0:0:0:0:
364,76,112962,1,2,0:0:0:0:
288,60,113118,2,0,P|244:56|208:8,1,65,2|0,0:0|0:0,0:0:0:0:
88,44,113431,2,0,P|116:52|152:76,1,65,10|0,0:0|0:0,0:0:0:0:
204,124,113743,5,2,0:0:0:0:
132,152,113899,2,0,P|93:203|91:267,1,130,2|0,0:0|0:0,0:0:0:0:
132,336,114368,5,2,0:0:0:0:
132,336,114524,1,2,0:0:0:0:
132,336,114681,2,0,P|196:348|272:320,1,130,10|0,0:0|0:0,0:0:0:0:
428,192,115306,37,6,0:0:0:0:
368,280,115462,5,2,0:0:0:0:
380,280,115618,1,2,0:0:0:0:
392,280,115774,1,2,0:0:0:0:
324,148,115931,5,10,0:0:0:0:
264,240,116087,5,2,0:0:0:0:
276,240,116243,1,2,0:0:0:0:
288,240,116399,1,2,0:0:0:0:
224,144,116556,38,0,P|120:156|58:196,1,97.50000371933,2|0,0:0|0:0,0:0:0:0:
40,240,116868,6,0,P|104:232|180:244,1,89.0500025137711,2|0,0:0|0:0,0:0:0:0:
228,320,117181,6,0,P|180:300|140:312,1,81.25,10|0,0:0|0:0,0:0:0:0:
4,328,117493,6,0,P|36:336|112:280,1,72.8000008886719,2|0,0:0|0:0,0:0:0:0:
40,240,117806,37,2,0:0:0:0:
24,160,117962,5,2,0:0:0:0:
20,144,118118,1,2,0:0:0:0:
16,128,118274,1,2,0:0:0:0:
120,144,118431,5,10,0:0:0:0:
96,68,118587,5,2,0:0:0:0:
92,52,118743,1,2,0:0:0:0:
88,36,118899,1,2,0:0:0:0:
200,52,119056,38,0,P|276:56|320:100,1,97.50000371933,2|0,0:0|0:0,0:0:0:0:
432,36,119368,6,0,P|396:100|348:112,1,89.0500025137711,2|0,0:0|0:0,0:0:0:0:
304,168,119681,6,0,P|300:212|328:264,1,81.25,10|0,0:0|0:0,0:0:0:0:
372,348,119993,6,0,P|300:356|272:344,1,97.50000371933,2|0,0:0|0:0,0:0:0:0:
208,280,120306,37,2,0:0:0:0:
128,336,120462,5,2,0:0:0:0:
120,320,120618,1,2,0:0:0:0:
112,304,120774,1,2,0:0:0:0:
160,196,120931,5,10,0:0:0:0:
68,216,121087,5,2,0:0:0:0:
60,200,121243,1,2,0:0:0:0:
52,184,121399,1,2,0:0:0:0:
104,124,121556,38,0,P|84:60|44:40,1,97.50000371933,2|0,0:0|0:0,0:0:0:0:
188,113,121868,6,0,P|181:156|160:196,1,89.0500025137711,2|0,0:0|0:0,0:0:0:0:
240,236,122181,6,0,P|260:196|272:148,1,81.25,10|0,0:0|0:0,0:0:0:0:
355,171,122493,6,0,P|347:207|332:240,1,72.8000008886719,2|0,0:0|0:0,0:0:0:0:
256,348,122806,37,2,0:0:0:0:
256,348,123118,1,2,0:0:0:0:
256,112,123431,1,10,0:0:0:0:
256,348,123743,1,2,0:0:0:0:
256,348,124056,5,2,0:0:0:0:
256,32,124368,1,10,0:0:0:0:
256,348,124681,1,2,0:0:0:0:
48,316,125306,6,0,P|28:256|36:228,1,71.5000021820069,6|2,0:0|0:0,0:0:0:0:
104,204,125618,1,2,0:0:0:0:
32,160,125774,1,2,0:0:0:0:
68,84,125931,6,0,P|40:64|12:0,2,71.5000021820069,10|0|0,0:0|0:0|0:0,0:0:0:0:
144,124,126399,1,2,0:0:0:0:
272,208,126556,38,0,P|324:164|348:92,1,107.250001022816,2|0,0:0|0:0,0:0:0:0:
316,52,126868,6,0,P|280:76|264:140,1,71.5000021820069,2|0,0:0|0:0,0:0:0:0:
300,288,127181,6,0,P|356:248|400:184,1,107.250001022816,10|0,0:0|0:0,0:0:0:0:
216,24,127493,6,0,P|184:96|212:200,1,143.000004364014,2|0,0:0|0:0,0:0:0:0:
128,332,127806,6,0,P|104:340|72:332,2,35.7500010910034,2|0|0,0:0|0:0|0:0,0:0:0:0:
189,158,128274,1,2,0:0:0:0:
324,256,128431,6,0,P|295:323|228:363,1,125.449996985111,10|0,0:0|0:0,0:0:0:0:
80,156,128743,2,0,P|109:89|176:49,1,125.449996985111,2|0,0:0|0:0,0:0:0:0:
324,256,129056,6,0,P|260:264|200:248,1,125.449996985111,2|0,0:0|0:0,0:0:0:0:
80,156,129368,6,0,P|150:177|184:172,1,107.250001022816,2|0,0:0|0:0,0:0:0:0:
312,116,129681,6,0,P|250:115|212:96,1,89.7000001368713,10|0,0:0|0:0,0:0:0:0:
128,24,129993,6,0,P|160:40|204:40,1,71.5000021820069,2|0,0:0|0:0,0:0:0:0:
336,40,130306,38,0,P|363:56|382:82,1,65,2|2,0:0|0:0,0:0:0:0:
392,160,130618,1,2,0:0:0:0:
392,160,130774,1,2,0:0:0:0:
392,240,130931,6,0,P|336:288|328:320,1,65,10|2,0:0|0:0,0:0:0:0:
312,352,131243,1,2,0:0:0:0:
312,352,131399,1,2,0:0:0:0:
212,348,131556,6,0,P|152:324|60:324,1,113.750001084805,2|0,0:0|0:0,0:0:0:0:
40,240,131868,6,0,P|88:232|140:232,1,97.50000371933,2|0,0:0|0:0,0:0:0:0:
204,152,132181,38,0,P|160:144|124:144,1,81.25,10|0,0:0|0:0,0:0:0:0:
76,64,132493,6,0,P|108:52|140:52,1,65,2|0,0:0|0:0,0:0:0:0:
216,52,132806,6,0,P|252:96|328:88,1,130,6|2,0:0|0:0,0:0:0:0:
336,84,133274,1,2,0:0:0:0:
464,80,133431,5,10,0:0:0:0:
368,156,133587,1,2,0:0:0:0:
400,36,133743,1,2,0:0:0:0:
444,152,133899,1,2,0:0:0:0:
336,224,134056,37,2,0:0:0:0:
452,284,134212,1,2,0:0:0:0:
368,156,134368,1,2,0:0:0:0:
488,216,134524,1,2,0:0:0:0:
376,288,134681,5,10,0:0:0:0:
304,320,134837,1,2,0:0:0:0:
228,328,134993,1,2,0:0:0:0:
156,296,135149,1,2,0:0:0:0:
100,236,135306,6,0,P|68:220|32:192,2,81.25,2|0|2,0:0|0:0|0:0,0:0:0:0:
188,164,135774,1,2,0:0:0:0:
292,120,135931,5,10,0:0:0:0:
276,240,136087,1,2,0:0:0:0:
188,164,136244,1,2,0:0:0:0:
332,184,136399,1,2,0:0:0:0:
200,244,136556,21,2,0:0:0:0:
220,96,136712,1,2,0:0:0:0:
332,184,136868,1,2,0:0:0:0:
168,164,137024,1,2,0:0:0:0:
308,96,137181,69,10,0:0:0:0:
292,272,137337,1,2,0:0:0:0:
148,164,137493,1,2,0:0:0:0:
352,188,137649,1,2,0:0:0:0:
192,264,137806,21,6,0:0:0:0:
100,336,137962,1,2,0:0:0:0:
100,240,138118,2,0,P|100:192|120:156,1,65,2|0,0:0|0:0,0:0:0:0:
192,144,138431,5,10,0:0:0:0:
128,72,138587,1,2,0:0:0:0:
224,52,138743,2,0,P|264:48|304:56,1,65,2|0,0:0|0:0,0:0:0:0:
340,140,139056,5,2,0:0:0:0:
416,80,139212,1,2,0:0:0:0:
432,176,139368,2,0,P|452:220|460:280,1,65,2|0,0:0|0:0,0:0:0:0:
360,256,139681,5,10,0:0:0:0:
384,352,139837,1,2,0:0:0:0:
292,324,139993,2,0,P|260:328|212:320,1,65,2|0,0:0|0:0,0:0:0:0:
152,264,140306,37,2,0:0:0:0:
76,324,140462,1,2,0:0:0:0:
64,228,140618,2,0,P|44:172|48:132,1,65,2|0,0:0|0:0,0:0:0:0:
220,48,140931,2,0,P|180:36|136:44,1,65,10|0,0:0|0:0,0:0:0:0:
168,152,141243,5,2,0:0:0:0:
168,152,141399,1,2,0:0:0:0:
168,152,141556,2,0,P|196:192|232:208,1,65,2|0,0:0|0:0,0:0:0:0:
264,296,141868,5,2,0:0:0:0:
268,372,142024,1,2,0:0:0:0:
336,332,142181,2,0,P|392:296|372:200,1,130,10|0,0:0|0:0,0:0:0:0:
428,96,142806,5,2,0:0:0:0:
428,96,142962,1,2,0:0:0:0:
332,72,143118,2,0,L|260:56,1,65,2|0,0:0|0:0,0:0:0:0:
140,120,143431,37,10,0:0:0:0:
140,120,143587,1,2,0:0:0:0:
236,144,143743,2,0,L|328:164,1,65,2|0,0:0|0:0,0:0:0:0:
384,272,144056,5,2,0:0:0:0:
384,272,144212,1,2,0:0:0:0:
288,248,144368,2,0,L|216:232,1,65,2|0,0:0|0:0,0:0:0:0:
92,296,144681,5,10,0:0:0:0:
92,296,144837,1,2,0:0:0:0:
188,320,144993,2,0,L|280:340,1,65,2|0,0:0|0:0,0:0:0:0:
364,360,145306,5,2,0:0:0:0:
364,360,145462,1,2,0:0:0:0:
420,280,145618,2,0,B|428:248|428:196,1,65,2|0,0:0|0:0,0:0:0:0:
396,124,145931,2,0,P|436:124|496:140,1,65,10|0,0:0|0:0,0:0:0:0:
472,32,146243,37,2,0:0:0:0:
472,32,146399,1,2,0:0:0:0:
472,32,146556,2,0,P|416:28|368:24,1,65,2|0,0:0|0:0,0:0:0:0:
336,60,146868,5,2,0:0:0:0:
268,96,147024,1,2,0:0:0:0:
236,168,147181,2,0,P|184:196|96:196,1,130,10|0,0:0|0:0,0:0:0:0:
100,60,147806,6,0,L|44:120,1,71.5000021820069,6|0,0:0|0:0,0:0:0:0:
44,260,148118,2,0,L|44:184,1,71.5000021820069,2|2,0:0|0:0,0:0:0:0:
190,104,148431,5,10,0:0:0:0:
132,168,148587,1,2,0:0:0:0:
132,336,148743,1,2,0:0:0:0:
132,252,148899,1,2,0:0:0:0:
224,204,149056,38,0,P|248:200|304:208,1,71.5000021820069,2|2,0:0|0:0,0:0:0:0:
324,316,149368,2,0,P|300:320|244:312,1,71.5000021820069,2|2,0:0|0:0,0:0:0:0:
376,208,149681,5,10,0:0:0:0:
460,208,149837,1,0,0:0:0:0:
484,332,149993,1,2,0:0:0:0:
400,332,150149,1,0,0:0:0:0:
324,316,150306,6,0,L|284:240,1,71.5000021820069,2|2,0:0|0:0,0:0:0:0:
376,116,150618,2,0,L|425:205,1,71.5000021820069,2|0,0:0|0:0,0:0:0:0:
216,220,150931,5,10,0:0:0:0:
180,140,151087,1,0,0:0:0:0:
260,8,151243,1,2,0:0:0:0:
300,84,151399,1,2,0:0:0:0:
296,168,151556,38,0,P|336:188|356:264,2,71.5000021820069,2|0|2,0:0|0:0|0:0,0:0:0:0:
216,220,152024,1,2,0:0:0:0:
68,320,152181,2,0,P|36:296|12:256,2,71.5000021820069,10|0|2,0:0|0:0|0:0,0:0:0:0:
144,272,152649,1,2,0:0:0:0:
104,188,152806,6,0,L|72:120,1,71.5000021820069,2|2,0:0|0:0,0:0:0:0:
168,32,153118,2,0,L|200:100,1,71.5000021820069,2|0,0:0|0:0,0:0:0:0:
244,264,153431,5,10,0:0:0:0:
192,196,153587,1,0,0:0:0:0:
308,108,153743,1,2,0:0:0:0:
360,176,153899,1,2,0:0:0:0:
360,264,154056,6,0,P|380:264|436:272,1,71.5000021820069,2|2,0:0|0:0,0:0:0:0:
272,344,154368,2,0,P|240:348|200:340,1,71.5000021820069,2|0,0:0|0:0,0:0:0:0:
192,196,154681,37,10,0:0:0:0:
276,216,154837,1,0,0:0:0:0:
104,276,154993,1,2,0:0:0:0:
20,256,155149,1,2,0:0:0:0:
24,168,155306,6,0,L|24:96,1,71.5000021820069,2|2,0:0|0:0,0:0:0:0:
144,32,155618,2,0,L|144:120,1,71.5000021820069,2|0,0:0|0:0,0:0:0:0:
136,328,155931,5,10,0:0:0:0:
136,244,156087,1,0,0:0:0:0:
256,192,156243,1,2,0:0:0:0:
256,276,156399,1,2,0:0:0:0:
328,324,156556,6,0,P|376:340|464:292,1,143.000004364014,2|2,0:0|0:0,0:0:0:0:
488,224,157024,1,2,0:0:0:0:
484,136,157181,2,0,P|436:120|348:168,1,143.000004364014,10|2,0:0|0:0,0:0:0:0:
136,320,157806,38,0,P|176:332|228:316,1,77.999997619629,6|0,0:0|0:0,0:0:0:0:
248,240,158118,1,2,0:0:0:0:
248,240,158274,1,2,0:0:0:0:
80,216,158431,6,0,P|116:228|176:200,1,77.999997619629,10|0,0:0|0:0,0:0:0:0:
208,144,158743,1,2,0:0:0:0:
208,144,158899,1,2,0:0:0:0:
108,44,159056,6,0,B|260:64,1,116.999996429443,2|0,0:0|0:0,0:0:0:0:
384,132,159368,6,0,B|248:156,1,104,2|0,0:0|0:0,0:0:0:0:
160,232,159681,38,0,L|268:248,1,90.9999972229005,10|0,0:0|0:0,0:0:0:0:
316,324,159993,6,0,L|212:344,1,77.999997619629,2|0,0:0|0:0,0:0:0:0:
80,344,160306,6,0,B|60:304|72:256,1,77.999997619629,2|0,0:0|0:0,0:0:0:0:
52,176,160618,1,2,0:0:0:0:
52,176,160774,1,2,0:0:0:0:
100,40,160931,6,0,B|-24:40,1,77.999997619629,10|0,0:0|0:0,0:0:0:0:
144,148,161243,2,0,B|272:148,1,77.999997619629,2|0,0:0|0:0,0:0:0:0:
456,216,161556,38,0,B|467:161|467:161|455:101,1,116.999996429443,2|0,0:0|0:0,0:0:0:0:
352,116,161868,6,0,B|368:160|368:160|352:208,1,97.50000371933,2|0,0:0|0:0,0:0:0:0:
248,200,162181,6,0,B|260:160|260:160|248:124,1,77.999997619629,10|0,0:0|0:0,0:0:0:0:
392,36,162493,6,0,B|324:28|324:28|280:56,1,116.999996429443,2|0,0:0|0:0,0:0:0:0:
148,80,162806,38,0,P|84:84|36:112,1,77.999997619629,2|0,0:0|0:0,0:0:0:0:
44,180,163118,1,2,0:0:0:0:
44,180,163274,1,2,0:0:0:0:
136,168,163431,6,0,P|124:224|136:272,1,77.999997619629,10|0,0:0|0:0,0:0:0:0:
208,292,163743,1,2,0:0:0:0:
208,292,163899,1,2,0:0:0:0:
308,336,164056,6,0,P|380:344|492:304,1,116.999996429443,2|0,0:0|0:0,0:0:0:0:
472,224,164368,6,0,P|412:240|336:232,1,104,2|0,0:0|0:0,0:0:0:0:
324,128,164681,38,0,P|372:144|440:144,1,90.9999972229005,10|0,0:0|0:0,0:0:0:0:
464,44,164993,6,0,P|420:56|388:56,1,77.999997619629,2|0,0:0|0:0,0:0:0:0:
296,36,165306,5,2,0:0:0:0:
112,288,165618,1,2,0:0:0:0:
216,36,165931,1,10,0:0:0:0:
400,288,166243,1,2,0:0:0:0:
256,56,166556,5,2,0:0:0:0:
112,288,166868,1,2,0:0:0:0:
400,288,167181,1,10,0:0:0:0:
256,36,167806,37,6,0:0:0:0:
144,72,167962,1,2,0:0:0:0:
184,180,168118,1,2,0:0:0:0:
292,136,168274,1,2,0:0:0:0:
384,64,168431,5,10,0:0:0:0:
456,156,168587,1,2,0:0:0:0:
368,232,168743,1,2,0:0:0:0:
292,136,168899,1,2,0:0:0:0:
256,36,169056,6,0,P|188:52|136:76,1,116.999996429443,2|0,0:0|0:0,0:0:0:0:
292,136,169368,6,0,P|333:126|367:99,1,77.999997619629,2|0,0:0|0:0,0:0:0:0:
184,180,169681,38,0,P|180:240|208:312,1,116.999996429443,10|0,0:0|0:0,0:0:0:0:
449,302,169993,6,0,P|470:224|453:146,1,155.999995239258,2|0,0:0|0:0,0:0:0:0:
256,36,170306,38,0,P|256:68|256:88,2,38.9999988098145,2|0|0,0:0|0:0|0:0,0:0:0:0:
256,192,170774,1,2,0:0:0:0:
112,64,170931,6,0,P|84:68|12:160,1,136.499995834351,10|0,0:0|0:0,0:0:0:0:
52,312,171243,2,0,P|140:344|208:272,1,136.499995834351,2|0,0:0|0:0,0:0:0:0:
384,300,171556,6,0,L|248:352,1,136.499995834351,2|0,0:0|0:0,0:0:0:0:
136,216,171868,6,0,L|256:280,1,116.999996429443,2|0,0:0|0:0,0:0:0:0:
347,158,172181,6,0,L|239:198,1,97.50000371933,10|0,0:0|0:0,0:0:0:0:
184,80,172493,6,0,L|268:120,1,77.999997619629,2|0,0:0|0:0,0:0:0:0:
336,64,172806,38,0,L|412:20,2,65,2|0|2,0:0|0:0|0:0,0:0:0:0:
347,158,173274,1,2,0:0:0:0:
428,112,173431,2,0,L|492:72,2,65,10|0|2,0:0|0:0|0:0,0:0:0:0:
428,208,173899,1,2,0:0:0:0:
324,320,174056,6,0,P|264:336|180:312,1,116.999996429443,2|0,0:0|0:0,0:0:0:0:
176,160,174368,6,0,P|216:148|280:160,1,104,2|0,0:0|0:0,0:0:0:0:
124,304,174681,6,0,P|76:316|32:304,1,90.9999972229005,10|0,0:0|0:0,0:0:0:0:
12,180,174993,38,0,P|52:168|112:188,1,77.999997619629,2|0,0:0|0:0,0:0:0:0:
210,327,175306,6,0,P|244:256|320:216,1,155.999995239258,6|2,0:0|0:0,0:0:0:0:
400,192,175774,1,2,0:0:0:0:
424,100,175931,2,0,L|344:100,1,77.999997619629,10|2,0:0|0:0,0:0:0:0:
200,44,176243,2,0,L|300:44,1,77.999997619629,2|2,0:0|0:0,0:0:0:0:
219,152,176556,54,0,L|159:152,1,59.7999979925538,2|2,0:0|0:0,0:0:0:0:
40,88,176898,2,0,L|104:88,1,59.7999979925538,2|2,0:0|0:0,0:0:0:0:
131,216,177256,70,0,L|71:216,1,53.9500007820511,10|2,0:0|0:0,0:0:0:0:
28,204,177628,2,0,L|84:216,1,53.9500007820511,2|2,0:0|0:0,0:0:0:0:
200,280,178000,21,6,0:0:0:0:
264,320,178156,1,2,0:0:0:0:
340,316,178312,1,2,0:0:0:0:
444,168,178625,5,10,0:0:0:0:
380,208,178781,1,2,0:0:0:0:
304,204,178937,1,2,0:0:0:0:
168,48,179250,5,2,0:0:0:0:
232,88,179406,1,2,0:0:0:0:
308,84,179562,1,2,0:0:0:0:
176,172,179875,5,10,0:0:0:0:
112,212,180031,1,2,0:0:0:0:
36,208,180187,1,2,0:0:0:0:
264,296,180500,37,2,0:0:0:0:
328,336,180656,1,2,0:0:0:0:
404,332,180812,1,2,0:0:0:0:
448,192,181125,5,10,0:0:0:0:
360,120,181437,5,2,0:0:0:0:
360,120,181593,1,2,0:0:0:0:
360,120,181749,1,2,0:0:0:0:
256,192,182062,5,2,0:0:0:0:
256,192,182218,1,2,0:0:0:0:
256,192,182375,2,0,P|208:244|120:240,1,130,10|0,0:0|0:0,0:0:0:0:
156,112,183000,37,2,0:0:0:0:
156,112,183156,1,2,0:0:0:0:
228,84,183312,2,0,L|308:64,1,65,2|0,0:0|0:0,0:0:0:0:
394,149,183625,5,2,0:0:0:0:
394,149,183781,1,2,0:0:0:0:
318,173,183937,2,0,L|238:197,1,65,2|0,0:0|0:0,0:0:0:0:
260,336,184250,5,2,0:0:0:0:
260,336,184406,1,2,0:0:0:0:
208,280,184562,2,0,L|164:232,1,65,2|0,0:0|0:0,0:0:0:0:
159,87,184875,5,10,0:0:0:0:
159,87,185031,1,2,0:0:0:0:
211,143,185187,2,0,L|255:191,1,65,2|0,0:0|0:0,0:0:0:0:
376,240,185500,37,2,0:0:0:0:
376,240,185656,1,2,0:0:0:0:
420,164,185812,2,0,P|420:112|396:64,1,65,2|0,0:0|0:0,0:0:0:0:
254,190,186125,2,0,P|254:242|278:290,1,65,10|0,0:0|0:0,0:0:0:0:
204,332,186437,5,2,0:0:0:0:
204,332,186593,2,0,P|128:324|88:276,1,130,2|0,0:0|0:0,0:0:0:0:
64,200,187062,1,2,0:0:0:0:
144,212,187218,1,2,0:0:0:0:
116,132,187375,1,10,0:0:0:0:
464,64,188000,6,0,L|376:64,1,71.5000021820069,6|0,0:0|0:0,0:0:0:0:
284,144,188312,2,0,L|372:144,1,71.5000021820069,2|2,0:0|0:0,0:0:0:0:
472,224,188625,5,10,0:0:0:0:
388,224,188781,1,2,0:0:0:0:
292,304,188937,1,2,0:0:0:0:
376,304,189093,1,2,0:0:0:0:
288,180,189250,38,0,P|264:184|208:176,1,71.5000021820069,2|2,0:0|0:0,0:0:0:0:
188,68,189562,2,0,P|212:64|268:72,1,71.5000021820069,2|2,0:0|0:0,0:0:0:0:
136,176,189875,5,10,0:0:0:0:
52,176,190031,1,0,0:0:0:0:
28,52,190187,1,2,0:0:0:0:
112,52,190343,1,0,0:0:0:0:
188,68,190500,6,0,L|228:144,1,71.5000021820069,2|2,0:0|0:0,0:0:0:0:
136,268,190812,2,0,L|87:179,1,71.5000021820069,2|0,0:0|0:0,0:0:0:0:
296,164,191125,5,10,0:0:0:0:
332,244,191281,1,0,0:0:0:0:
252,376,191437,1,2,0:0:0:0:
212,300,191593,1,2,0:0:0:0:
216,216,191750,38,0,P|176:196|156:120,2,71.5000021820069,2|0|2,0:0|0:0|0:0,0:0:0:0:
296,164,192218,1,2,0:0:0:0:
444,64,192375,2,0,P|476:88|500:128,2,71.5000021820069,10|0|2,0:0|0:0|0:0,0:0:0:0:
368,112,192843,1,2,0:0:0:0:
408,196,193000,6,0,L|440:264,1,71.5000021820069,2|2,0:0|0:0,0:0:0:0:
344,352,193312,2,0,L|312:284,1,71.5000021820069,2|0,0:0|0:0,0:0:0:0:
268,120,193625,5,10,0:0:0:0:
320,188,193781,1,0,0:0:0:0:
204,276,193937,1,2,0:0:0:0:
152,208,194093,1,2,0:0:0:0:
152,120,194250,6,0,P|132:120|76:112,1,71.5000021820069,2|2,0:0|0:0,0:0:0:0:
240,40,194562,2,0,P|272:36|312:44,1,71.5000021820069,2|0,0:0|0:0,0:0:0:0:
320,188,194875,37,10,0:0:0:0:
236,168,195031,1,0,0:0:0:0:
408,108,195187,1,2,0:0:0:0:
492,128,195343,1,2,0:0:0:0:
488,216,195500,6,0,L|488:288,1,71.5000021820069,2|2,0:0|0:0,0:0:0:0:
368,352,195812,2,0,L|368:264,1,71.5000021820069,2|0,0:0|0:0,0:0:0:0:
376,56,196125,5,10,0:0:0:0:
376,140,196281,1,0,0:0:0:0:
256,192,196437,1,2,0:0:0:0:
256,108,196593,1,2,0:0:0:0:
184,60,196750,6,0,P|136:44|48:92,1,143.000004364014,2|2,0:0|0:0,0:0:0:0:
24,160,197218,1,2,0:0:0:0:
24,160,197375,1,10,0:0:0:0:
296,316,198000,37,6,0:0:0:0:
220,324,198156,1,2,0:0:0:0:
144,332,198312,1,2,0:0:0:0:
216,68,198625,5,10,0:0:0:0:
292,60,198781,1,2,0:0:0:0:
368,52,198937,1,2,0:0:0:0:
392,328,199250,5,2,0:0:0:0:
420,256,199406,1,2,0:0:0:0:
444,180,199562,1,2,0:0:0:0:
292,60,199875,5,10,0:0:0:0:
264,132,200031,1,2,0:0:0:0:
240,208,200187,1,2,0:0:0:0:
64,288,200500,37,2,0:0:0:0:
80,212,200656,1,2,0:0:0:0:
96,136,200812,1,2,0:0:0:0:
240,208,201125,1,10,0:0:0:0:
96,136,201437,5,2,0:0:0:0:
80,212,201593,1,2,0:0:0:0:
64,288,201749,1,2,0:0:0:0:
376,116,202062,5,2,0:0:0:0:
360,192,202218,1,2,0:0:0:0:
344,268,202374,1,10,0:0:0:0:
104,76,203000,5,2,0:0:0:0:
180,64,203156,1,2,0:0:0:0:
256,48,203312,1,2,0:0:0:0:
408,308,203625,37,10,0:0:0:0:
332,320,203781,1,2,0:0:0:0:
256,336,203937,1,2,0:0:0:0:
440,156,204250,5,2,0:0:0:0:
424,232,204406,1,2,0:0:0:0:
408,308,204562,1,2,0:0:0:0:
136,104,204875,5,10,0:0:0:0:
152,180,205031,1,2,0:0:0:0:
168,256,205187,1,2,0:0:0:0:
364,136,205500,5,2,0:0:0:0:
364,136,205656,1,2,0:0:0:0:
364,136,205812,1,2,0:0:0:0:
152,180,206125,1,10,0:0:0:0:
364,248,206437,1,2,0:0:0:0:
256,56,206750,6,0,P|252:100|256:184,1,97.5,2|0,0:0|0:0,0:0:0:0:
260,180,207062,6,0,P|272:227|260:287,1,97.5,2|0,0:0|0:0,0:0:0:0:
248,308,207375,69,6,0:0:0:0:
256,192,207531,12,0,210500,0:0:0:0:
