osu file format v14

[General]
AudioFilename: EPIK HIGH - Born Hater OFFICIAL LYRICS [HANROMENG].mp3
AudioLeadIn: 0
PreviewTime: -1
Countdown: 1
SampleSet: None
StackLeniency: 0.7
Mode: 0
LetterboxInBreaks: 1
WidescreenStoryboard: 0

[Editor]
DistanceSpacing: 1
BeatDivisor: 6
GridSize: 32
TimelineZoom: 1

[Metadata]
Title:Mapping cesspool
TitleUnicode:Mapping cesspool
Artist:Makoa
ArtistUnicode:Makoa
Creator:Makoa
Version:Fuck em
Source:a bunch of different shit
Tags:Korean Pop I'll Fuckin Wreck em virtual riot oorora paramore
BeatmapID:677143
BeatmapSetID:299937

[Difficulty]
HPDrainRate:7
CircleSize:3.5
OverallDifficulty:6
ApproachRate:7.7
SliderMultiplier:1.8
SliderTickRate:1

[Events]
//Background and Video events
0,0,"born hater.png",0,0
//Break Periods
//Storyboard Layer 0 (Background)
//Storyboard Layer 1 (Fail)
//Storyboard Layer 2 (Pass)
//Storyboard Layer 3 (Foreground)
//Storyboard Sound Samples

[TimingPoints]
528,612.244897959184,4,1,0,100,1,0
528,-133.333333333333,4,1,0,100,0,0
2364,-100,4,1,0,100,0,0
14303,-66.6666666666667,4,1,0,100,0,0
14609,-100,4,1,0,100,0,0
17976,-125,4,2,0,75,0,0
18283,-142.857142857143,4,2,0,50,0,0
18589,-200,4,2,0,25,0,0
18895,-100,4,1,0,100,0,0
22568,-50,4,1,0,100,0,0
23487,-100,4,1,0,100,0,0
26548,-50,4,1,0,100,0,0

[HitObjects]
316,256,528,6,0,B|338:246|338:246|352:231|352:231|378:219,4,67.5000025749208
230,197,1956,1,0,0:0:0:0:
204,176,2058,2,0,P|168:174|145:184,1,45.0000017166138
77,226,2364,6,0,P|107:274|234:288,1,180
338,227,3283,1,0,0:0:0:0:
354,93,3589,2,0,P|287:93|260:96,1,90
141,173,4099,1,0,0:0:0:0:
128,200,4201,2,0,P|136:240|155:261,1,60
236,275,4507,2,0,P|228:235|209:214,1,60
155,213,4813,6,0,P|163:253|182:274,1,60
263,288,5119,2,0,P|255:248|236:227,1,60
144,158,5425,6,0,P|143:128|189:81,1,90
315,88,6038,1,0,0:0:0:0:
370,159,6242,1,0,0:0:0:0:
381,186,6344,2,0,P|375:234|366:259,1,60
270,203,6956,1,0,0:0:0:0:
119,314,7262,2,0,P|149:309|178:301,1,60
111,244,7568,2,0,P|141:252|177:255,1,60
270,203,7874,6,0,P|296:160|293:119,1,90
159,106,8487,1,0,0:0:0:0:
195,188,8691,1,0,0:0:0:0:
219,205,8793,2,0,P|254:219|282:223,1,60
415,108,9405,2,0,P|410:157|417:187,1,60
418,196,9711,1,0,0:0:0:0:
397,277,9915,1,0,0:0:0:0:
371,293,10017,2,0,P|335:308|296:308,1,60
243,274,10323,6,0,P|271:240|315:230,1,90
397,277,10936,1,0,0:0:0:0:
314,229,11140,1,0,0:0:0:0:
292,210,11242,2,0,L|245:170,1,60
256,192,12058,12,0,12160,0:0:0:0:
256,192,12160,12,0,12262,0:0:0:0:
256,192,12364,12,0,12466,0:0:0:0:
256,192,12670,12,0,12772,0:0:0:0:
256,192,12976,12,0,13078,0:0:0:0:
351,196,13385,5,0,0:0:0:0:
293,259,13691,2,0,P|245:274|205:272,1,90
121,240,14201,1,0,0:0:0:0:
114,210,14303,2,0,B|91:158|91:158|74:158|74:158|81:173,1,90
121,240,14609,2,0,L|206:241,1,60
267,215,15119,1,0,0:0:0:0:
282,189,15221,6,0,L|339:152,1,60
459,191,15528,2,0,L|403:228,1,60
282,189,15834,2,0,P|246:158|239:143,1,60
179,73,16140,2,0,P|141:72|86:113,1,90
256,192,16650,12,0,16752,0:0:0:0:
256,192,16829,12,0,16931,0:0:0:0:
256,192,16956,12,0,17109,0:0:0:0:
256,192,17211,12,0,17313,0:0:0:0:
354,172,17568,5,0,0:0:0:0:
405,131,17670,2,0,L|434:80,1,45
328,97,17976,6,0,L|331:56,1,36
242,120,18283,6,0,L|227:78,1,31.4999990386963
166,163,18589,6,0,L|145:147,1,22.5
142,248,18895,6,0,P|166:276|227:279,1,90
386,225,19507,1,0,0:0:0:0:
280,167,19711,1,0,0:0:0:0:
226,140,19813,2,0,P|172:139|147:144,1,60
156,259,20119,2,0,P|177:229|198:197,1,60
279,61,20425,2,0,P|316:71|340:92,1,60
400,204,20732,2,0,P|383:238|367:266,1,60
202,196,21242,1,0,0:0:0:0:
171,144,21344,6,0,B|161:126|161:126|170:129|170:129|158:135|158:135|147:113,2,60
252,231,21956,2,0,P|320:240|365:235,1,90
190,140,22568,6,0,B|252:141|252:141|180:101|180:101|217:153|218:155|236:128|236:123|171:178|171:178|236:102|236:102|227:185|227:185|220:140,1,480
261,262,23487,6,0,P|301:326|314:337,1,60
414,281,23793,1,0,0:0:0:0:
341,155,23997,1,0,0:0:0:0:
308,125,24099,2,0,P|261:112|225:115,1,60
128,183,24609,1,0,0:0:0:0:
109,223,24711,2,0,P|104:263|110:287,1,60
217,268,25017,6,0,L|245:252,2,30
278,177,25323,2,0,P|273:137|252:101,1,60
325,266,25630,2,0,P|366:257|395:243,1,60
396,115,25936,2,0,P|371:141|354:170,1,60
280,304,26242,1,0,0:0:0:0:
98,100,26548,5,0,0:0:0:0:
268,232,26548,1,0,0:0:0:0:
433,129,26548,1,0,0:0:0:0:
136,100,26548,1,0,0:0:0:0:
97,124,26548,1,0,0:0:0:0:
94,160,26548,1,0,0:0:0:0:
91,200,26548,1,0,0:0:0:0:
86,241,26548,1,0,0:0:0:0:
89,276,26548,1,0,0:0:0:0:
180,215,26548,1,0,0:0:0:0:
170,98,26548,1,0,0:0:0:0:
199,100,26548,1,0,0:0:0:0:
118,215,26548,1,0,0:0:0:0:
148,215,26548,1,0,0:0:0:0:
268,261,26548,1,0,0:0:0:0:
267,295,26548,1,0,0:0:0:0:
299,297,26548,1,0,0:0:0:0:
332,301,26548,1,0,0:0:0:0:
356,319,26548,1,0,0:0:0:0:
352,275,26548,1,0,0:0:0:0:
350,234,26548,1,0,0:0:0:0:
469,256,26548,2,0,L|512:297,1,60
469,256,26548,2,0,L|540:206,1,60
435,160,26548,1,0,0:0:0:0:
432,190,26548,1,0,0:0:0:0:
436,222,26548,1,0,0:0:0:0:
439,257,26548,1,0,0:0:0:0:
444,282,26548,1,0,0:0:0:0:
443,314,26548,1,0,0:0:0:0:
296,298,26854,6,0,B|302:198|302:198|349:244|349:244|400:190|400:190|423:308,1,360
92,152,26854,1,0,0:0:0:0:
93,188,26854,1,0,0:0:0:0:
89,256,26854,1,0,0:0:0:0:
88,219,26854,1,0,0:0:0:0:
119,287,26854,1,0,0:0:0:0:
152,293,26854,1,0,0:0:0:0:
133,193,26854,1,0,0:0:0:0:
166,198,26854,1,0,0:0:0:0:
208,198,26854,1,0,0:0:0:0:
97,80,26854,1,0,0:0:0:0:
98,118,26854,1,0,0:0:0:0:
138,86,26854,1,0,0:0:0:0:
171,88,26854,1,0,0:0:0:0:
212,88,26854,1,0,0:0:0:0:
