osu file format v14

[General]
AudioFilename: audio.mp3
AudioLeadIn: 0
PreviewTime: 50256
Countdown: 0
SampleSet: Soft
StackLeniency: 0.7
Mode: 0
LetterboxInBreaks: 0
WidescreenStoryboard: 1

[Editor]
DistanceSpacing: 1
BeatDivisor: 2
GridSize: 4
TimelineZoom: 1

[Metadata]
Title:Sensen no Realism (TV Size)
TitleUnicode:戦線のリアリズム (TV Size)
Artist:Mako Niina
ArtistUnicode:新菜まこ
Creator:Cosmolade
Version:Normal
Source:幼女戦記
Tags:Youjo Senki Saga of Tanya the Evil ED ending Hearts Cry anime japanese Crissa [-Crissaegrim-] seselis1 Darksonic Hazu-
BeatmapID:1934190
BeatmapSetID:926030

[Difficulty]
HPDrainRate:4
CircleSize:3
OverallDifficulty:4
ApproachRate:5
SliderMultiplier:1
SliderTickRate:1

[Events]
//Background and Video events
Video,0,"ending2.avi"
0,0,"BG1.jpg",0,0
//Break Periods
//Storyboard Layer 0 (Background)
//Storyboard Layer 1 (Fail)
//Storyboard Layer 2 (Pass)
//Storyboard Layer 3 (Foreground)
//Storyboard Sound Samples

[TimingPoints]
641,288.461538461538,6,2,1,30,1,0
2371,-125,6,2,1,30,0,0
47371,-125,6,2,1,45,0,0
50833,-125,6,2,1,70,0,1
78525,-125,6,2,1,45,0,0
87179,-125,6,2,1,25,0,0
88044,-125,6,2,1,10,0,0

[Colours]
Combo1 : 143,3,3
Combo2 : 253,204,113
Combo3 : 46,82,73
Combo4 : 181,108,108
Combo5 : 250,163,44

[HitObjects]
109,218,2371,6,0,P|105:252|109:327,2,80,2|0|0,1:2|0:0|0:0,0:0:0:0:
113,137,3237,1,2,0:0:0:0:
172,84,3525,2,0,L|258:88,1,80,0|2,0:0|0:0,0:0:0:0:
329,106,4102,2,0,P|305:68|289:18,2,80,2|0|0,1:2|0:0|0:0,0:0:0:0:
369,175,4967,1,2,0:0:0:0:
338,249,5256,2,0,L|251:254,1,80,0|2,0:0|0:0,0:0:0:0:
178,243,5833,6,0,P|160:188|214:83,1,160,2|0,1:2|0:0,0:0:0:0:
275,81,6698,1,2,0:0:0:0:
349,111,6987,1,0,0:0:0:0:
424,85,7275,1,2,0:0:0:0:
433,5,7564,2,0,L|415:181,1,160,2|2,1:2|0:0,0:0:0:0:
379,235,8429,2,0,P|341:236|296:257,1,80,2|0,0:0|0:0,0:0:0:0:
233,293,9006,1,2,0:0:0:0:
153,281,9294,6,0,B|121:206|121:206|165:128,1,160,6|2,0:0|0:0,0:0:0:0:
220,85,10160,2,0,L|340:80,1,120,2|0,0:0|0:0,0:0:0:0:
380,81,10737,1,2,0:0:0:0:
418,151,11025,2,0,P|423:187|418:249,1,80,2|0,1:2|0:0,0:0:0:0:
397,262,11458,1,0,0:0:0:0:
397,262,11602,2,0,P|395:302|400:357,1,80,2|2,0:0|0:0,0:0:0:0:
238,362,12467,1,2,0:0:0:0:
163,333,12756,6,0,P|186:300|310:324,1,160,2|2,1:2|0:0,0:0:0:0:
343,366,13621,2,0,L|338:222,1,120,2|0,0:0|0:0,0:0:0:0:
333,206,14198,1,2,0:0:0:0:
277,148,14487,2,0,P|222:141|140:156,1,120,2|0,1:2|0:0,0:0:0:0:
125,172,15064,1,2,0:0:0:0:
78,106,15352,1,2,0:0:0:0:
28,43,15640,2,0,L|28:128,1,80,0|2,0:0|0:0,0:0:0:0:
68,191,16217,6,0,L|71:292,1,80,2|0,1:2|0:0,0:0:0:0:
125,329,16794,1,2,0:0:0:0:
190,278,17083,2,0,P|247:260|326:295,1,120,2|0,0:0|0:0,0:0:0:0:
334,301,17660,1,2,0:0:0:0:
404,263,17948,2,0,L|389:130,1,120,2|0,1:2|0:0,0:0:0:0:
382,104,18525,1,2,0:0:0:0:
423,35,18814,2,0,L|502:31,2,80,2|0|2,0:0|0:0|0:0,0:0:0:0:
345,14,19679,6,0,L|219:11,1,120,2|0,1:2|0:0,0:0:0:0:
185,15,20256,1,2,0:0:0:0:
120,62,20544,2,0,P|110:131|122:193,1,120,2|0,0:0|0:0,0:0:0:0:
139,209,21121,1,2,0:0:0:0:
208,169,21410,6,0,B|261:145|305:173|305:173|349:196|401:169,1,200,2|0,1:2|0:0,0:0:0:0:
426,139,22275,2,0,B|456:178|459:215|459:215|430:254|430:254|431:333,1,200,2|0,1:2|0:0,0:0:0:0:
432,361,23140,5,6,0:0:0:0:
275,329,23717,1,2,1:2:0:0:
210,376,24006,2,0,L|96:376,2,80,10|0|2,0:0|0:0|0:0,0:0:0:0:
275,329,24871,2,0,P|309:268|315:211,1,120,2|2,1:2|0:0,0:0:0:0:
312,178,25448,1,2,1:2:0:0:
248,129,25737,2,0,L|109:136,1,120,10|0,0:0|0:0,0:0:0:0:
88,138,26314,1,2,1:2:0:0:
85,57,26602,6,0,L|256:49,1,160,2|2,1:2|1:2,0:0:0:0:
320,24,27467,2,0,P|339:87|321:166,1,120,10|0,0:0|1:2,0:0:0:0:
313,175,28044,1,2,0:0:0:0:
249,224,28333,2,0,P|230:287|248:366,1,120,2|0,1:2|0:0,0:0:0:0:
259,372,28910,1,2,1:2:0:0:
332,339,29198,2,0,L|447:340,2,80,10|2|0,0:0|0:0|1:2,0:0:0:0:
259,372,30064,6,0,L|93:375,1,160,6|2,0:0|1:2,0:0:0:0:
36,325,30929,2,0,B|15:274|15:274|43:183,1,120,10|0,0:0|1:2,0:0:0:0:
48,174,31506,1,2,0:0:0:0:
115,131,31794,2,0,L|224:136,2,80,2|0|2,1:2|0:0|1:2,0:0:0:0:
118,50,32660,2,0,L|270:57,1,120,10|0,0:0|0:0,0:0:0:0:
278,55,33237,1,2,1:2:0:0:
343,100,33525,6,0,P|358:162|342:238,1,120,2|0,1:2|0:0,0:0:0:0:
332,253,34102,1,10,0:0:0:0:
265,297,34390,1,10,1:2:0:0:
185,310,34679,1,8,0:0:0:0:
109,285,34967,1,10,0:0:0:0:
62,219,35256,2,0,P|68:175|96:121,2,80,2|0|2,1:2|0:0|0:0,0:0:0:0:
109,285,36121,1,10,0:0:0:0:
181,317,36410,2,0,L|178:368,2,40,10|8|10,0:0|0:0|0:0,0:0:0:0:
181,236,36987,6,0,B|225:213|278:218|278:218|353:259|424:223,1,240,2|2,1:2|3:2,0:0:0:0:
452,159,38140,1,2,3:0:0:0:
413,89,38429,1,2,3:2:0:0:
336,64,38717,2,0,P|238:61|136:72,1,200,2|0,1:2|0:0,0:0:0:0:
97,78,39583,2,0,P|89:35|97:-16,2,80,2|2|2,3:2|3:2|3:2,0:0:0:0:
143,143,40448,6,0,P|169:191|127:304,1,160,2|2,1:2|0:0,0:0:0:0:
96,352,41314,1,2,3:2:0:0:
171,378,41602,1,2,3:2:0:0:
248,359,41890,1,2,3:2:0:0:
309,307,42179,2,0,P|381:288|468:311,1,160,2|2,1:2|0:0,0:0:0:0:
504,239,43044,1,2,3:2:0:0:
455,175,43333,2,0,L|452:77,1,80,2|2,3:2|3:2,0:0:0:0:
372,86,43910,6,0,L|372:223,1,120,2|0,1:2|3:2,0:0:0:0:
372,246,44487,1,2,0:0:0:0:
312,299,44775,2,0,P|240:313|145:272,1,160,2|2,3:2|3:2,0:0:0:0:
112,219,45640,2,0,L|98:359,2,120,2|0|2,1:2|3:2|3:2,0:0:0:0:
189,197,46794,2,0,L|201:55,1,120,2|0,3:2|0:0,0:0:0:0:
203,37,47371,6,0,P|244:41|289:35,1,80,2|0,1:2|0:0,0:0:0:0:
321,27,47804,2,0,P|360:23|406:32,1,80,10|0,0:0|0:0,0:0:0:0:
431,54,48237,1,10,0:0:0:0:
401,128,48525,2,0,L|407:192,2,40,10|8|10,0:3|0:3|0:3,0:0:0:0:
320,126,49102,2,0,L|326:190,1,40,10|10,0:0|0:0,0:0:0:0:
243,165,49535,6,0,L|239:125,2,40,10|8|0,0:0|0:0|0:0,0:0:0:0:
246,204,49967,1,0,0:0:0:0:
218,279,50256,1,10,0:0:0:0:
141,303,50544,1,10,0:0:0:0:
71,260,50833,6,0,B|60:200|89:161|89:161|115:115|93:58,1,200,6|0,0:0|0:0,0:0:0:0:
75,33,51698,2,0,L|251:32,1,160,10|0,0:0|1:2,0:0:0:0:
315,36,52564,2,0,P|319:89|286:153,1,120,2|0,1:2|0:0,0:0:0:0:
262,176,53140,1,2,1:2:0:0:
304,246,53429,2,0,L|484:245,1,160,10|2,0:0|1:2,0:0:0:0:
465,325,54294,6,0,L|334:325,1,120,6|0,0:0|0:0,0:0:0:0:
304,325,54871,1,2,1:2:0:0:
232,288,55160,2,0,P|219:237|252:167,1,120,10|0,0:0|1:2,0:0:0:0:
271,147,55737,1,2,0:0:0:0:
341,110,56025,2,0,B|276:114|276:114|239:96|239:96|167:101,1,160,2|0,1:2|0:0,0:0:0:0:
107,117,56890,1,10,0:0:0:0:
56,178,57179,1,2,1:2:0:0:
97,247,57467,1,2,1:2:0:0:
147,308,57756,6,0,P|175:262|151:189,1,120,6|2,0:0|1:2,0:0:0:0:
62,131,58621,1,10,0:0:0:0:
115,71,58910,1,2,0:0:0:0:
173,16,59198,1,2,0:0:0:0:
228,72,59487,2,0,L|360:71,1,120,2|2,1:2|0:0,0:0:0:0:
401,178,60352,2,0,L|269:177,1,120,10|0,0:0|0:0,0:0:0:0:
240,179,60929,1,2,1:2:0:0:
181,233,61217,6,0,P|161:192|191:115,1,120,6|0,0:0|0:0,0:0:0:0:
212,95,61794,1,2,1:2:0:0:
287,70,62083,2,0,L|424:70,1,120,10|0,0:0|1:2,0:0:0:0:
447,69,62660,1,2,0:0:0:0:
436,148,62948,2,0,P|443:233|442:277,1,120,2|0,1:2|1:2,0:0:0:0:
435,307,63525,1,2,1:2:0:0:
360,275,63814,2,0,P|361:238|356:173,2,80,10|10|10,0:0|0:3|0:0,0:0:0:0:
311,338,64679,5,6,0:0:0:0:
215,264,65112,2,0,P|163:253|123:261,1,80,2|2,0:0|0:0,0:0:0:0:
99,269,65544,2,0,L|102:143,1,120,10|0,0:0|1:2,0:0:0:0:
183,60,66410,1,2,1:2:0:0:
271,141,66842,2,0,P|309:147|364:137,1,80,2|2,0:0|0:0,0:0:0:0:
383,120,67275,2,0,P|394:182|388:253,1,120,10|0,0:0|0:0,0:0:0:0:
381,277,67852,1,2,1:2:0:0:
316,324,68140,6,0,L|182:330,1,120,6|0,0:0|0:0,0:0:0:0:
155,331,68717,1,2,1:2:0:0:
99,274,69006,1,10,0:0:0:0:
111,114,69583,1,2,0:0:0:0:
177,69,69871,2,0,L|304:71,1,120,2|0,1:2|0:0,0:0:0:0:
337,74,70448,1,2,1:2:0:0:
383,139,70737,1,10,0:0:0:0:
431,202,71025,2,0,L|500:195,2,40,8|8|8,0:0|0:0|1:3,0:0:0:0:
375,260,71602,6,0,B|302:283|302:283|199:251,1,160,6|0,0:0|0:0,0:0:0:0:
174,194,72467,2,0,L|163:324,1,120,10|0,0:0|1:2,0:0:0:0:
162,354,73044,1,2,0:0:0:0:
82,351,73333,6,0,L|93:212,1,120,6|0,0:0|0:0,0:0:0:0:
95,191,73910,1,2,1:2:0:0:
59,119,74198,1,8,0:0:0:0:
106,54,74487,2,0,P|156:50|212:59,1,80,2|2,0:0|1:2,0:0:0:0:
250,99,75064,6,0,P|243:156|251:249,1,120,6|2,0:0|1:2,0:0:0:0:
266,252,75640,1,0,0:0:0:0:
342,275,75929,2,0,L|478:270,1,120,10|0,0:0|1:2,0:0:0:0:
502,270,76506,1,2,0:0:0:0:
495,190,76794,2,0,L|386:192,2,80,6|0|0,0:0|0:0|0:0,0:0:0:0:
492,109,77660,2,0,L|434:110,2,40,10|8|10,0:0|0:0|1:3,0:0:0:0:
495,29,78237,1,2,1:2:0:0:
414,31,78525,6,0,B|319:28|319:28|246:54,1,160,6|0,0:0|0:0,0:0:0:0:
194,102,79390,2,0,P|159:108|114:152,2,80,2|0|2,0:0|0:0|0:0,0:0:0:0:
190,182,80256,2,0,P|175:237|193:329,1,120,2|0,1:2|0:0,0:0:0:0:
194,340,80833,2,0,P|244:354|336:326,1,120,2|0,0:0|0:0,0:0:0:0:
336,311,81410,1,2,0:0:0:0:
361,236,81698,1,2,0:0:0:0:
380,158,81987,6,0,P|278:110|369:227,1,400,2|2,1:2|0:0,0:0:0:0:
439,218,83717,1,2,1:2:0:0:
458,140,84006,1,2,0:0:0:0:
425,66,84294,1,0,0:0:0:0:
352,31,84583,2,0,B|307:24|270:40|270:40|232:53|185:32,1,160,2|0,0:0|0:0,0:0:0:0:
256,192,85448,12,0,88910,0:0:0:0:
