osu file format v14

[General]
AudioFilename: audio.mp3
AudioLeadIn: 0
PreviewTime: 100580
Countdown: 0
SampleSet: Soft
StackLeniency: 0.6
Mode: 0
LetterboxInBreaks: 0
WidescreenStoryboard: 1

[Editor]
Bookmarks: 130,7998,23736,39474,55211,70949,86687,102424,118162,133900,149638,165375,181113
DistanceSpacing: 1
BeatDivisor: 4
GridSize: 4
TimelineZoom: 2.1

[Metadata]
Title:Breathe
TitleUnicode:Breathe
Artist:Mako
ArtistUnicode:Mako
Creator:elicz1
Version:Normal
Source:
Tags:zelq some hero heroine yogurtt english pop electronic dance edm indie trance the remixes fable
BeatmapID:3365567
BeatmapSetID:1611358

[Difficulty]
HPDrainRate:4
CircleSize:3.5
OverallDifficulty:4.5
ApproachRate:5.8
SliderMultiplier:1.6
SliderTickRate:1

[Events]
//Background and Video events
0,0,"alena-aenami-couple1k.jpg",0,0
//Break Periods
2,134100,147670
//Storyboard Layer 0 (Background)
//Storyboard Layer 1 (Fail)
//Storyboard Layer 2 (Pass)
//Storyboard Layer 3 (Foreground)
//Storyboard Layer 4 (Overlay)
//Storyboard Sound Samples

[TimingPoints]
130,491.803278688525,4,2,1,55,1,0
7998,-100,4,2,2,55,0,0
23736,-100,4,2,1,55,0,0
25703,500,4,2,1,55,1,0
27703,487.80487804878,4,2,1,55,1,0
31605,491.803278688525,4,2,1,55,1,0
35047,-100,4,2,1,50,0,0
37505,-100,4,2,1,35,0,0
39473,-90.9090909090909,4,2,1,80,0,1
70949,-100,4,2,1,60,0,0
86686,-100,4,2,3,70,0,0
98489,-100,4,2,3,60,0,0
102424,-90.9090909090909,4,2,1,80,0,1
133900,-90.9090909090909,4,2,1,45,0,0
149637,-86.9565217391304,4,2,1,85,0,1
180867,-86.9565217391304,4,2,1,70,0,1
181113,-86.9565217391304,4,2,1,70,0,0

[Colours]
Combo1 : 183,177,186
Combo2 : 226,103,196
Combo3 : 33,138,243
Combo4 : 152,85,234
Combo5 : 137,129,143

[HitObjects]
37,317,7998,5,0,2:2:0:0:
151,205,8490,1,2,0:2:0:0:
252,271,8859,2,0,P|306:256|374:246,1,120,2|2,0:2|0:2,0:2:0:0:
428,300,9474,1,2,0:2:0:0:
495,256,9720,2,0,P|493:219|449:194,1,80,2|0,0:2|2:2,0:0:0:0:
397,47,10457,1,2,0:2:0:0:
328,145,10826,2,0,P|279:155|202:182,1,120,2|2,0:2|0:2,0:2:0:0:
143,137,11441,1,2,0:2:0:0:
171,62,11687,1,2,0:2:0:0:
48,227,12179,54,0,P|15:206|8:167,2,80,2|2|2,0:2|0:2|0:2,0:2:0:0:
74,302,12916,2,0,P|110:285|155:274,1,80,2|2,0:2|0:2,0:0:0:0:
218,315,13408,1,2,0:2:0:0:
263,382,13654,1,2,0:2:0:0:
311,317,13900,5,2,2:2:0:0:
359,164,14392,1,2,0:2:0:0:
512,212,14884,1,2,0:2:0:0:
471,370,15375,53,2,0:2:0:0:
471,370,15867,2,0,P|443:277|417:211,1,160,2|2,2:2|0:2,0:2:0:0:
461,149,16605,2,0,P|463:95|363:43,1,160,2|2,0:2|0:2,0:0:0:0:
333,102,17343,2,0,P|291:120|237:135,1,80,2|2,0:2|0:2,0:0:0:0:
181,107,17834,5,0,2:2:0:0:
279,233,18326,1,2,0:2:0:0:
173,291,18695,2,0,P|127:272|23:247,1,120,2|2,0:2|0:2,0:0:0:0:
11,317,19310,2,0,P|23:347|95:348,1,80,2|2,0:2|0:2,0:0:0:0:
148,187,20048,54,0,P|128:141|117:99,2,80,2|2|2,0:2|0:2|0:2,0:2:0:0:
227,175,20785,1,2,0:2:0:0:
274,239,21031,2,0,P|324:220|382:208,1,80,2|2,0:2|0:2,0:0:0:0:
411,264,21523,1,2,0:2:0:0:
476,218,21769,6,0,P|497:158|420:110,1,160,2|2,2:2|0:2,0:2:0:0:
288,29,22752,2,0,P|225:40|222:131,2,160,2|2|2,0:2|0:2|0:2,0:2:0:0:
371,172,24228,53,2,0:2:0:0:
371,172,24720,1,2,0:2:0:0:
323,324,25211,38,0,P|291:310|215:293,1,80,2|2,0:2|0:2,0:0:0:0:
204,231,25703,2,0,P|151:253|148:301,1,80,2|2,0:2|0:2,0:2:0:0:
78,315,26203,1,2,0:2:0:0:
10,271,26453,1,2,0:2:0:0:
35,195,26703,2,0,P|55:119|73:31,1,160,2|2,0:2|0:2,0:2:0:0:
146,12,27453,1,2,0:2:0:0:
176,87,27703,1,0,0:2:0:0:
312,3,28190,21,2,0:2:0:0:
312,3,28678,1,2,0:2:0:0:
453,180,29410,37,2,0:2:0:0:
512,233,29654,2,0,P|487:278|455:286,1,80,2|2,0:2|0:2,0:2:0:0:
424,356,30142,2,0,P|342:334|318:260,1,160,2|2,0:2|0:2,0:2:0:0:
261,214,30873,1,0,0:0:0:0:
306,148,31117,2,0,P|312:118|329:62,1,80,2|2,0:2|0:2,0:2:0:0:
147,36,31850,21,2,0:2:0:0:
79,80,32096,2,0,B|104:172|146:113|174:216,1,160,2|2,0:2|0:2,0:2:0:0:
116,263,32834,1,2,0:2:0:0:
230,374,33326,38,0,P|287:329|402:299,1,160,2|2,0:2|0:2,0:2:0:0:
415,366,34064,1,2,0:2:0:0:
493,353,34309,1,2,0:2:0:0:
506,274,34555,2,0,P|488:231|477:183,1,80,2|2,0:2|0:2,0:2:0:0:
408,160,35047,2,0,P|397:121|381:84,1,80,2|2,0:2|0:2,0:0:0:0:
442,28,35539,21,0,0:2:0:0:
313,230,36277,1,2,0:2:0:0:
118,89,37014,2,0,P|99:167|68:262,1,160,2|0,0:2|0:2,0:2:0:0:
336,79,39473,22,0,P|272:96|209:116,2,132.00000402832,6|2|2,1:2|3:2|3:2,0:0:0:0:
409,127,40457,1,10,0:2:0:0:
411,215,40703,1,2,3:2:0:0:
340,267,40949,1,2,0:2:0:0:
254,244,41195,1,2,3:2:0:0:
218,163,41441,38,0,P|178:180|119:197,1,88.000002685547,2|2,1:2|3:2,0:2:0:0:
69,135,41932,1,2,0:2:0:0:
0,190,42178,1,2,3:2:0:0:
45,265,42424,2,0,P|104:280|141:385,1,176.000005371094,10|2,0:2|3:2,0:2:0:0:
339,379,43408,21,6,1:2:0:0:
273,319,43654,2,0,P|280:272|309:197,1,88.000002685547,2|2,3:2|0:2,0:0:0:0:
270,149,44145,1,2,3:2:0:0:
356,132,44391,2,0,P|369:79|403:-12,2,132.00000402832,10|2|2,3:2|3:2|3:2,0:2:0:0:
402,207,45375,38,0,P|360:223|311:238,1,88.000002685547,0|2,1:2|3:2,0:0:0:0:
282,318,45867,1,2,3:2:0:0:
282,318,46113,1,2,3:2:0:0:
201,282,46359,2,0,P|152:238|88:227,1,132.00000402832,10|2,0:2|3:2,0:2:0:0:
66,94,47096,1,2,3:2:0:0:
144,133,47342,22,0,P|155:74|172:19,1,88.000002685547,6|0,1:2|3:2,0:2:0:0:
200,24,47711,2,0,P|276:39|363:78,1,132.00000402832,2|2,3:2|3:2,0:0:0:0:
405,28,48326,2,0,P|434:46|506:61,1,88.000002685547,10|2,0:2|3:2,0:0:0:0:
512,149,48818,1,2,0:2:0:0:
512,149,49064,1,2,3:2:0:0:
466,223,49309,38,0,P|384:251|300:301,1,176.000005371094,2|2,1:2|0:2,0:2:0:0:
256,368,50047,1,0,3:2:0:0:
186,313,50293,2,0,P|125:301|109:280,1,88.000002685547,10|0,0:2|3:2,0:2:0:0:
147,203,50785,2,0,P|207:214|223:235,1,88.000002685547,0|0,0:0|3:2,0:0:0:0:
299,275,51277,21,4,1:2:0:0:
368,220,51523,2,0,P|379:175|401:117,1,88.000002685547,2|2,3:2|0:2,0:0:0:0:
473,99,52014,1,2,3:2:0:0:
441,16,52260,1,10,3:2:0:0:
308,27,52629,2,0,P|286:95|258:160,1,132.00000402832,2|2,3:2|3:2,0:2:0:0:
182,188,53244,37,0,1:2:0:0:
224,265,53490,1,2,3:2:0:0:
63,338,53982,2,0,P|54:287|42:244,1,88.000002685547,2|8,3:2|3:2,0:2:0:0:
91,178,54473,2,0,B|84:69|33:116|22:-11,1,176.000005371094,2|2,3:2|3:2,0:0:0:0:
112,2,55211,22,0,P|156:20|251:48,1,132.00000402832,6|2,1:2|3:2,0:0:0:0:
252,86,55703,2,0,P|307:102|371:127,1,88.000002685547,0|2,0:2|3:2,0:0:0:0:
399,55,56195,1,10,0:2:0:0:
484,77,56441,1,2,3:2:0:0:
512,159,56686,1,2,0:2:0:0:
450,222,56932,1,2,3:2:0:0:
363,205,57178,38,0,P|343:256|310:273,1,88.000002685547,2|2,1:2|3:2,0:2:0:0:
261,341,57670,2,0,P|209:322|151:310,1,88.000002685547,2|2,0:2|3:2,0:2:0:0:
90,330,58162,1,10,2:2:0:0:
32,161,58654,2,0,P|140:199|215:221,1,176.000005371094,2|4,3:2|1:2,0:0:0:0:
255,154,59391,22,0,P|264:84|343:75,1,132.00000402832,2|0,3:2|3:2,0:2:0:0:
352,40,59883,2,0,P|396:56|418:119,1,88.000002685547,2|8,3:2|0:2,0:2:0:0:
480,150,60375,2,0,P|447:195|417:327,1,176.000005371094,2|2,3:2|3:2,0:0:0:0:
342,357,61113,37,0,1:2:0:0:
262,318,61359,1,2,3:2:0:0:
312,149,61850,1,2,3:2:0:0:
312,149,62096,2,0,P|269:168|206:183,1,88.000002685547,8|2,0:2|3:2,0:0:0:0:
182,252,62588,2,0,P|140:265|90:286,1,88.000002685547,0|2,0:0|3:2,0:0:0:0:
20,240,63080,21,6,1:2:0:0:
55,112,63449,2,0,P|100:102|146:172,1,132.00000402832,2|2,3:2|3:2,0:2:0:0:
216,218,64064,1,10,0:2:0:0:
146,272,64309,2,0,P|127:312|113:354,2,88.000002685547,2|2|2,3:2|3:2|3:2,0:0:0:0:
207,335,65047,37,2,1:2:0:0:
291,309,65293,1,2,0:2:0:0:
374,280,65539,2,0,P|394:175|415:95,1,176.000005371094,2|10,3:2|0:2,0:2:0:0:
477,49,66277,1,0,3:2:0:0:
477,49,66523,1,2,3:2:0:0:
304,14,67014,21,4,1:2:0:0:
243,78,67260,2,0,B|133:68|199:12|59:2,1,176.000005371094,2|2,3:2|3:2,0:0:0:0:
30,73,67998,1,8,0:2:0:0:
30,73,68244,2,0,P|46:113|61:174,1,88.000002685547,2|2,3:2|3:2,0:0:0:0:
10,231,68736,1,2,3:2:0:0:
71,295,68982,37,0,1:2:0:0:
147,251,69227,1,2,3:2:0:0:
289,354,69719,1,2,3:2:0:0:
435,256,70211,2,0,P|411:200|384:102,1,132.00000402832,2|2,3:2|3:2,0:0:0:0:
420,99,70703,2,0,P|408:50|387:-7,1,88.000002685547,2|0,3:2|3:2,0:2:0:0:
235,14,71441,6,0,P|186:19|168:93,1,120,2|2,0:2|0:2,0:2:0:0:
63,146,72178,1,2,0:2:0:0:
22,215,72424,1,2,0:2:0:0:
85,263,72670,2,0,P|118:245|180:222,1,80,2|0,0:2|3:2,0:0:0:0:
282,329,73408,54,0,P|346:340|419:360,1,120,2|0,0:2|0:2,0:0:0:0:
479,264,74145,1,2,0:2:0:0:
412,220,74391,1,2,0:2:0:0:
458,154,74637,2,0,P|442:119|425:71,1,80,2|0,0:2|3:2,0:0:0:0:
355,45,75129,6,0,P|321:58|274:70,1,80,2|2,0:2|0:2,0:0:0:0:
231,134,75621,1,2,0:2:0:0:
231,134,75867,2,0,B|215:227|174:180|153:289,1,160,2|2,0:2|0:2,0:2:0:0:
95,323,76605,1,2,0:2:0:0:
29,278,76850,53,2,3:2:0:0:
67,123,77342,1,2,0:2:0:0:
223,160,77834,1,2,0:2:0:0:
185,316,78326,5,2,0:2:0:0:
185,316,78818,2,0,P|252:263|354:241,1,160,2|2,3:2|0:2,0:2:0:0:
424,305,79678,1,2,0:2:0:0:
495,208,80047,2,0,P|482:174|466:114,1,80,2|2,0:2|0:2,0:2:0:0:
400,92,80539,1,2,0:2:0:0:
436,20,80785,53,0,3:2:0:0:
286,121,81277,2,0,P|234:107|221:38,1,120,2|2,0:2|0:2,0:0:0:0:
100,20,82014,1,2,0:2:0:0:
28,55,82260,1,2,0:2:0:0:
43,133,82506,1,2,0:2:0:0:
84,287,82998,6,0,P|43:304|-3:328,2,80,2|2|2,0:2|0:2|0:2,0:2:0:0:
120,215,83736,2,0,P|163:201|208:178,1,80,2|2,0:2|0:2,0:0:0:0:
264,234,84227,1,2,0:2:0:0:
264,234,84473,2,0,P|275:308|381:343,1,160,2|2,0:2|0:2,0:2:0:0:
428,211,85457,2,0,B|454:115|477:171|515:71,1,160,2|2,2:2|2:2,0:0:0:0:
368,7,86441,1,2,3:2:0:0:
315,66,86686,54,0,P|240:94|129:122,1,160,2|2,1:2|3:2,0:2:0:0:
113,52,87424,1,0,3:2:0:0:
37,79,87670,1,2,0:2:0:0:
1,234,88162,1,2,3:2:0:0:
42,302,88408,1,2,3:2:0:0:
121,304,88654,38,0,P|160:283|202:267,1,80,2|2,1:2|3:2,0:0:0:0:
227,197,89145,2,0,P|206:158|190:116,1,80,2|2,3:2|3:2,0:2:0:0:
235,56,89637,2,0,P|331:62|352:133,1,160,2|2,0:2|3:2,0:2:0:0:
424,149,90375,1,2,3:2:0:0:
399,225,90621,21,2,1:2:0:0:
255,153,91113,2,0,P|188:181|70:217,2,160,2|2|0,3:2|0:2|3:2,0:0:0:0:
211,85,92342,1,2,3:2:0:0:
267,27,92588,38,0,P|308:42|361:54,1,80,0|2,1:2|3:2,0:0:0:0:
385,118,93080,2,0,P|370:159|335:288,1,160,2|2,3:2|0:2,0:2:0:0:
270,314,93818,2,0,P|222:326|172:347,1,80,0|2,0:0|3:2,0:0:0:0:
115,317,94309,1,2,3:2:0:0:
99,238,94555,21,2,1:2:0:0:
252,192,95047,2,0,P|337:214|366:299,1,160,2|2,3:2|3:2,0:2:0:0:
342,350,95785,1,2,0:2:0:0:
496,226,96277,1,2,3:2:0:0:
435,173,96523,38,0,P|443:131|459:74,1,80,2|0,1:2|3:2,0:2:0:0:
410,29,97014,1,2,3:2:0:0:
410,29,97260,1,2,3:2:0:0:
350,82,97506,2,0,P|312:91|250:114,1,80,2|2,0:2|0:2,0:2:0:0:
207,58,97998,2,0,P|176:71|105:87,2,80,2|2|2,3:2|0:2|1:2,0:2:0:0:
43,233,99227,21,2,3:2:0:0:
240,369,99965,2,0,P|335:332|407:312,1,160,2|0,3:2|1:2,0:2:0:0:
439,35,102424,21,6,1:2:0:0:
357,139,102793,2,0,P|299:113|193:92,1,132.00000402832,2|2,3:2|3:2,0:2:0:0:
155,139,103408,1,10,0:2:0:0:
133,224,103654,1,2,3:2:0:0:
183,295,103900,1,2,0:2:0:0:
270,295,104145,1,2,3:2:0:0:
330,230,104391,54,0,P|381:244|440:268,1,88.000002685547,2|2,1:2|3:2,0:2:0:0:
480,198,104883,2,0,P|494:157|524:89,1,88.000002685547,0|2,0:0|3:2,0:0:0:0:
461,42,105375,2,0,P|378:29|352:122,1,176.000005371094,10|2,0:2|3:2,0:2:0:0:
198,200,106359,5,4,1:2:0:0:
139,134,106605,1,2,3:2:0:0:
63,179,106850,2,0,P|53:225|35:283,1,88.000002685547,2|2,3:2|3:2,0:2:0:0:
74,346,107342,2,0,P|142:312|219:298,1,132.00000402832,10|2,3:2|3:2,0:2:0:0:
318,350,108080,1,2,3:2:0:0:
384,292,108326,53,0,1:2:0:0:
463,330,108572,2,0,P|474:278|491:229,1,88.000002685547,2|2,3:2|3:2,0:0:0:0:
424,179,109064,1,2,3:2:0:0:
433,81,109309,2,0,P|378:110|291:132,1,132.00000402832,10|2,0:2|3:2,0:2:0:0:
205,49,110047,1,2,3:2:0:0:
126,88,110293,6,0,P|153:146|179:238,1,132.00000402832,6|2,1:2|3:2,0:2:0:0:
216,222,110785,2,0,P|226:262|252:327,1,88.000002685547,2|2,0:2|3:2,0:0:0:0:
185,373,111277,1,10,0:2:0:0:
99,351,111523,1,2,3:2:0:0:
96,263,111768,2,0,P|81:217|52:152,1,88.000002685547,2|2,0:2|3:2,0:0:0:0:
117,108,112260,54,0,B|239:123|170:170|312:186,1,176.000005371094,2|0,1:2|0:2,0:2:0:0:
396,53,113244,1,10,0:2:0:0:
480,76,113490,1,0,3:2:0:0:
490,163,113736,1,0,0:0:0:0:
421,218,113982,2,0,P|408:269|402:335,1,88.000002685547,2|4,3:2|1:2,0:0:0:0:
321,337,114473,6,0,P|254:341|146:387,1,176.000005371094,2|2,3:2|3:2,0:0:0:0:
83,337,115211,1,8,0:2:0:0:
83,337,115457,2,0,P|97:292|106:237,1,88.000002685547,2|2,3:2|3:2,0:0:0:0:
39,191,115949,1,2,0:2:0:0:
63,106,116195,53,0,1:2:0:0:
149,90,116441,1,2,3:2:0:0:
249,234,116932,2,0,P|339:246|424:286,1,176.000005371094,2|2,3:2|3:2,0:0:0:0:
455,261,117547,2,0,P|440:186|389:181,1,132.00000402832,2|2,3:2|3:2,0:0:0:0:
354,100,118162,5,6,1:2:0:0:
252,15,118531,2,0,P|192:24|197:99,1,132.00000402832,2|2,3:2|3:2,0:2:0:0:
104,120,119145,1,10,0:2:0:0:
162,185,119391,2,0,P|153:228|135:284,1,88.000002685547,2|2,3:2|3:2,0:0:0:0:
64,315,119883,1,2,3:2:0:0:
122,381,120129,54,0,P|168:360|218:345,1,88.000002685547,2|2,1:2|3:2,0:2:0:0:
290,365,120621,1,2,3:2:0:0:
306,278,120867,1,2,3:2:0:0:
324,191,121113,2,0,P|285:127|244:27,1,176.000005371094,10|0,0:2|0:0,0:2:0:0:
163,2,121850,2,0,P|141:14|126:88,1,88.000002685547,2|4,3:2|1:2,0:0:0:0:
74,145,122342,6,0,P|141:164|223:194,1,132.00000402832,2|0,3:2|3:2,0:2:0:0:
218,224,122834,2,0,P|196:277|141:291,1,88.000002685547,2|8,3:2|0:2,0:2:0:0:
223,360,123326,2,0,P|306:329|424:297,1,176.000005371094,2|2,3:2|3:2,0:0:0:0:
468,345,124064,53,0,1:2:0:0:
512,268,124309,1,2,3:2:0:0:
428,113,124801,1,2,3:2:0:0:
355,162,125047,2,0,P|334:114|320:62,1,88.000002685547,10|2,0:2|3:2,0:0:0:0:
159,15,125785,6,0,P|124:28|40:51,1,88.000002685547,2|6,3:2|1:2,0:0:0:0:
13,106,126277,1,0,3:2:0:0:
58,181,126523,2,0,P|140:193|195:292,1,176.000005371094,0|8,3:2|0:2,0:0:0:0:
150,342,127260,1,2,3:2:0:0:
228,382,127506,1,2,0:2:0:0:
228,382,127752,2,0,P|269:362|327:341,1,88.000002685547,0|0,3:2|1:2,0:0:0:0:
393,371,128244,53,2,3:2:0:0:
468,325,128490,1,2,3:2:0:0:
483,238,128736,1,2,3:2:0:0:
413,183,128982,2,0,P|389:131|378:85,1,88.000002685547,10|2,0:2|3:2,0:2:0:0:
317,40,129473,1,2,3:2:0:0:
240,82,129719,1,2,3:2:0:0:
249,169,129965,6,0,B|157:190|200:233|74:255,1,176.000005371094,6|2,1:2|3:2,0:2:0:0:
27,194,130703,1,2,3:2:0:0:
82,125,130949,2,0,P|97:38|184:37,1,176.000005371094,10|2,0:2|3:2,0:0:0:0:
258,63,131686,53,2,3:2:0:0:
258,63,131932,2,0,P|310:45|365:21,1,88.000002685547,2|2,1:2|3:2,0:2:0:0:
493,119,132670,1,2,3:2:0:0:
435,185,132916,2,0,P|400:208|398:262,1,88.000002685547,10|0,0:2|3:2,0:2:0:0:
427,280,133285,2,0,P|360:305|269:350,1,132.00000402832,2|2,3:2|3:2,0:0:0:0:
227,287,133900,1,0,1:2:0:0:
76,49,149637,6,0,P|144:31|196:9,1,92.0000017547608,6|0,1:2|3:2,0:0:0:0:
204,46,150006,2,0,P|225:106|165:147,1,138.000002632141,2|2,3:2|3:2,0:0:0:0:
96,195,150621,1,10,3:2:0:0:
125,282,150867,1,2,3:2:0:0:
212,315,151113,2,0,P|256:324|321:344,1,92.0000017547608,2|2,3:2|3:2,0:2:0:0:
385,299,151605,6,0,B|405:180|447:250|481:116,1,184.000003509522,2|2,1:2|3:2,0:2:0:0:
446,54,152342,1,2,3:2:0:0:
358,83,152588,2,0,P|331:36|238:45,1,138.000002632141,10|2,0:2|3:2,0:2:0:0:
207,24,153080,2,0,P|184:56|217:137,1,92.0000017547608,2|0,3:2|3:2,0:0:0:0:
162,195,153572,53,6,1:2:0:0:
96,259,153818,1,0,3:2:0:0:
11,223,154064,1,2,3:2:0:0:
101,382,154555,1,8,0:2:0:0:
181,337,154801,1,2,3:2:0:0:
271,321,155047,2,0,P|325:329|382:351,1,92.0000017547608,2|2,3:2|0:2,0:2:0:0:
410,261,155539,5,0,1:2:0:0:
499,238,155785,2,0,P|473:147|449:39,1,184.000003509522,2|2,3:2|3:2,0:0:0:0:
365,30,156523,1,10,0:2:0:0:
311,103,156768,2,0,P|236:73|133:54,1,184.000003509522,2|0,3:2|3:2,0:0:0:0:
64,113,157506,53,6,1:2:0:0:
192,162,157875,2,0,P|215:92|255:26,1,138.000002632141,2|2,3:2|3:2,0:0:0:0:
336,12,158490,1,10,3:2:0:0:
426,29,158736,1,2,3:2:0:0:
468,110,158982,1,2,3:2:0:0:
465,201,159227,1,2,3:2:0:0:
385,248,159473,6,0,P|327:227|245:206,1,138.000002632141,2|2,1:2|3:2,0:2:0:0:
208,219,159965,2,0,P|192:270|247:306,1,92.0000017547608,0|2,0:0|3:2,0:0:0:0:
262,378,160457,2,0,P|376:336|457:318,1,184.000003509522,10|2,0:2|3:2,0:2:0:0:
497,251,161195,1,2,3:2:0:0:
446,174,161441,53,6,1:2:0:0:
322,309,161932,1,2,3:2:0:0:
238,269,162178,2,0,P|203:287|115:318,1,92.0000017547608,2|8,3:2|0:2,0:2:0:0:
69,269,162670,1,2,3:2:0:0:
107,185,162916,2,0,P|161:160|154:99,1,92.0000017547608,2|2,3:2|3:2,0:2:0:0:
131,47,163408,5,0,1:2:0:0:
42,71,163654,1,2,3:2:0:0:
195,174,164145,1,2,3:2:0:0:
280,140,164391,2,0,P|308:83|360:87,1,92.0000017547608,10|2,0:2|3:2,0:2:0:0:
359,41,164760,2,0,P|403:47|433:152,1,138.000002632141,2|2,3:2|3:2,0:0:0:0:
500,196,165375,53,6,1:2:0:0:
458,327,165744,2,0,P|406:311|298:292,1,138.000002632141,2|2,3:2|3:2,0:2:0:0:
259,361,166359,1,10,0:2:0:0:
168,377,166605,1,2,3:2:0:0:
87,332,166850,1,2,0:2:0:0:
53,246,167096,1,2,3:2:0:0:
86,160,167342,6,0,P|147:175|203:182,1,92.0000017547608,2|2,1:2|3:2,0:2:0:0:
233,251,167834,2,0,P|290:258|341:271,2,92.0000017547608,2|2|10,3:2|0:2|0:2,0:2:0:0:
267,165,168572,1,2,3:2:0:0:
360,335,169064,1,2,3:2:0:0:
443,296,169309,54,0,P|452:248|473:184,1,92.0000017547608,4|2,1:2|3:2,0:0:0:0:
392,159,169801,1,2,0:2:0:0:
392,159,170047,1,2,3:2:0:0:
438,79,170293,2,0,B|326:68|394:21|258:7,1,184.000003509522,10|2,0:2|3:2,0:2:0:0:
206,73,171031,1,2,3:2:0:0:
122,33,171277,6,0,P|111:72|86:144,1,92.0000017547608,2|2,1:2|3:2,0:2:0:0:
16,165,171768,1,2,0:2:0:0:
16,165,172014,1,2,3:2:0:0:
42,253,172260,2,0,P|136:275|186:361,1,184.000003509522,10|2,0:2|0:2,0:0:0:0:
266,382,172998,1,2,3:2:0:0:
337,324,173244,53,4,1:2:0:0:
266,264,173490,1,2,3:2:0:0:
184,117,173982,1,2,3:2:0:0:
350,9,174473,1,2,3:2:0:0:
508,127,174965,1,2,3:2:0:0:
465,208,175211,6,0,P|408:186|314:165,1,138.000002632141,2|0,1:2|3:2,0:2:0:0:
315,125,175703,2,0,P|266:115|218:97,1,92.0000017547608,2|2,3:2|0:2,0:0:0:0:
147,148,176195,2,0,P|155:254|245:284,1,184.000003509522,8|2,0:2|3:2,0:0:0:0:
295,240,176932,1,2,0:2:0:0:
370,293,177178,53,4,1:2:0:0:
478,207,177547,2,0,P|455:137|439:70,1,138.000002632141,2|2,3:2|3:2,0:0:0:0:
367,16,178162,1,10,0:2:0:0:
294,73,178408,2,0,P|248:64|176:47,1,92.0000017547608,2|2,3:2|3:2,0:0:0:0:
113,35,178900,1,2,3:2:0:0:
46,98,179145,5,2,1:2:0:0:
68,187,179391,2,0,P|144:199|241:224,1,138.000002632141,0|0,3:2|3:2,0:0:0:0:
234,178,179883,2,0,P|284:191|348:199,1,92.0000017547608,2|10,3:2|0:2,0:2:0:0:
346,286,180375,1,0,0:2:0:0:
435,306,180621,1,0,3:2:0:0:
496,237,180867,1,2,3:2:0:0:
