osu file format v14

[General]
AudioFilename: audio.mp3
AudioLeadIn: 0
PreviewTime: 50050
Countdown: 0
SampleSet: Normal
StackLeniency: 0.7
Mode: 1
LetterboxInBreaks: 0
WidescreenStoryboard: 1

[Editor]
Bookmarks: 17180,33876,50571
DistanceSpacing: 0.9
BeatDivisor: 4
GridSize: 32
TimelineZoom: 2

[Metadata]
Title:Love Destiny (Game Ver.)
TitleUnicode:Love∞Destiny (Game Ver.)
Artist:Makino Yui, Fuchigami Mai, Tsuda Minami, Aoki Ruriko, Oozora Naomi
ArtistUnicode:牧野由依、渕上舞、津田美波、青木瑠璃子、大空直美
Creator:arien666
Version:REGULAR
Source:アイドルマスター シンデレラガールズ スターライトステージ
Tags:japanese video game jpop j-pop pop デレステ deresute The idolmaster idolm@ster cinderella girls starlight stage MASTER 06 佐久間まゆ Sakuma Mayu 北条加蓮 Hojo Karen 小日向美穂 Kohinata Miho 多田李衣菜 Tada Riina 緒方智絵里 Ogata Chieri GAME VERSION imas im@s アイマス Masque:Rade masquerade
BeatmapID:4102247
BeatmapSetID:1975684

[Difficulty]
HPDrainRate:7.5
CircleSize:5
OverallDifficulty:4
ApproachRate:5
SliderMultiplier:1.4
SliderTickRate:1

[Events]
//Background and Video events
0,0,"deresute01.jpg",0,15
//Break Periods
//Storyboard Layer 0 (Background)
//Storyboard Layer 1 (Fail)
//Storyboard Layer 2 (Pass)
//Storyboard Layer 3 (Foreground)
//Storyboard Layer 4 (Overlay)
//Storyboard Sound Samples

[TimingPoints]
485,521.739130434783,4,1,0,80,1,0
50571,-100,4,1,0,80,0,1
67267,-100,4,1,0,80,0,0
83963,521.739130434783,7,1,0,80,1,0
87093,521.739130434783,4,1,0,80,1,0
95440,-100,4,1,0,80,0,1
120484,-100,4,1,0,80,0,0

[HitObjects]
256,192,485,5,4,0:0:0:0:
256,192,1006,1,8,0:0:0:0:
256,192,1398,1,0,0:0:0:0:
256,192,1658,1,0,0:0:0:0:
256,192,1919,1,8,0:0:0:0:
256,192,2571,1,0,0:0:0:0:
256,192,3093,1,8,0:0:0:0:
256,192,3485,1,0,0:0:0:0:
256,192,3876,1,8,0:0:0:0:
256,192,4137,1,8,0:0:0:0:
256,192,4658,1,0,0:0:0:0:
256,192,5180,1,8,0:0:0:0:
256,192,5571,1,0,0:0:0:0:
256,192,5963,1,0,0:0:0:0:
256,192,6485,1,8,0:0:0:0:
256,192,6745,1,0,0:0:0:0:
256,192,7006,1,8,0:0:0:0:
256,192,7267,1,0,0:0:0:0:
256,192,7528,1,8,0:0:0:0:
256,192,7789,1,8,0:0:0:0:
256,192,8832,1,4,0:0:0:0:
256,192,9354,1,8,0:0:0:0:
256,192,9745,1,0,0:0:0:0:
256,192,10006,1,0,0:0:0:0:
256,192,10267,1,8,0:0:0:0:
256,192,10919,1,0,0:0:0:0:
256,192,11441,1,8,0:0:0:0:
256,192,11832,1,0,0:0:0:0:
256,192,12224,1,8,0:0:0:0:
256,192,12485,1,8,0:0:0:0:
256,192,13006,1,0,0:0:0:0:
256,192,13528,1,8,0:0:0:0:
256,192,13919,1,0,0:0:0:0:
256,192,14311,1,0,0:0:0:0:
256,192,14571,1,8,0:0:0:0:
256,192,14832,1,8,0:0:0:0:
256,192,15093,1,0,0:0:0:0:
256,192,15615,1,8,0:0:0:0:
256,192,15876,8,0,16919,0:0:0:0:
256,192,17180,5,4,0:0:0:0:
256,192,18224,1,0,0:0:0:0:
256,192,18615,1,8,0:0:0:0:
256,192,19006,1,0,0:0:0:0:
256,192,19267,1,0,0:0:0:0:
256,192,21093,1,0,0:0:0:0:
256,192,21354,1,0,0:0:0:0:
256,192,21615,1,8,0:0:0:0:
256,192,22137,1,0,0:0:0:0:
256,192,22398,1,0,0:0:0:0:
256,192,22658,1,8,0:0:0:0:
256,192,23180,1,0,0:0:0:0:
256,192,23441,1,8,0:0:0:0:
256,192,23963,1,8,0:0:0:0:
256,192,24485,1,0,0:0:0:0:
256,192,25006,1,0,0:0:0:0:
256,192,25528,1,12,0:0:0:0:
256,192,26571,1,0,0:0:0:0:
256,192,26963,1,8,0:0:0:0:
256,192,27354,1,8,0:0:0:0:
256,192,27615,1,0,0:0:0:0:
256,192,27876,1,0,0:0:0:0:
256,192,29441,1,8,0:0:0:0:
256,192,29702,1,0,0:0:0:0:
256,192,29963,1,8,0:0:0:0:
256,192,30485,1,8,0:0:0:0:
256,192,30745,1,0,0:0:0:0:
256,192,31006,1,8,0:0:0:0:
256,192,31528,1,0,0:0:0:0:
256,192,31789,1,8,0:0:0:0:
256,192,32311,1,8,0:0:0:0:
256,192,32832,1,0,0:0:0:0:
256,192,33354,1,8,0:0:0:0:
256,192,33876,1,4,0:0:0:0:
256,192,34658,1,0,0:0:0:0:
256,192,35180,1,8,0:0:0:0:
256,192,35441,1,8,0:0:0:0:
256,192,35963,1,0,0:0:0:0:
256,192,36354,1,8,0:0:0:0:
256,192,36615,1,8,0:0:0:0:
256,192,36876,1,0,0:0:0:0:
256,192,38050,1,0,0:0:0:0:
256,192,38832,1,0,0:0:0:0:
256,192,39354,1,8,0:0:0:0:
256,192,39615,1,8,0:0:0:0:
256,192,39876,1,0,0:0:0:0:
256,192,40137,1,0,0:0:0:0:
256,192,40658,1,8,0:0:0:0:
256,192,41180,1,0,0:0:0:0:
256,192,41441,1,0,0:0:0:0:
256,192,41702,1,8,0:0:0:0:
256,192,42224,1,0,0:0:0:0:
256,192,43006,1,0,0:0:0:0:
256,192,43528,1,0,0:0:0:0:
256,192,43789,1,8,0:0:0:0:
256,192,44050,1,8,0:0:0:0:
256,192,44311,1,0,0:0:0:0:
256,192,44702,1,0,0:0:0:0:
256,192,45093,1,0,0:0:0:0:
256,192,45876,1,8,0:0:0:0:
256,192,46137,1,8,0:0:0:0:
256,192,46919,1,0,0:0:0:0:
256,192,47180,1,0,0:0:0:0:
256,192,47702,1,0,0:0:0:0:
256,192,47963,1,8,0:0:0:0:
256,192,48224,1,8,0:0:0:0:
256,192,48485,8,0,50050,0:0:0:0:
256,192,50571,5,12,0:0:0:0:
256,192,51093,1,4,0:0:0:0:
256,192,51615,1,8,0:0:0:0:
256,192,52006,1,8,0:0:0:0:
256,192,52398,1,0,0:0:0:0:
256,192,52658,1,12,0:0:0:0:
256,192,53180,1,4,0:0:0:0:
256,192,53702,1,8,0:0:0:0:
256,192,54093,1,0,0:0:0:0:
256,192,54485,1,8,0:0:0:0:
256,192,55006,1,0,0:0:0:0:
256,192,55267,1,0,0:0:0:0:
256,192,55528,1,8,0:0:0:0:
256,192,55789,1,8,0:0:0:0:
256,192,56050,1,0,0:0:0:0:
256,192,56311,1,0,0:0:0:0:
256,192,56832,1,8,0:0:0:0:
256,192,57093,1,8,0:0:0:0:
256,192,57354,1,0,0:0:0:0:
256,192,57615,1,0,0:0:0:0:
256,192,58398,1,0,0:0:0:0:
256,192,58658,1,0,0:0:0:0:
256,192,58919,1,12,0:0:0:0:
256,192,59441,1,4,0:0:0:0:
256,192,59963,1,8,0:0:0:0:
256,192,60354,1,0,0:0:0:0:
256,192,60745,1,0,0:0:0:0:
256,192,61006,1,12,0:0:0:0:
256,192,61528,1,4,0:0:0:0:
256,192,62050,1,8,0:0:0:0:
256,192,62441,1,0,0:0:0:0:
256,192,62832,1,8,0:0:0:0:
256,192,63354,1,8,0:0:0:0:
256,192,63615,1,0,0:0:0:0:
256,192,63876,1,8,0:0:0:0:
256,192,64137,1,0,0:0:0:0:
256,192,64398,1,0,0:0:0:0:
256,192,64658,1,8,0:0:0:0:
256,192,64919,1,0,0:0:0:0:
256,192,65963,1,0,0:0:0:0:
256,192,66224,1,12,0:0:0:0:
256,192,66745,1,12,0:0:0:0:
256,192,67006,1,0,0:0:0:0:
256,192,67267,8,0,69093,0:0:0:0:
256,192,69354,5,0,0:0:0:0:
256,192,69745,1,0,0:0:0:0:
256,192,70137,1,8,0:0:0:0:
256,192,70398,1,0,0:0:0:0:
256,192,70919,1,8,0:0:0:0:
256,192,71180,1,8,0:0:0:0:
256,192,71441,1,0,0:0:0:0:
256,192,71832,1,0,0:0:0:0:
256,192,72224,1,8,0:0:0:0:
256,192,72485,1,8,0:0:0:0:
256,192,73267,1,0,0:0:0:0:
256,192,73528,1,8,0:0:0:0:
256,192,73789,1,8,0:0:0:0:
256,192,74050,1,0,0:0:0:0:
256,192,74441,1,8,0:0:0:0:
256,192,74963,1,0,0:0:0:0:
256,192,76137,1,8,0:0:0:0:
256,192,76528,1,0,0:0:0:0:
256,192,76919,1,0,0:0:0:0:
256,192,77180,1,8,0:0:0:0:
256,192,77441,1,8,0:0:0:0:
256,192,77702,1,0,0:0:0:0:
256,192,78093,1,8,0:0:0:0:
256,192,78485,1,8,0:0:0:0:
256,192,78745,1,8,0:0:0:0:
256,192,79137,1,0,0:0:0:0:
256,192,79528,1,0,0:0:0:0:
256,192,79789,1,8,0:0:0:0:
256,192,80571,1,8,0:0:0:0:
256,192,80832,1,8,0:0:0:0:
256,192,81615,1,0,0:0:0:0:
256,192,81876,1,0,0:0:0:0:
256,192,82658,1,0,0:0:0:0:
256,192,82919,1,8,0:0:0:0:
256,192,83180,1,8,0:0:0:0:
256,192,83441,1,0,0:0:0:0:
256,192,83702,1,0,0:0:0:0:
256,192,83963,8,0,86049,0:0:0:0:
256,192,87093,5,4,0:0:0:0:
256,192,88919,1,12,0:0:0:0:
256,192,89179,1,4,0:0:0:0:
256,192,91006,1,12,0:0:0:0:
256,192,91266,1,4,0:0:0:0:
256,192,93093,1,12,0:0:0:0:
256,192,93353,1,4,0:0:0:0:
256,192,93875,1,8,0:0:0:0:
256,192,94397,1,8,0:0:0:0:
256,192,94919,1,0,0:0:0:0:
256,192,95179,1,0,0:0:0:0:
256,192,95440,1,12,0:0:0:0:
256,192,95962,1,4,0:0:0:0:
256,192,96484,1,8,0:0:0:0:
256,192,96875,1,8,0:0:0:0:
256,192,97266,1,0,0:0:0:0:
256,192,97527,1,12,0:0:0:0:
256,192,98049,1,4,0:0:0:0:
256,192,98571,1,8,0:0:0:0:
256,192,98962,1,0,0:0:0:0:
256,192,99353,1,8,0:0:0:0:
256,192,99875,1,8,0:0:0:0:
256,192,100136,1,0,0:0:0:0:
256,192,100397,1,8,0:0:0:0:
256,192,100658,1,0,0:0:0:0:
256,192,100919,1,0,0:0:0:0:
256,192,101179,1,8,0:0:0:0:
256,192,101440,1,0,0:0:0:0:
256,192,102484,1,0,0:0:0:0:
256,192,102745,1,12,0:0:0:0:
256,192,103266,1,12,0:0:0:0:
256,192,103788,1,4,0:0:0:0:
256,192,104049,1,8,0:0:0:0:
256,192,104310,1,0,0:0:0:0:
256,192,104701,1,0,0:0:0:0:
256,192,104962,1,0,0:0:0:0:
256,192,105223,1,8,0:0:0:0:
256,192,105875,1,0,0:0:0:0:
256,192,106136,1,0,0:0:0:0:
256,192,106397,1,8,0:0:0:0:
256,192,106788,1,8,0:0:0:0:
256,192,107179,1,0,0:0:0:0:
256,192,107440,1,8,0:0:0:0:
256,192,107962,1,0,0:0:0:0:
256,192,108223,1,0,0:0:0:0:
256,192,108484,1,8,0:0:0:0:
256,192,108875,1,0,0:0:0:0:
256,192,109266,1,0,0:0:0:0:
256,192,109788,1,0,0:0:0:0:
256,192,110049,1,8,0:0:0:0:
256,192,110310,1,0,0:0:0:0:
256,192,110571,1,8,0:0:0:0:
256,192,110832,1,0,0:0:0:0:
256,192,111093,1,0,0:0:0:0:
256,192,112136,1,4,0:0:0:0:
256,192,112397,1,8,0:0:0:0:
256,192,112658,1,0,0:0:0:0:
256,192,113049,1,0,0:0:0:0:
256,192,113310,1,0,0:0:0:0:
256,192,113571,1,8,0:0:0:0:
256,192,114223,1,0,0:0:0:0:
256,192,114484,1,0,0:0:0:0:
256,192,114745,1,8,0:0:0:0:
256,192,115136,1,0,0:0:0:0:
256,192,115527,1,0,0:0:0:0:
256,192,115788,1,8,0:0:0:0:
256,192,116310,1,0,0:0:0:0:
256,192,116571,1,0,0:0:0:0:
256,192,116832,1,8,0:0:0:0:
256,192,117223,1,0,0:0:0:0:
256,192,117614,1,0,0:0:0:0:
256,192,117875,1,8,0:0:0:0:
256,192,118136,1,8,0:0:0:0:
256,192,118397,1,0,0:0:0:0:
256,192,118919,1,8,0:0:0:0:
256,192,119179,8,0,120484,0:0:0:0:
256,192,122310,5,12,0:0:0:0:
