osu file format v14

[General]
AudioFilename: .mp3
AudioLeadIn: 0
PreviewTime: -1
Countdown: 0
SampleSet: None
StackLeniency: 0.7
Mode: 3
LetterboxInBreaks: 1
SpecialStyle: 0
WidescreenStoryboard: 0

[Editor]
DistanceSpacing: 0.6
BeatDivisor: 4
GridSize: 8
TimelineZoom: 1.5

[Metadata]
Title:Symphony
TitleUnicode:シンフォニー
Artist:Makino Yui
ArtistUnicode:牧野由依
Creator:morrisdx123
Version:Normal
Source:Aria The animation
Tags:シンフォニー 牧野由依 Makino Yui Symphony
BeatmapID:1278504
BeatmapSetID:605122

[Difficulty]
HPDrainRate:7
CircleSize:7
OverallDifficulty:8
ApproachRate:8
SliderMultiplier:1.4
SliderTickRate:1

[Events]
//Background and Video events
//Break Periods
//Storyboard Layer 0 (Background)
//Storyboard Layer 1 (Fail)
//Storyboard Layer 2 (Pass)
//Storyboard Layer 3 (Foreground)
//Storyboard Sound Samples

[TimingPoints]
6453,697.640515439982,4,2,0,100,1,0

[HitObjects]
256,192,6453,5,0,0:0:0:0:
329,192,6801,1,0,0:0:0:0:
402,192,7499,1,0,0:0:0:0:
109,192,8197,1,0,0:0:0:0:
402,192,8894,1,0,0:0:0:0:
109,192,9592,1,0,0:0:0:0:
402,192,10290,1,0,0:0:0:0:
182,192,10290,1,0,0:0:0:0:
109,192,10987,1,0,0:0:0:0:
256,192,11685,1,0,0:0:0:0:
402,192,12382,1,0,0:0:0:0:
182,192,12382,1,0,0:0:0:0:
109,192,13080,1,0,0:0:0:0:
182,192,13778,1,0,0:0:0:0:
36,192,14475,1,0,0:0:0:0:
36,192,15173,1,0,0:0:0:0:
475,192,15173,1,0,0:0:0:0:
109,192,15871,1,0,0:0:0:0:
109,192,16568,1,0,0:0:0:0:
402,192,16568,1,0,0:0:0:0:
182,192,17266,1,0,0:0:0:0:
402,192,17266,1,0,0:0:0:0:
182,192,17964,1,0,0:0:0:0:
109,192,18661,1,0,0:0:0:0:
402,192,18661,1,0,0:0:0:0:
36,192,19359,1,0,0:0:0:0:
475,192,19359,1,0,0:0:0:0:
109,192,20056,1,0,0:0:0:0:
256,192,20056,1,0,0:0:0:0:
182,192,20405,1,0,0:0:0:0:
402,192,20754,1,0,0:0:0:0:
256,192,21103,1,0,0:0:0:0:
109,192,21452,1,0,0:0:0:0:
256,192,21801,1,0,0:0:0:0:
109,192,22149,1,0,0:0:0:0:
182,192,22498,1,0,0:0:0:0:
402,192,22847,1,0,0:0:0:0:
402,192,23196,1,0,0:0:0:0:
109,192,23196,1,0,0:0:0:0:
256,192,23545,1,0,0:0:0:0:
109,192,23894,1,0,0:0:0:0:
402,192,24242,1,0,0:0:0:0:
256,192,24417,1,0,0:0:0:0:
109,192,24591,1,0,0:0:0:0:
402,192,24766,1,0,0:0:0:0:
182,192,24940,1,0,0:0:0:0:
329,192,24940,1,0,0:0:0:0:
256,192,25289,128,0,27731:0:0:0:0:
109,192,25638,1,0,0:0:0:0:
402,192,26335,1,0,0:0:0:0:
182,192,26684,1,0,0:0:0:0:
329,192,26684,1,0,0:0:0:0:
402,192,26858,1,0,0:0:0:0:
36,192,26858,1,0,0:0:0:0:
109,192,27033,1,0,0:0:0:0:
475,192,27033,1,0,0:0:0:0:
329,192,27207,1,0,0:0:0:0:
182,192,27207,1,0,0:0:0:0:
36,192,27382,1,0,0:0:0:0:
475,192,27382,1,0,0:0:0:0:
109,192,27556,1,0,0:0:0:0:
402,192,27556,1,0,0:0:0:0:
36,192,27731,1,0,0:0:0:0:
329,192,27731,128,0,28428:0:0:0:0:
109,192,27731,128,0,28428:0:0:0:0:
475,192,27731,1,0,0:0:0:0:
256,192,28079,1,0,0:0:0:0:
36,192,28079,1,0,0:0:0:0:
182,192,28428,1,0,0:0:0:0:
475,192,28428,1,0,0:0:0:0:
402,192,28603,1,0,0:0:0:0:
256,192,28777,1,0,0:0:0:0:
182,192,28951,1,0,0:0:0:0:
256,192,29126,1,0,0:0:0:0:
36,192,29126,1,0,0:0:0:0:
475,192,29126,1,0,0:0:0:0:
329,192,29126,1,0,0:0:0:0:
329,192,29300,1,0,0:0:0:0:
402,192,29475,1,0,0:0:0:0:
475,192,29649,1,0,0:0:0:0:
402,192,29823,1,0,0:0:0:0:
109,192,29823,1,0,0:0:0:0:
329,192,29998,1,0,0:0:0:0:
256,192,30172,1,0,0:0:0:0:
182,192,30347,1,0,0:0:0:0:
256,192,30521,1,0,0:0:0:0:
36,192,30521,1,0,0:0:0:0:
475,192,30521,1,0,0:0:0:0:
329,192,30696,1,0,0:0:0:0:
402,192,30870,1,0,0:0:0:0:
475,192,31044,1,0,0:0:0:0:
109,192,31219,1,0,0:0:0:0:
402,192,31219,1,0,0:0:0:0:
329,192,31393,1,0,0:0:0:0:
256,192,31568,1,0,0:0:0:0:
182,192,31742,1,0,0:0:0:0:
256,192,31916,1,0,0:0:0:0:
36,192,31916,1,0,0:0:0:0:
402,192,31916,1,0,0:0:0:0:
109,192,32091,1,0,0:0:0:0:
182,192,32265,1,0,0:0:0:0:
256,192,32440,1,0,0:0:0:0:
109,192,32614,1,0,0:0:0:0:
402,192,32614,1,0,0:0:0:0:
475,192,32788,1,0,0:0:0:0:
402,192,32963,1,0,0:0:0:0:
329,192,33137,1,0,0:0:0:0:
256,192,33312,1,0,0:0:0:0:
36,192,33486,1,0,0:0:0:0:
182,192,33660,1,0,0:0:0:0:
402,192,34009,1,0,0:0:0:0:
182,192,34358,1,0,0:0:0:0:
329,192,34358,1,0,0:0:0:0:
36,192,34707,1,0,0:0:0:0:
475,192,34707,1,0,0:0:0:0:
109,192,34881,1,0,0:0:0:0:
182,192,35056,1,0,0:0:0:0:
256,192,35230,1,0,0:0:0:0:
402,192,35405,1,0,0:0:0:0:
109,192,35405,1,0,0:0:0:0:
182,192,35579,1,0,0:0:0:0:
36,192,35753,1,0,0:0:0:0:
109,192,35928,1,0,0:0:0:0:
402,192,36102,1,0,0:0:0:0:
182,192,36102,1,0,0:0:0:0:
329,192,36277,1,0,0:0:0:0:
109,192,36451,1,0,0:0:0:0:
475,192,36451,1,0,0:0:0:0:
182,192,36625,1,0,0:0:0:0:
402,192,36800,1,0,0:0:0:0:
256,192,36800,1,0,0:0:0:0:
329,192,36974,1,0,0:0:0:0:
256,192,37149,1,0,0:0:0:0:
182,192,37323,1,0,0:0:0:0:
109,192,37498,1,0,0:0:0:0:
36,192,37672,1,0,0:0:0:0:
109,192,37846,1,0,0:0:0:0:
182,192,38021,1,0,0:0:0:0:
475,192,38195,1,0,0:0:0:0:
329,192,38195,1,0,0:0:0:0:
36,192,38195,128,0,38893:0:0:0:0:
329,192,38893,1,0,0:0:0:0:
182,192,38893,1,0,0:0:0:0:
475,192,38893,1,0,0:0:0:0:
256,192,38893,128,0,42730:0:0:0:0:
109,192,39242,1,0,0:0:0:0:
402,192,39590,1,0,0:0:0:0:
36,192,39590,1,0,0:0:0:0:
402,192,40288,1,0,0:0:0:0:
109,192,40288,1,0,0:0:0:0:
182,192,40986,1,0,0:0:0:0:
402,192,41335,1,0,0:0:0:0:
109,192,41683,1,0,0:0:0:0:
402,192,42032,1,0,0:0:0:0:
182,192,42381,1,0,0:0:0:0:
329,192,42730,1,0,0:0:0:0:
109,192,43079,128,0,43776:0:0:0:0:
402,192,43253,1,0,0:0:0:0:
329,192,43427,1,0,0:0:0:0:
256,192,43602,1,0,0:0:0:0:
182,192,43776,1,0,0:0:0:0:
329,192,44125,1,0,0:0:0:0:
36,192,44125,1,0,0:0:0:0:
109,192,44299,1,0,0:0:0:0:
402,192,44299,1,0,0:0:0:0:
182,192,44474,1,0,0:0:0:0:
475,192,44474,1,0,0:0:0:0:
36,192,44823,1,0,0:0:0:0:
109,192,44997,1,0,0:0:0:0:
182,192,45172,1,0,0:0:0:0:
256,192,45346,1,0,0:0:0:0:
329,192,45520,1,0,0:0:0:0:
402,192,45695,1,0,0:0:0:0:
475,192,45869,1,0,0:0:0:0:
256,192,45869,128,0,47264:0:0:0:0:
402,192,45869,1,0,0:0:0:0:
329,192,45869,1,0,0:0:0:0:
109,192,45869,128,0,47264:0:0:0:0:
475,192,46218,1,0,0:0:0:0:
329,192,46392,1,0,0:0:0:0:
402,192,46567,1,0,0:0:0:0:
36,192,46567,1,0,0:0:0:0:
182,192,46741,1,0,0:0:0:0:
475,192,46916,1,0,0:0:0:0:
182,192,47090,1,0,0:0:0:0:
36,192,47264,128,0,48660:0:0:0:0:
329,192,47264,128,0,48660:0:0:0:0:
182,192,47439,1,0,0:0:0:0:
109,192,47613,1,0,0:0:0:0:
182,192,47788,1,0,0:0:0:0:
256,192,47962,1,0,0:0:0:0:
109,192,47962,1,0,0:0:0:0:
475,192,48137,1,0,0:0:0:0:
256,192,48311,1,0,0:0:0:0:
475,192,48485,1,0,0:0:0:0:
109,192,48660,128,0,49357:0:0:0:0:
402,192,48660,128,0,49357:0:0:0:0:
256,192,48834,1,0,0:0:0:0:
182,192,49009,1,0,0:0:0:0:
256,192,49183,1,0,0:0:0:0:
36,192,49357,128,0,50753:0:0:0:0:
182,192,49357,128,0,50753:0:0:0:0:
329,192,49357,128,0,50753:0:0:0:0:
256,192,49532,1,0,0:0:0:0:
402,192,49706,1,0,0:0:0:0:
109,192,50055,1,0,0:0:0:0:
402,192,50055,1,0,0:0:0:0:
402,192,50404,1,0,0:0:0:0:
475,192,50753,1,0,0:0:0:0:
109,192,50753,1,0,0:0:0:0:
402,192,51101,1,0,0:0:0:0:
109,192,51101,1,0,0:0:0:0:
475,192,51101,1,0,0:0:0:0:
36,192,51101,1,0,0:0:0:0:
329,192,51450,1,0,0:0:0:0:
182,192,51450,1,0,0:0:0:0:
256,192,51799,1,0,0:0:0:0:
256,192,52148,1,0,0:0:0:0:
182,192,52497,1,0,0:0:0:0:
329,192,52497,1,0,0:0:0:0:
402,192,52846,1,0,0:0:0:0:
109,192,52846,1,0,0:0:0:0:
36,192,53194,1,0,0:0:0:0:
475,192,53194,1,0,0:0:0:0:
109,192,53543,128,0,54241:0:0:0:0:
402,192,53543,128,0,54241:0:0:0:0:
329,192,54241,128,0,56683:0:0:0:0:
182,192,54241,128,0,56683:0:0:0:0:
109,192,54415,1,0,0:0:0:0:
36,192,54590,1,0,0:0:0:0:
109,192,54764,1,0,0:0:0:0:
256,192,54939,1,0,0:0:0:0:
402,192,55113,1,0,0:0:0:0:
475,192,55287,1,0,0:0:0:0:
109,192,55287,1,0,0:0:0:0:
402,192,55462,1,0,0:0:0:0:
256,192,55636,1,0,0:0:0:0:
109,192,55811,1,0,0:0:0:0:
36,192,55985,1,0,0:0:0:0:
475,192,55985,1,0,0:0:0:0:
109,192,56159,1,0,0:0:0:0:
256,192,56334,1,0,0:0:0:0:
402,192,56508,1,0,0:0:0:0:
36,192,56683,128,0,57729:0:0:0:0:
475,192,56683,128,0,57729:0:0:0:0:
109,192,57031,128,0,58078:0:0:0:0:
402,192,57031,128,0,58078:0:0:0:0:
329,192,57729,1,0,0:0:0:0:
182,192,57729,1,0,0:0:0:0:
256,192,58078,1,0,0:0:0:0:
329,192,58427,1,0,0:0:0:0:
402,192,58776,1,0,0:0:0:0:
475,192,59124,1,0,0:0:0:0:
402,192,59473,1,0,0:0:0:0:
329,192,59822,1,0,0:0:0:0:
256,192,60171,128,0,60868:0:0:0:0:
182,192,60171,1,0,0:0:0:0:
109,192,60345,1,0,0:0:0:0:
36,192,60520,1,0,0:0:0:0:
109,192,60694,1,0,0:0:0:0:
182,192,60868,1,0,0:0:0:0:
256,192,61043,1,0,0:0:0:0:
329,192,61217,1,0,0:0:0:0:
402,192,61392,1,0,0:0:0:0:
475,192,61566,1,0,0:0:0:0:
402,192,61741,1,0,0:0:0:0:
329,192,61915,1,0,0:0:0:0:
256,192,62089,1,0,0:0:0:0:
182,192,62264,1,0,0:0:0:0:
36,192,62264,128,0,62961:0:0:0:0:
475,192,62264,128,0,62961:0:0:0:0:
109,192,62613,128,0,63310:0:0:0:0:
402,192,62613,128,0,63310:0:0:0:0:
182,192,63310,128,0,64008:0:0:0:0:
329,192,63310,128,0,64008:0:0:0:0:
256,192,64008,128,0,64705:0:0:0:0:
475,192,64008,128,0,64705:0:0:0:0:
36,192,64008,128,0,64705:0:0:0:0:
109,192,64182,1,0,0:0:0:0:
182,192,64357,1,0,0:0:0:0:
329,192,64531,1,0,0:0:0:0:
402,192,64705,128,0,66101:0:0:0:0:
329,192,64880,1,0,0:0:0:0:
256,192,65054,128,0,66798:0:0:0:0:
182,192,65229,1,0,0:0:0:0:
109,192,65403,1,0,0:0:0:0:
36,192,65578,1,0,0:0:0:0:
109,192,65752,1,0,0:0:0:0:
182,192,65926,1,0,0:0:0:0:
329,192,66101,1,0,0:0:0:0:
402,192,66275,1,0,0:0:0:0:
475,192,66450,1,0,0:0:0:0:
402,192,66624,1,0,0:0:0:0:
329,192,66798,1,0,0:0:0:0:
36,192,66798,1,0,0:0:0:0:
402,192,67147,1,0,0:0:0:0:
109,192,67147,1,0,0:0:0:0:
182,192,67496,1,0,0:0:0:0:
475,192,67496,1,0,0:0:0:0:
402,192,67845,1,0,0:0:0:0:
109,192,67845,1,0,0:0:0:0:
329,192,68194,1,0,0:0:0:0:
36,192,68194,1,0,0:0:0:0:
109,192,68543,1,0,0:0:0:0:
475,192,68543,1,0,0:0:0:0:
36,192,68891,1,0,0:0:0:0:
256,192,68891,1,0,0:0:0:0:
109,192,69240,1,0,0:0:0:0:
329,192,69240,1,0,0:0:0:0:
402,192,69240,1,0,0:0:0:0:
475,192,69589,1,0,0:0:0:0:
256,192,69589,1,0,0:0:0:0:
36,192,69938,1,0,0:0:0:0:
109,192,69938,1,0,0:0:0:0:
329,192,69938,1,0,0:0:0:0:
475,192,70287,1,0,0:0:0:0:
256,192,70287,1,0,0:0:0:0:
36,192,70635,1,0,0:0:0:0:
182,192,70635,1,0,0:0:0:0:
402,192,70635,1,0,0:0:0:0:
475,192,70984,1,0,0:0:0:0:
329,192,70984,1,0,0:0:0:0:
256,192,70984,1,0,0:0:0:0:
109,192,71333,1,0,0:0:0:0:
402,192,71333,1,0,0:0:0:0:
36,192,71333,1,0,0:0:0:0:
109,192,71682,1,0,0:0:0:0:
256,192,71682,1,0,0:0:0:0:
329,192,71682,1,0,0:0:0:0:
36,192,72031,1,0,0:0:0:0:
182,192,72031,1,0,0:0:0:0:
475,192,72031,1,0,0:0:0:0:
256,192,72380,1,0,0:0:0:0:
329,192,72380,1,0,0:0:0:0:
36,192,72380,1,0,0:0:0:0:
329,192,72728,1,0,0:0:0:0:
475,192,72728,1,0,0:0:0:0:
109,192,72728,1,0,0:0:0:0:
182,192,72903,1,0,0:0:0:0:
109,192,73077,1,0,0:0:0:0:
402,192,73077,1,0,0:0:0:0:
36,192,73252,1,0,0:0:0:0:
182,192,73426,1,0,0:0:0:0:
256,192,73426,1,0,0:0:0:0:
475,192,73426,1,0,0:0:0:0:
402,192,73600,1,0,0:0:0:0:
36,192,73775,1,0,0:0:0:0:
109,192,73775,1,0,0:0:0:0:
329,192,73775,1,0,0:0:0:0:
402,192,73949,1,0,0:0:0:0:
182,192,74124,1,0,0:0:0:0:
256,192,74124,1,0,0:0:0:0:
475,192,74124,1,0,0:0:0:0:
402,192,74298,1,0,0:0:0:0:
109,192,74472,1,0,0:0:0:0:
329,192,74472,1,0,0:0:0:0:
475,192,74472,1,0,0:0:0:0:
36,192,74821,1,0,0:0:0:0:
182,192,75170,1,0,0:0:0:0:
109,192,75519,1,0,0:0:0:0:
256,192,75519,1,0,0:0:0:0:
475,192,75519,1,0,0:0:0:0:
36,192,75519,1,0,0:0:0:0:
182,192,75868,1,0,0:0:0:0:
402,192,75868,1,0,0:0:0:0:
329,192,75868,1,0,0:0:0:0:
109,192,76217,1,0,0:0:0:0:
256,192,76217,1,0,0:0:0:0:
475,192,76217,1,0,0:0:0:0:
182,192,76565,1,0,0:0:0:0:
402,192,76565,1,0,0:0:0:0:
329,192,76565,1,0,0:0:0:0:
256,192,76914,1,0,0:0:0:0:
36,192,77263,1,0,0:0:0:0:
109,192,77263,1,0,0:0:0:0:
475,192,77263,1,0,0:0:0:0:
182,192,77612,1,0,0:0:0:0:
329,192,77612,1,0,0:0:0:0:
109,192,77961,1,0,0:0:0:0:
256,192,78309,1,0,0:0:0:0:
109,192,78658,1,0,0:0:0:0:
402,192,78658,1,0,0:0:0:0:
182,192,79007,1,0,0:0:0:0:
329,192,79007,1,0,0:0:0:0:
475,192,79007,1,0,0:0:0:0:
256,192,79182,1,0,0:0:0:0:
182,192,79356,1,0,0:0:0:0:
329,192,79356,1,0,0:0:0:0:
109,192,79530,1,0,0:0:0:0:
402,192,79530,1,0,0:0:0:0:
36,192,79705,1,0,0:0:0:0:
475,192,79705,1,0,0:0:0:0:
109,192,79879,1,0,0:0:0:0:
402,192,79879,1,0,0:0:0:0:
182,192,80054,1,0,0:0:0:0:
329,192,80054,1,0,0:0:0:0:
256,192,80228,1,0,0:0:0:0:
329,192,80402,1,0,0:0:0:0:
182,192,80402,1,0,0:0:0:0:
402,192,80577,1,0,0:0:0:0:
109,192,80577,1,0,0:0:0:0:
475,192,80751,1,0,0:0:0:0:
36,192,80751,1,0,0:0:0:0:
402,192,80926,1,0,0:0:0:0:
109,192,80926,1,0,0:0:0:0:
329,192,81100,1,0,0:0:0:0:
182,192,81100,1,0,0:0:0:0:
256,192,81274,1,0,0:0:0:0:
182,192,81449,1,0,0:0:0:0:
329,192,81449,1,0,0:0:0:0:
109,192,81623,1,0,0:0:0:0:
402,192,81623,1,0,0:0:0:0:
36,192,81798,1,0,0:0:0:0:
475,192,81798,1,0,0:0:0:0:
402,192,81972,1,0,0:0:0:0:
109,192,81972,1,0,0:0:0:0:
329,192,82146,1,0,0:0:0:0:
182,192,82146,1,0,0:0:0:0:
256,192,82321,1,0,0:0:0:0:
182,192,82495,1,0,0:0:0:0:
329,192,82495,1,0,0:0:0:0:
109,192,82670,1,0,0:0:0:0:
402,192,82670,1,0,0:0:0:0:
475,192,82844,128,0,84588:0:0:0:0:
36,192,82844,128,0,84588:0:0:0:0:
109,192,83019,1,0,0:0:0:0:
182,192,83193,1,0,0:0:0:0:
256,192,83367,1,0,0:0:0:0:
329,192,83542,1,0,0:0:0:0:
402,192,83716,1,0,0:0:0:0:
329,192,83891,1,0,0:0:0:0:
256,192,84065,1,0,0:0:0:0:
182,192,84239,1,0,0:0:0:0:
109,192,84414,1,0,0:0:0:0:
256,192,84588,128,0,87379:0:0:0:0:
329,192,84763,128,0,84937:0:0:0:0:
402,192,84937,128,0,85111:0:0:0:0:
475,192,85111,128,0,85286:0:0:0:0:
402,192,85286,128,0,85460:0:0:0:0:
329,192,85460,128,0,85635:0:0:0:0:
182,192,85635,128,0,85809:0:0:0:0:
109,192,85809,128,0,85984:0:0:0:0:
36,192,85984,128,0,86158:0:0:0:0:
109,192,86158,128,0,86332:0:0:0:0:
182,192,86332,128,0,86507:0:0:0:0:
329,192,86507,128,0,86681:0:0:0:0:
402,192,86681,128,0,86856:0:0:0:0:
475,192,86856,128,0,87030:0:0:0:0:
402,192,87030,128,0,87204:0:0:0:0:
329,192,87204,128,0,87379:0:0:0:0:
182,192,87379,128,0,87553:0:0:0:0:
256,192,87553,128,0,87728:0:0:0:0:
329,192,87728,128,0,87902:0:0:0:0:
256,192,87902,1,0,0:0:0:0:
109,192,88076,1,0,0:0:0:0:
402,192,88076,1,0,0:0:0:0:
109,192,88251,1,0,0:0:0:0:
402,192,88251,1,0,0:0:0:0:
256,192,88425,1,0,0:0:0:0:
402,192,88600,1,0,0:0:0:0:
109,192,88600,1,0,0:0:0:0:
402,192,88774,1,0,0:0:0:0:
109,192,88774,1,0,0:0:0:0:
256,192,88948,1,0,0:0:0:0:
109,192,89123,1,0,0:0:0:0:
402,192,89123,1,0,0:0:0:0:
109,192,89297,1,0,0:0:0:0:
402,192,89297,1,0,0:0:0:0:
256,192,89472,1,0,0:0:0:0:
109,192,89646,1,0,0:0:0:0:
402,192,89646,1,0,0:0:0:0:
109,192,89821,1,0,0:0:0:0:
402,192,89821,1,0,0:0:0:0:
36,192,89821,1,0,0:0:0:0:
475,192,89821,1,0,0:0:0:0:
182,192,89995,1,0,0:0:0:0:
329,192,89995,1,0,0:0:0:0:
36,192,90169,1,0,0:0:0:0:
109,192,90169,1,0,0:0:0:0:
256,192,90169,1,0,0:0:0:0:
402,192,90169,1,0,0:0:0:0:
475,192,90169,1,0,0:0:0:0:
