osu file format v14

[General]
AudioFilename: audio.mp3
AudioLeadIn: 0
PreviewTime: 55484
Countdown: 1
SampleSet: Normal
StackLeniency: 0.7
Mode: 0
LetterboxInBreaks: 0
WidescreenStoryboard: 1

[Editor]
Bookmarks: 55564
DistanceSpacing: 0.6
BeatDivisor: 4
GridSize: 4
TimelineZoom: 1

[Metadata]
Title:Hello, Hoshi o Kazoete
TitleUnicode:Hello,星を数えて
Artist:MakiRinPana
ArtistUnicode:MakiRinPana
Creator:Izumi-Chan
Version:Not Easy
Source:Love live!
Tags:Hanayo Koizumi, Nishikino Maki, Hoshizora Rin
BeatmapID:1414442
BeatmapSetID:668611

[Difficulty]
HPDrainRate:7
CircleSize:4
OverallDifficulty:7
ApproachRate:9
SliderMultiplier:1.4
SliderTickRate:1

[Events]
//Background and Video events
0,0,"C85VFZBUwAAqLGu.jpg",0,0
Video,0,"589616459.mp4"
//Break Periods
//Storyboard Layer 0 (Background)
//Storyboard Layer 1 (Fail)
//Storyboard Layer 2 (Pass)
//Storyboard Layer 3 (Foreground)
//Storyboard Sound Samples

[TimingPoints]
180,260.869565217391,4,1,0,80,1,0
8533,-100,4,1,0,80,0,1
12180,-100,4,1,0,80,0,0
55484,-66.6666666666667,4,1,0,80,0,1
56723,-80,4,1,0,80,0,1
63571,-66.6666666666667,4,1,0,80,0,0
64093,-66.6666666666667,4,1,0,80,0,1
64940,-80,4,1,0,80,0,1
68274,-100,4,1,0,80,0,0
73223,-133.333333333333,4,1,0,80,0,0
74332,-200,4,1,0,80,0,0
75049,-133.333333333333,4,1,0,80,0,0
78832,-100,4,1,0,80,0,0
84701,-200,4,1,0,80,0,0
88614,-200,4,1,0,80,0,0

[HitObjects]
100,144,375,6,0,P|200:68|288:80,1,210
392,128,897,2,0,P|368:200|256:244,1,175
180,32,1419,1,0,0:0:0:0:
360,104,1680,2,0,L|328:200,1,70
448,312,1940,2,0,B|360:328,1,70
308,328,2201,2,0,L|232:316,1,70
72,276,2462,2,0,B|108:176|144:120,1,140
224,44,2853,2,0,L|264:128,1,70
404,300,3245,2,0,B|476:204|468:116|424:52|368:20|516:112|260:156,1,420
184,64,4549,1,0,0:0:0:0:
332,76,4745,1,0,0:0:0:0:
300,112,4810,1,0,0:0:0:0:
252,196,4940,1,0,0:0:0:0:
252,196,5071,2,0,P|200:228|124:212,2,140
80,108,5853,2,0,L|176:76,1,70
308,84,6114,2,0,L|392:128,1,70
472,20,6375,2,0,L|456:104,1,70
496,184,6636,2,0,L|324:272,1,175
96,212,7223,2,0,L|188:104,1,140
376,124,7680,2,0,B|376:212|240:308|284:176|164:312|280:116|276:148,1,280
408,212,8723,6,0,B|328:320|192:332|156:308,1,280
56,248,9766,1,0,0:0:0:0:
300,232,10027,2,0,L|160:192,1,140
220,116,10614,1,0,0:0:0:0:
392,292,10810,2,0,B|516:336|424:352,1,105
256,308,11266,1,0,0:0:0:0:
40,296,11658,2,0,B|44:264|28:168|112:184|48:108|104:60,1,245
364,40,12440,1,0,0:0:0:0:
412,64,12506,1,0,0:0:0:0:
448,128,12636,1,0,0:0:0:0:
428,200,12962,5,0,0:0:0:0:
428,200,13223,2,0,P|368:276|304:272,1,140
176,264,13940,2,0,L|176:196,1,35
288,68,14266,1,0,0:0:0:0:
192,72,14527,1,0,0:0:0:0:
192,72,14788,1,0,0:0:0:0:
192,72,14984,1,0,0:0:0:0:
192,72,15180,2,0,P|264:52|316:52,1,105
400,116,15506,2,0,P|356:176|304:192,1,105
248,172,16027,1,0,0:0:0:0:
252,296,16158,1,0,0:0:0:0:
140,236,16288,1,0,0:0:0:0:
248,172,16419,1,0,0:0:0:0:
252,296,16549,2,0,L|176:276,1,70
248,172,16810,2,0,L|336:168,1,70
488,248,17071,2,0,B|456:304|360:336|240:332|196:244|164:264|164:336|320:320|356:212|348:228,1,420
48,80,18897,6,0,L|4:148,1,70
60,184,19158,2,0,L|100:124,1,70
336,88,19614,2,0,L|316:160,1,70
368,268,19940,2,0,P|228:328|204:276,1,245
40,156,20788,1,0,0:0:0:0:
120,180,20919,1,0,0:0:0:0:
188,132,21049,1,0,0:0:0:0:
272,132,21179,1,0,0:0:0:0:
348,164,21310,2,0,P|352:244|272:284,1,175
100,172,22093,2,0,L|144:112,2,70
392,200,22810,2,0,P|368:264|284:300,1,140
124,188,23332,2,0,L|220:200,1,70
372,136,23788,1,0,0:0:0:0:
132,176,24114,1,0,0:0:0:0:
360,120,24636,2,0,B|408:208|420:352|400:360|304:312,1,280
288,108,29266,5,0,0:0:0:0:
288,108,29332,1,0,0:0:0:0:
428,124,29593,2,0,L|432:224,1,70
380,264,29853,2,0,L|256:264,1,105
244,228,30114,2,0,L|324:216,1,70
408,208,30375,2,0,L|464:156,1,70
328,172,30636,2,0,L|144:220,1,175
60,200,31093,2,0,L|176:108,1,140
68,120,31679,2,0,L|140:104,1,70
244,168,31940,2,0,L|132:204,1,105
316,280,32201,2,0,L|216:280,1,70
220,184,32462,2,0,L|156:256,1,70
108,240,32658,2,0,L|64:180,1,70
196,36,32984,2,0,L|184:120,1,70
316,204,33310,2,0,L|240:180,1,70
168,116,33571,2,0,L|116:172,1,70
192,236,33832,1,0,0:0:0:0:
236,132,34027,6,0,L|328:96,1,70
424,124,34288,2,0,L|404:184,1,35
360,272,34549,2,0,P|288:264|280:260,1,70
108,236,34810,2,0,L|168:164,1,70
236,172,35071,2,0,L|272:136,1,35
292,24,35332,1,0,0:0:0:0:
364,68,35527,2,0,L|284:124,1,70
260,180,35788,2,0,L|316:224,1,70
352,300,36049,2,0,L|388:308,1,35
268,260,36310,2,0,L|272:220,1,35
332,112,36571,2,0,L|348:160,1,35
176,44,36897,1,0,0:0:0:0:
52,128,37093,1,0,0:0:0:0:
52,128,37158,1,0,0:0:0:0:
180,200,37419,1,0,0:0:0:0:
320,164,37614,1,0,0:0:0:0:
320,164,37679,1,0,0:0:0:0:
212,64,37875,1,0,0:0:0:0:
48,20,38201,6,0,L|56:112,1,70
68,208,38462,2,0,L|144:156,1,70
240,72,38723,2,0,L|288:128,1,70
408,96,38984,2,0,B|472:136,1,70
508,276,39310,2,0,L|328:260,1,175
140,200,40027,2,0,L|184:100,1,105
308,112,40353,2,0,L|248:224,1,105
368,236,40679,2,0,L|424:152,1,70
464,96,41006,2,0,B|420:48|296:56|304:92|128:60,1,315
368,56,42375,6,0,L|368:140,1,70
380,224,42636,1,0,0:0:0:0:
196,292,42897,2,0,L|108:288,1,70
68,168,43158,2,0,L|172:180,1,105
300,172,43484,2,0,L|252:116,1,70
148,52,43679,2,0,L|152:144,1,70
184,308,44006,1,0,0:0:0:0:
84,148,44201,2,0,L|152:116,1,70
308,288,44593,2,0,L|272:228,1,70
184,140,44984,2,0,P|232:72|400:236,1,385
12,84,46288,5,0,0:0:0:0:
80,132,46419,1,0,0:0:0:0:
144,76,46549,1,0,0:0:0:0:
208,128,46679,1,0,0:0:0:0:
292,140,46810,2,0,L|360:176,1,70
368,256,47071,1,0,0:0:0:0:
368,256,47201,1,0,0:0:0:0:
264,292,47332,2,0,L|184:208,1,105
76,56,47788,1,0,0:0:0:0:
44,232,48375,5,0,0:0:0:0:
44,232,48506,1,0,0:0:0:0:
128,240,48636,2,0,L|208:232,1,70
292,160,48897,1,0,0:0:0:0:
292,160,49027,1,0,0:0:0:0:
292,160,49158,1,0,0:0:0:0:
100,196,49419,1,0,0:0:0:0:
196,184,49549,1,0,0:0:0:0:
292,188,49679,1,0,0:0:0:0:
204,248,49810,2,0,L|392:284,1,175
196,176,50462,6,0,L|264:136,1,70
344,200,50723,2,0,L|304:248,1,35
256,244,50853,2,0,L|140:244,1,105
76,220,51245,2,0,L|112:108,1,105
156,100,51506,2,0,L|136:172,1,70
208,244,51766,1,0,0:0:0:0:
304,284,51897,2,0,L|448:276,1,140
456,196,52288,2,0,L|436:116,1,70
424,60,52549,1,0,0:0:0:0:
84,200,53071,1,0,0:0:0:0:
476,296,53593,1,0,0:0:0:0:
124,68,54114,2,0,B|76:172|220:248|100:304|216:348|220:352,1,315
324,344,54766,2,0,L|364:336,8,35
436,260,55353,1,0,0:0:0:0:
456,212,55419,1,0,0:0:0:0:
468,156,55484,1,0,0:0:0:0:
448,108,55549,1,0,0:0:0:0:
420,64,55614,1,0,0:0:0:0:
340,60,55679,6,0,B|244:28|268:136|112:28|312:72|100:112|106:128|112:176|228:168,1,315.000012016297
68,248,56201,2,0,B|184:308|192:232|264:268|256:236|136:380,1,315.000012016297
264,356,56723,2,0,L|360:312,1,87.5
420,164,56984,2,0,L|264:156,1,131.25
268,96,57245,2,0,L|408:80,1,131.25
420,28,57506,2,0,L|320:32,1,87.5
200,32,57766,2,0,L|56:136,1,175
344,156,58158,2,0,L|176:116,1,131.25
368,356,58549,2,0,B|16:364|264:156|356:320|340:148|140:139|120:284,1,481.25
312,104,59853,5,0,0:0:0:0:
440,256,59984,1,0,0:0:0:0:
308,268,60114,1,0,0:0:0:0:
232,156,60245,1,0,0:0:0:0:
100,148,60375,2,0,L|136:264,1,87.5
108,364,60636,1,0,0:0:0:0:
260,300,60766,2,0,L|240:144,1,131.25
12,88,61158,1,0,0:0:0:0:
272,48,61419,2,0,L|212:120,1,87.5
112,84,61679,2,0,L|96:192,1,87.5
232,160,61940,2,0,L|332:172,1,87.5
316,304,62201,2,0,L|196:288,1,87.5
100,264,62462,2,0,L|180:224,1,87.5
252,116,62723,2,0,L|352:148,1,87.5
464,180,62984,2,0,P|456:332|332:292,1,306.25
0,212,64027,6,0,B|224:153|-16:180|192:240|96:368,1,315.000012016297
244,304,64549,2,0,P|388:316|520:232,1,262.500010013581
388,160,65071,2,0,L|292:216,1,87.5
236,96,65332,2,0,L|364:80,1,87.5
448,124,65593,2,0,L|436:216,1,87.5
440,304,65853,2,0,L|328:272,1,87.5
248,208,66114,2,0,P|180:216|80:160,1,175
104,88,66506,2,0,P|176:32|240:72,1,175
364,104,66897,2,0,B|428:236|380:292|380:292|240:144|240:144,1,393.75
60,72,67679,1,0,0:0:0:0:
60,72,67810,1,0,0:0:0:0:
60,72,67940,2,0,L|104:172,1,87.5
408,160,68462,6,0,L|396:304,2,140
40,20,69245,2,0,L|140:56,1,105
188,76,69506,2,0,L|260:148,1,70
408,132,69832,2,0,L|304:100,1,105
236,128,70223,2,0,L|272:160,1,35
124,76,70549,2,0,L|200:56,1,70
292,88,70810,2,0,L|248:156,1,70
400,236,71332,1,0,0:0:0:0:
316,200,71462,1,0,0:0:0:0:
244,244,71593,1,0,0:0:0:0:
148,244,71723,1,0,0:0:0:0:
72,208,71853,1,0,0:0:0:0:
228,68,72114,2,0,L|328:72,1,70
384,68,72440,2,0,P|448:200|364:256,1,245
252,40,73419,6,0,L|176:52,1,52.5000020027161
136,48,73679,1,0,0:0:0:0:
140,116,73810,1,0,0:0:0:0:
192,152,73940,1,0,0:0:0:0:
252,132,74136,1,0,0:0:0:0:
308,104,74266,1,0,0:0:0:0:
380,104,74397,2,0,L|352:256,1,140
316,96,75506,6,0,L|344:156,1,52.5000020027161
380,188,75766,2,0,L|352:248,1,52.5000020027161
304,272,75962,2,0,L|236:300,1,52.5000020027161
220,240,76223,2,0,L|232:176,1,52.5000020027161
256,192,76484,12,0,78832,0:0:0:0:
140,136,79679,6,0,L|232:116,1,70
312,100,79940,2,0,L|304:168,1,35
256,216,80136,2,0,L|184:256,1,70
268,316,80397,1,0,0:0:0:0:
256,192,81245,12,0,83853,0:0:0:0:
72,64,84897,6,0,L|80:120,1,52.5
148,212,85353,2,0,L|140:148,1,52.5
172,108,85679,2,0,L|184:172,1,52.5
240,228,85940,2,0,L|344:168,1,105
380,144,86462,1,0,0:0:0:0:
404,80,86658,1,0,0:0:0:0:
408,52,86723,1,0,0:0:0:0:
268,56,86984,2,0,L|240:108,1,52.5
112,56,87440,1,0,0:0:0:0:
140,148,87701,2,0,L|152:164,2,17.5
