osu file format v14

[General]
AudioFilename: One Piece Ending 1 - Memories By Maki Otsuki.mp3
AudioLeadIn: 0
PreviewTime: 0
Countdown: 0
SampleSet: None
StackLeniency: 0.7
Mode: 3
LetterboxInBreaks: 0
SpecialStyle: 0
WidescreenStoryboard: 1

[Editor]
DistanceSpacing: 0.8
BeatDivisor: 2
GridSize: 32
TimelineZoom: 1.6

[Metadata]
Title:Memories
TitleUnicode:Memories
Artist:Maki Otsuki
ArtistUnicode:Maki Otsuki
Creator:Piyani
Version:Normal
Source:One Piece
Tags:Anime OnePiece One Piece
BeatmapID:812783
BeatmapSetID:370898

[Difficulty]
HPDrainRate:7
CircleSize:4
OverallDifficulty:7
ApproachRate:5
SliderMultiplier:1.4
SliderTickRate:1

[Events]
//Background and Video events
0,0,"One_Piece_Memories_2010_by_Giamini (1).jpg",0,0
//Break Periods
//Storyboard Layer 0 (Background)
//Storyboard Layer 1 (Fail)
//Storyboard Layer 2 (Pass)
//Storyboard Layer 3 (Foreground)
//Storyboard Sound Samples

[TimingPoints]
794,448.095593726662,4,2,0,30,1,8
229197,-100,4,2,0,30,0,0

[Colours]
Combo1 : 70,0,0
Combo2 : 128,255,128
Combo3 : 98,169,255
Combo4 : 187,119,255

[HitObjects]
192,192,794,5,0,0:0:0:0:
448,192,794,1,0,0:0:0:0:
64,192,1242,1,0,0:0:0:0:
320,192,1242,1,0,0:0:0:0:
448,192,1690,1,0,0:0:0:0:
192,192,1690,1,0,0:0:0:0:
320,192,2138,1,0,0:0:0:0:
64,192,2138,1,0,0:0:0:0:
64,192,2586,1,0,0:0:0:0:
192,192,2810,1,0,0:0:0:0:
320,192,3034,1,0,0:0:0:0:
448,192,3258,1,0,0:0:0:0:
320,192,3482,1,0,0:0:0:0:
192,192,3706,1,0,0:0:0:0:
64,192,3930,1,0,0:0:0:0:
64,192,4378,1,0,0:0:0:0:
448,192,4378,1,0,0:0:0:0:
320,192,4826,1,0,0:0:0:0:
192,192,4826,1,0,0:0:0:0:
320,192,5274,1,0,0:0:0:0:
192,192,5274,1,0,0:0:0:0:
64,192,5723,1,0,0:0:0:0:
448,192,5723,1,0,0:0:0:0:
192,192,6171,1,0,0:0:0:0:
320,192,6395,1,0,0:0:0:0:
448,192,6619,1,0,0:0:0:0:
448,192,6843,1,0,0:0:0:0:
320,192,7067,1,0,0:0:0:0:
192,192,7291,1,0,0:0:0:0:
192,192,7515,1,0,0:0:0:0:
192,192,7739,1,0,0:0:0:0:
64,192,7963,1,0,0:0:0:0:
320,192,7963,1,0,0:0:0:0:
320,192,8187,1,0,0:0:0:0:
192,192,8411,1,0,0:0:0:0:
64,192,8635,1,0,0:0:0:0:
192,192,8859,1,0,0:0:0:0:
64,192,9083,1,0,0:0:0:0:
192,192,9307,1,0,0:0:0:0:
64,192,9531,1,0,0:0:0:0:
320,192,9755,1,0,0:0:0:0:
448,192,9979,1,0,0:0:0:0:
320,192,10204,1,0,0:0:0:0:
448,192,10428,1,0,0:0:0:0:
320,192,10652,1,0,0:0:0:0:
448,192,10876,1,0,0:0:0:0:
320,192,11100,1,0,0:0:0:0:
192,192,11324,1,0,0:0:0:0:
64,192,11548,1,0,0:0:0:0:
448,192,11548,1,0,0:0:0:0:
192,192,11772,1,0,0:0:0:0:
320,192,11996,1,0,0:0:0:0:
448,192,12220,1,0,0:0:0:0:
320,192,12444,1,0,0:0:0:0:
192,192,12668,1,0,0:0:0:0:
64,192,12892,1,0,0:0:0:0:
192,192,13116,1,0,0:0:0:0:
64,192,13340,1,0,0:0:0:0:
320,192,13340,1,0,0:0:0:0:
192,192,13564,1,0,0:0:0:0:
320,192,13788,1,0,0:0:0:0:
448,192,14012,1,0,0:0:0:0:
448,192,14236,1,0,0:0:0:0:
448,192,14460,1,0,0:0:0:0:
320,192,14684,1,0,0:0:0:0:
192,192,14909,1,0,0:0:0:0:
64,192,15133,1,0,0:0:0:0:
320,192,15133,1,0,0:0:0:0:
192,192,15357,1,0,0:0:0:0:
64,192,15581,1,0,0:0:0:0:
320,192,15581,1,0,0:0:0:0:
192,192,15805,1,0,0:0:0:0:
64,192,16029,1,0,0:0:0:0:
320,192,16029,1,0,0:0:0:0:
192,192,16253,1,0,0:0:0:0:
64,192,16477,1,0,0:0:0:0:
320,192,16477,1,0,0:0:0:0:
192,192,16701,1,0,0:0:0:0:
192,192,16925,1,0,0:0:0:0:
448,192,16925,1,0,0:0:0:0:
320,192,17149,1,0,0:0:0:0:
192,192,17373,1,0,0:0:0:0:
448,192,17373,1,0,0:0:0:0:
320,192,17597,1,0,0:0:0:0:
192,192,17821,1,0,0:0:0:0:
448,192,17821,1,0,0:0:0:0:
320,192,18045,1,0,0:0:0:0:
192,192,18269,1,0,0:0:0:0:
448,192,18269,1,0,0:0:0:0:
320,192,18493,1,0,0:0:0:0:
448,192,18717,1,0,0:0:0:0:
320,192,18941,1,0,0:0:0:0:
448,192,19165,1,0,0:0:0:0:
320,192,19389,1,0,0:0:0:0:
448,192,19614,1,0,0:0:0:0:
320,192,19838,1,0,0:0:0:0:
448,192,20062,1,0,0:0:0:0:
320,192,20286,1,0,0:0:0:0:
192,192,20510,1,0,0:0:0:0:
64,192,20734,1,0,0:0:0:0:
192,192,20958,1,0,0:0:0:0:
64,192,21182,1,0,0:0:0:0:
192,192,21406,1,0,0:0:0:0:
64,192,21630,1,0,0:0:0:0:
192,192,21854,1,0,0:0:0:0:
64,192,22078,1,0,0:0:0:0:
192,192,22302,1,0,0:0:0:0:
320,192,22302,1,0,0:0:0:0:
192,192,22526,1,0,0:0:0:0:
320,192,22526,1,0,0:0:0:0:
192,192,22750,1,0,0:0:0:0:
320,192,22750,1,0,0:0:0:0:
192,192,22974,1,0,0:0:0:0:
320,192,22974,1,0,0:0:0:0:
192,192,23198,1,0,0:0:0:0:
320,192,23198,1,0,0:0:0:0:
192,192,23422,1,0,0:0:0:0:
320,192,23422,1,0,0:0:0:0:
192,192,23646,1,0,0:0:0:0:
320,192,23646,1,0,0:0:0:0:
192,192,23870,1,0,0:0:0:0:
320,192,23870,1,0,0:0:0:0:
64,192,24094,1,0,0:0:0:0:
448,192,24094,1,0,0:0:0:0:
192,192,24319,1,0,0:0:0:0:
320,192,24319,1,0,0:0:0:0:
64,192,24543,1,0,0:0:0:0:
448,192,24543,1,0,0:0:0:0:
192,192,24767,1,0,0:0:0:0:
320,192,24767,1,0,0:0:0:0:
64,192,24991,1,0,0:0:0:0:
448,192,24991,1,0,0:0:0:0:
192,192,25215,1,0,0:0:0:0:
320,192,25215,1,0,0:0:0:0:
64,192,25439,1,0,0:0:0:0:
448,192,25439,1,0,0:0:0:0:
192,192,25663,1,0,0:0:0:0:
320,192,25663,1,0,0:0:0:0:
448,192,25887,1,0,0:0:0:0:
320,192,26111,1,0,0:0:0:0:
192,192,26335,1,0,0:0:0:0:
64,192,26559,1,0,0:0:0:0:
192,192,26783,1,0,0:0:0:0:
320,192,27007,1,0,0:0:0:0:
448,192,27231,1,0,0:0:0:0:
320,192,27455,1,0,0:0:0:0:
192,192,27679,1,0,0:0:0:0:
64,192,27903,1,0,0:0:0:0:
192,192,28127,1,0,0:0:0:0:
320,192,28351,1,0,0:0:0:0:
448,192,28575,1,0,0:0:0:0:
320,192,28799,1,0,0:0:0:0:
192,192,29024,1,0,0:0:0:0:
64,192,29248,1,0,0:0:0:0:
192,192,29472,1,0,0:0:0:0:
448,192,29472,128,0,31040:0:0:0:0:
192,192,29920,1,0,0:0:0:0:
192,192,30368,1,0,0:0:0:0:
64,192,31264,1,0,0:0:0:0:
320,192,31264,128,0,32608:0:0:0:0:
192,192,31488,1,0,0:0:0:0:
64,192,31712,1,0,0:0:0:0:
192,192,31936,1,0,0:0:0:0:
64,192,33056,128,0,33953:0:0:0:0:
320,192,33953,128,0,34849:0:0:0:0:
448,192,34849,128,0,36641:0:0:0:0:
192,192,34849,128,0,36641:0:0:0:0:
64,192,36641,1,0,0:0:0:0:
192,192,36865,1,0,0:0:0:0:
64,192,37089,1,0,0:0:0:0:
192,192,37313,1,0,0:0:0:0:
448,192,38434,1,0,0:0:0:0:
320,192,38658,1,0,0:0:0:0:
192,192,38882,1,0,0:0:0:0:
64,192,39106,1,0,0:0:0:0:
192,192,39330,1,0,0:0:0:0:
448,192,39330,1,0,0:0:0:0:
320,192,39554,1,0,0:0:0:0:
192,192,39778,1,0,0:0:0:0:
448,192,39778,1,0,0:0:0:0:
192,192,40674,1,0,0:0:0:0:
320,192,40898,1,0,0:0:0:0:
448,192,41122,1,0,0:0:0:0:
448,192,41346,1,0,0:0:0:0:
448,192,41570,1,0,0:0:0:0:
320,192,41794,1,0,0:0:0:0:
192,192,42018,1,0,0:0:0:0:
320,192,42242,1,0,0:0:0:0:
448,192,42466,1,0,0:0:0:0:
320,192,42690,1,0,0:0:0:0:
192,192,42914,1,0,0:0:0:0:
64,192,43139,1,0,0:0:0:0:
192,192,43363,1,0,0:0:0:0:
64,192,43811,1,0,0:0:0:0:
320,192,43811,1,0,0:0:0:0:
192,192,44035,1,0,0:0:0:0:
448,192,44035,1,0,0:0:0:0:
320,192,44259,1,0,0:0:0:0:
64,192,44259,1,0,0:0:0:0:
448,192,44483,1,0,0:0:0:0:
192,192,44483,1,0,0:0:0:0:
320,192,44707,1,0,0:0:0:0:
64,192,44707,1,0,0:0:0:0:
448,192,44931,1,0,0:0:0:0:
192,192,44931,1,0,0:0:0:0:
320,192,45155,1,0,0:0:0:0:
64,192,45155,1,0,0:0:0:0:
320,192,45603,1,0,0:0:0:0:
448,192,45603,1,0,0:0:0:0:
64,192,45827,1,0,0:0:0:0:
192,192,45827,1,0,0:0:0:0:
320,192,46051,1,0,0:0:0:0:
448,192,46051,1,0,0:0:0:0:
64,192,46275,1,0,0:0:0:0:
192,192,46275,1,0,0:0:0:0:
320,192,46499,1,0,0:0:0:0:
448,192,46499,1,0,0:0:0:0:
64,192,46723,1,0,0:0:0:0:
192,192,46723,1,0,0:0:0:0:
320,192,46947,1,0,0:0:0:0:
448,192,46947,1,0,0:0:0:0:
64,192,47171,1,0,0:0:0:0:
192,192,47171,1,0,0:0:0:0:
448,192,47395,128,0,48068:0:0:0:0:
192,192,47395,128,0,48068:0:0:0:0:
192,192,48292,128,0,49188:0:0:0:0:
320,192,48292,128,0,49188:0:0:0:0:
64,192,49188,128,0,50532:0:0:0:0:
448,192,49188,128,0,50532:0:0:0:0:
448,192,50980,1,0,0:0:0:0:
320,192,51204,1,0,0:0:0:0:
192,192,51428,1,0,0:0:0:0:
64,192,51652,1,0,0:0:0:0:
192,192,52549,1,0,0:0:0:0:
320,192,52773,1,0,0:0:0:0:
320,192,52997,1,0,0:0:0:0:
192,192,53221,1,0,0:0:0:0:
64,192,53445,1,0,0:0:0:0:
64,192,53669,1,0,0:0:0:0:
448,192,54565,128,0,55461:0:0:0:0:
320,192,54565,128,0,55461:0:0:0:0:
64,192,55461,128,0,56357:0:0:0:0:
320,192,56357,1,0,0:0:0:0:
448,192,56357,1,0,0:0:0:0:
64,192,56581,1,0,0:0:0:0:
192,192,56581,1,0,0:0:0:0:
448,192,56805,1,0,0:0:0:0:
320,192,56805,1,0,0:0:0:0:
64,192,57029,1,0,0:0:0:0:
192,192,57029,1,0,0:0:0:0:
320,192,57254,1,0,0:0:0:0:
448,192,57254,1,0,0:0:0:0:
64,192,57478,1,0,0:0:0:0:
192,192,57478,1,0,0:0:0:0:
448,192,58150,128,0,59942:0:0:0:0:
192,192,58598,1,0,0:0:0:0:
64,192,58598,1,0,0:0:0:0:
192,192,59046,1,0,0:0:0:0:
64,192,59046,1,0,0:0:0:0:
192,192,59494,1,0,0:0:0:0:
64,192,59494,1,0,0:0:0:0:
192,192,59942,1,0,0:0:0:0:
64,192,59942,1,0,0:0:0:0:
192,192,60390,1,0,0:0:0:0:
64,192,60390,1,0,0:0:0:0:
64,192,60838,1,0,0:0:0:0:
192,192,61062,1,0,0:0:0:0:
320,192,61286,1,0,0:0:0:0:
448,192,61510,1,0,0:0:0:0:
64,192,61735,1,0,0:0:0:0:
192,192,61959,1,0,0:0:0:0:
448,192,62183,1,0,0:0:0:0:
320,192,62183,1,0,0:0:0:0:
448,192,62631,1,0,0:0:0:0:
320,192,62631,1,0,0:0:0:0:
448,192,63079,1,0,0:0:0:0:
320,192,63079,1,0,0:0:0:0:
448,192,63527,1,0,0:0:0:0:
320,192,63527,1,0,0:0:0:0:
448,192,63975,1,0,0:0:0:0:
320,192,63975,1,0,0:0:0:0:
448,192,64423,1,0,0:0:0:0:
320,192,64423,1,0,0:0:0:0:
448,192,64871,1,0,0:0:0:0:
320,192,64871,1,0,0:0:0:0:
64,192,65319,1,0,0:0:0:0:
320,192,65319,1,0,0:0:0:0:
192,192,65543,1,0,0:0:0:0:
64,192,65767,1,0,0:0:0:0:
320,192,65767,1,0,0:0:0:0:
192,192,65991,1,0,0:0:0:0:
64,192,66215,1,0,0:0:0:0:
320,192,66215,1,0,0:0:0:0:
192,192,66440,1,0,0:0:0:0:
64,192,66664,1,0,0:0:0:0:
320,192,66664,1,0,0:0:0:0:
192,192,66888,1,0,0:0:0:0:
320,192,67112,1,0,0:0:0:0:
448,192,67336,1,0,0:0:0:0:
192,192,67336,1,0,0:0:0:0:
192,192,67560,1,0,0:0:0:0:
64,192,67784,1,0,0:0:0:0:
192,192,68008,1,0,0:0:0:0:
320,192,68232,1,0,0:0:0:0:
448,192,68456,1,0,0:0:0:0:
320,192,68680,1,0,0:0:0:0:
192,192,68904,1,0,0:0:0:0:
64,192,69128,1,0,0:0:0:0:
192,192,69352,1,0,0:0:0:0:
64,192,69576,1,0,0:0:0:0:
192,192,69800,1,0,0:0:0:0:
64,192,70024,1,0,0:0:0:0:
192,192,70248,1,0,0:0:0:0:
192,192,70696,1,0,0:0:0:0:
64,192,70696,1,0,0:0:0:0:
320,192,71145,1,0,0:0:0:0:
192,192,71145,1,0,0:0:0:0:
448,192,71593,1,0,0:0:0:0:
320,192,71593,1,0,0:0:0:0:
448,192,72041,1,0,0:0:0:0:
320,192,72041,1,0,0:0:0:0:
192,192,72489,1,0,0:0:0:0:
64,192,72713,1,0,0:0:0:0:
192,192,72937,1,0,0:0:0:0:
320,192,73161,1,0,0:0:0:0:
192,192,73385,1,0,0:0:0:0:
320,192,73609,1,0,0:0:0:0:
448,192,73833,1,0,0:0:0:0:
320,192,74057,1,0,0:0:0:0:
448,192,74281,1,0,0:0:0:0:
320,192,74505,1,0,0:0:0:0:
320,192,74729,1,0,0:0:0:0:
192,192,74953,1,0,0:0:0:0:
64,192,75177,1,0,0:0:0:0:
192,192,75401,1,0,0:0:0:0:
64,192,75625,1,0,0:0:0:0:
192,192,75850,1,0,0:0:0:0:
320,192,76074,1,0,0:0:0:0:
64,192,76074,1,0,0:0:0:0:
448,192,76298,1,0,0:0:0:0:
192,192,76522,1,0,0:0:0:0:
448,192,76522,1,0,0:0:0:0:
64,192,76746,1,0,0:0:0:0:
320,192,76746,1,0,0:0:0:0:
448,192,76970,1,0,0:0:0:0:
192,192,77194,1,0,0:0:0:0:
448,192,77194,1,0,0:0:0:0:
64,192,77418,1,0,0:0:0:0:
320,192,77418,1,0,0:0:0:0:
192,192,77642,1,0,0:0:0:0:
448,192,77866,1,0,0:0:0:0:
192,192,77866,1,0,0:0:0:0:
64,192,78314,1,0,0:0:0:0:
320,192,78314,1,0,0:0:0:0:
192,192,78762,1,0,0:0:0:0:
448,192,78762,1,0,0:0:0:0:
64,192,79210,1,0,0:0:0:0:
320,192,79210,1,0,0:0:0:0:
448,192,79658,1,0,0:0:0:0:
448,192,79882,1,0,0:0:0:0:
448,192,80106,1,0,0:0:0:0:
192,192,80330,1,0,0:0:0:0:
192,192,80555,1,0,0:0:0:0:
192,192,80779,1,0,0:0:0:0:
64,192,81003,1,0,0:0:0:0:
64,192,81227,1,0,0:0:0:0:
64,192,81451,1,0,0:0:0:0:
320,192,81675,1,0,0:0:0:0:
320,192,81899,1,0,0:0:0:0:
320,192,82123,1,0,0:0:0:0:
64,192,82347,1,0,0:0:0:0:
320,192,82347,1,0,0:0:0:0:
448,192,82571,1,0,0:0:0:0:
192,192,82571,1,0,0:0:0:0:
320,192,82795,1,0,0:0:0:0:
64,192,82795,1,0,0:0:0:0:
448,192,83243,128,0,83915:0:0:0:0:
192,192,83243,128,0,83915:0:0:0:0:
320,192,83915,128,0,85035:0:0:0:0:
64,192,83915,128,0,85035:0:0:0:0:
192,192,85035,1,0,0:0:0:0:
448,192,85035,1,0,0:0:0:0:
64,192,85260,1,0,0:0:0:0:
320,192,85260,1,0,0:0:0:0:
448,192,85484,1,0,0:0:0:0:
192,192,85484,1,0,0:0:0:0:
320,192,85708,1,0,0:0:0:0:
64,192,85708,1,0,0:0:0:0:
64,192,85932,1,0,0:0:0:0:
320,192,85932,1,0,0:0:0:0:
192,192,86156,1,0,0:0:0:0:
64,192,86380,1,0,0:0:0:0:
320,192,86380,1,0,0:0:0:0:
192,192,86604,1,0,0:0:0:0:
448,192,86828,128,0,88172:0:0:0:0:
192,192,88172,1,0,0:0:0:0:
192,192,88396,1,0,0:0:0:0:
64,192,88620,1,0,0:0:0:0:
192,192,88844,1,0,0:0:0:0:
320,192,89068,1,0,0:0:0:0:
448,192,89292,1,0,0:0:0:0:
448,192,89516,1,0,0:0:0:0:
64,192,89740,1,0,0:0:0:0:
448,192,89740,1,0,0:0:0:0:
192,192,89965,1,0,0:0:0:0:
320,192,89965,1,0,0:0:0:0:
64,192,90189,1,0,0:0:0:0:
448,192,90189,1,0,0:0:0:0:
192,192,90413,1,0,0:0:0:0:
320,192,90413,1,0,0:0:0:0:
448,192,90637,1,0,0:0:0:0:
320,192,90637,1,0,0:0:0:0:
192,192,90861,1,0,0:0:0:0:
64,192,90861,1,0,0:0:0:0:
448,192,91085,1,0,0:0:0:0:
320,192,91085,1,0,0:0:0:0:
64,192,91309,1,0,0:0:0:0:
192,192,91309,1,0,0:0:0:0:
448,192,91533,1,0,0:0:0:0:
320,192,91533,1,0,0:0:0:0:
64,192,91757,1,0,0:0:0:0:
192,192,91757,1,0,0:0:0:0:
448,192,91981,1,0,0:0:0:0:
64,192,91981,1,0,0:0:0:0:
320,192,92205,1,0,0:0:0:0:
192,192,92205,1,0,0:0:0:0:
448,192,92429,1,0,0:0:0:0:
64,192,92429,1,0,0:0:0:0:
320,192,92653,1,0,0:0:0:0:
192,192,92653,1,0,0:0:0:0:
448,192,92877,1,0,0:0:0:0:
64,192,92877,1,0,0:0:0:0:
448,192,93101,1,0,0:0:0:0:
192,192,93101,1,0,0:0:0:0:
320,192,93325,1,0,0:0:0:0:
64,192,93325,1,0,0:0:0:0:
448,192,93549,1,0,0:0:0:0:
192,192,93549,1,0,0:0:0:0:
64,192,93773,1,0,0:0:0:0:
320,192,93773,1,0,0:0:0:0:
320,192,93997,128,0,95342:0:0:0:0:
192,192,93997,128,0,95342:0:0:0:0:
448,192,95342,1,0,0:0:0:0:
64,192,95342,1,0,0:0:0:0:
320,192,95566,1,0,0:0:0:0:
192,192,95566,1,0,0:0:0:0:
448,192,95790,1,0,0:0:0:0:
64,192,95790,1,0,0:0:0:0:
320,192,96014,1,0,0:0:0:0:
192,192,96014,1,0,0:0:0:0:
448,192,96238,1,0,0:0:0:0:
64,192,96238,1,0,0:0:0:0:
448,192,96462,1,0,0:0:0:0:
320,192,96462,1,0,0:0:0:0:
192,192,96686,1,0,0:0:0:0:
64,192,96686,1,0,0:0:0:0:
448,192,96910,1,0,0:0:0:0:
320,192,96910,1,0,0:0:0:0:
192,192,97134,1,0,0:0:0:0:
64,192,97134,1,0,0:0:0:0:
448,192,97358,1,0,0:0:0:0:
320,192,97358,1,0,0:0:0:0:
64,192,97582,1,0,0:0:0:0:
192,192,97806,1,0,0:0:0:0:
320,192,98030,1,0,0:0:0:0:
448,192,98254,1,0,0:0:0:0:
448,192,98478,1,0,0:0:0:0:
320,192,98702,1,0,0:0:0:0:
192,192,98926,1,0,0:0:0:0:
64,192,99150,1,0,0:0:0:0:
448,192,99375,128,0,100943:0:0:0:0:
64,192,99375,128,0,100943:0:0:0:0:
448,192,101167,1,0,0:0:0:0:
320,192,101167,1,0,0:0:0:0:
320,192,101391,1,0,0:0:0:0:
192,192,101391,1,0,0:0:0:0:
192,192,101615,1,0,0:0:0:0:
64,192,101615,1,0,0:0:0:0:
64,192,102063,1,0,0:0:0:0:
192,192,102063,1,0,0:0:0:0:
320,192,102511,1,0,0:0:0:0:
448,192,102511,1,0,0:0:0:0:
320,192,102959,1,0,0:0:0:0:
448,192,102959,1,0,0:0:0:0:
64,192,103183,1,0,0:0:0:0:
192,192,103407,1,0,0:0:0:0:
320,192,103631,1,0,0:0:0:0:
448,192,103855,1,0,0:0:0:0:
320,192,104080,1,0,0:0:0:0:
192,192,104304,1,0,0:0:0:0:
64,192,104528,1,0,0:0:0:0:
448,192,104752,1,0,0:0:0:0:
448,192,104976,1,0,0:0:0:0:
320,192,105200,1,0,0:0:0:0:
320,192,105424,1,0,0:0:0:0:
192,192,105648,1,0,0:0:0:0:
192,192,105872,1,0,0:0:0:0:
64,192,106096,1,0,0:0:0:0:
64,192,106320,1,0,0:0:0:0:
448,192,106544,1,0,0:0:0:0:
192,192,106544,1,0,0:0:0:0:
320,192,106768,1,0,0:0:0:0:
64,192,106768,1,0,0:0:0:0:
448,192,106992,1,0,0:0:0:0:
192,192,106992,1,0,0:0:0:0:
448,192,107216,1,0,0:0:0:0:
192,192,107216,1,0,0:0:0:0:
320,192,107440,1,0,0:0:0:0:
64,192,107440,1,0,0:0:0:0:
320,192,107664,1,0,0:0:0:0:
64,192,107664,1,0,0:0:0:0:
192,192,107888,1,0,0:0:0:0:
448,192,107888,1,0,0:0:0:0:
64,192,108112,1,0,0:0:0:0:
320,192,108112,1,0,0:0:0:0:
448,192,108336,1,0,0:0:0:0:
192,192,108785,1,0,0:0:0:0:
448,192,109233,1,0,0:0:0:0:
64,192,109681,1,0,0:0:0:0:
448,192,110129,128,0,110801:0:0:0:0:
320,192,110129,128,0,110801:0:0:0:0:
320,192,111025,128,0,111473:0:0:0:0:
192,192,111025,128,0,111473:0:0:0:0:
192,192,111921,128,0,114162:0:0:0:0:
64,192,111921,128,0,114162:0:0:0:0:
320,192,115506,1,0,0:0:0:0:
448,192,115506,1,0,0:0:0:0:
448,192,115954,1,0,0:0:0:0:
320,192,115954,1,0,0:0:0:0:
192,192,116402,1,0,0:0:0:0:
64,192,116402,1,0,0:0:0:0:
192,192,116850,1,0,0:0:0:0:
64,192,116850,1,0,0:0:0:0:
448,192,117298,1,0,0:0:0:0:
320,192,117298,1,0,0:0:0:0:
320,192,117522,1,0,0:0:0:0:
192,192,117522,1,0,0:0:0:0:
192,192,117746,1,0,0:0:0:0:
64,192,117746,1,0,0:0:0:0:
320,192,117970,1,0,0:0:0:0:
192,192,117970,1,0,0:0:0:0:
448,192,118195,1,0,0:0:0:0:
320,192,118195,1,0,0:0:0:0:
320,192,118419,1,0,0:0:0:0:
192,192,118419,1,0,0:0:0:0:
192,192,118643,1,0,0:0:0:0:
64,192,118643,1,0,0:0:0:0:
64,192,119091,1,0,0:0:0:0:
320,192,119539,1,0,0:0:0:0:
448,192,119987,1,0,0:0:0:0:
64,192,120435,1,0,0:0:0:0:
192,192,120435,1,0,0:0:0:0:
448,192,120883,1,0,0:0:0:0:
320,192,120883,1,0,0:0:0:0:
64,192,121331,1,0,0:0:0:0:
448,192,121331,1,0,0:0:0:0:
192,192,121779,1,0,0:0:0:0:
448,192,122227,1,0,0:0:0:0:
192,192,122227,1,0,0:0:0:0:
64,192,122676,1,0,0:0:0:0:
320,192,122676,1,0,0:0:0:0:
192,192,123124,1,0,0:0:0:0:
448,192,123124,1,0,0:0:0:0:
320,192,123572,1,0,0:0:0:0:
192,192,124020,1,0,0:0:0:0:
448,192,124020,1,0,0:0:0:0:
64,192,124468,1,0,0:0:0:0:
192,192,124916,1,0,0:0:0:0:
192,192,125140,1,0,0:0:0:0:
192,192,125364,1,0,0:0:0:0:
192,192,125588,1,0,0:0:0:0:
192,192,125812,1,0,0:0:0:0:
320,192,126260,1,0,0:0:0:0:
448,192,126708,1,0,0:0:0:0:
64,192,127156,1,0,0:0:0:0:
320,192,127605,1,0,0:0:0:0:
448,192,128053,1,0,0:0:0:0:
448,192,128277,1,0,0:0:0:0:
448,192,128501,1,0,0:0:0:0:
448,192,128725,1,0,0:0:0:0:
192,192,129397,1,0,0:0:0:0:
448,192,129845,1,0,0:0:0:0:
64,192,129845,1,0,0:0:0:0:
192,192,130293,1,0,0:0:0:0:
320,192,130517,1,0,0:0:0:0:
320,192,130741,1,0,0:0:0:0:
448,192,131189,1,0,0:0:0:0:
64,192,131637,1,0,0:0:0:0:
320,192,132086,1,0,0:0:0:0:
192,192,132534,1,0,0:0:0:0:
448,192,132982,1,0,0:0:0:0:
64,192,133430,1,0,0:0:0:0:
192,192,133654,1,0,0:0:0:0:
320,192,133878,1,0,0:0:0:0:
448,192,134102,1,0,0:0:0:0:
448,192,134326,1,0,0:0:0:0:
448,192,134550,1,0,0:0:0:0:
448,192,134774,1,0,0:0:0:0:
320,192,134998,1,0,0:0:0:0:
192,192,135222,1,0,0:0:0:0:
64,192,135446,1,0,0:0:0:0:
64,192,135670,1,0,0:0:0:0:
64,192,135894,1,0,0:0:0:0:
64,192,136118,1,0,0:0:0:0:
64,192,136342,1,0,0:0:0:0:
320,192,136566,1,0,0:0:0:0:
192,192,136566,1,0,0:0:0:0:
448,192,136791,1,0,0:0:0:0:
320,192,136791,1,0,0:0:0:0:
64,192,137015,1,0,0:0:0:0:
192,192,137015,1,0,0:0:0:0:
448,192,137239,1,0,0:0:0:0:
320,192,137239,1,0,0:0:0:0:
192,192,137463,1,0,0:0:0:0:
320,192,137463,1,0,0:0:0:0:
320,192,137687,1,0,0:0:0:0:
192,192,137687,1,0,0:0:0:0:
64,192,137911,1,0,0:0:0:0:
192,192,137911,1,0,0:0:0:0:
448,192,138135,1,0,0:0:0:0:
320,192,138135,1,0,0:0:0:0:
64,192,138359,1,0,0:0:0:0:
320,192,138359,1,0,0:0:0:0:
192,192,138583,1,0,0:0:0:0:
448,192,138583,1,0,0:0:0:0:
64,192,138807,1,0,0:0:0:0:
448,192,138807,1,0,0:0:0:0:
320,192,139031,1,0,0:0:0:0:
192,192,139031,1,0,0:0:0:0:
320,192,139255,1,0,0:0:0:0:
192,192,139255,1,0,0:0:0:0:
448,192,139479,1,0,0:0:0:0:
320,192,139479,1,0,0:0:0:0:
448,192,139703,1,0,0:0:0:0:
320,192,139703,1,0,0:0:0:0:
448,192,139927,1,0,0:0:0:0:
320,192,139927,1,0,0:0:0:0:
64,192,140151,1,0,0:0:0:0:
192,192,140151,1,0,0:0:0:0:
64,192,140375,1,0,0:0:0:0:
192,192,140375,1,0,0:0:0:0:
192,192,140599,128,0,141944:0:0:0:0:
320,192,142168,1,0,0:0:0:0:
320,192,142392,128,0,143960:0:0:0:0:
448,192,144184,128,0,144856:0:0:0:0:
192,192,144184,128,0,144856:0:0:0:0:
320,192,145080,128,0,145752:0:0:0:0:
64,192,145080,128,0,145752:0:0:0:0:
448,192,145976,1,0,0:0:0:0:
320,192,145976,1,0,0:0:0:0:
448,192,146201,1,0,0:0:0:0:
320,192,146201,1,0,0:0:0:0:
448,192,146425,1,0,0:0:0:0:
320,192,146425,1,0,0:0:0:0:
448,192,146649,1,0,0:0:0:0:
320,192,146649,1,0,0:0:0:0:
448,192,146873,1,0,0:0:0:0:
320,192,146873,1,0,0:0:0:0:
448,192,147769,128,0,149561:0:0:0:0:
64,192,147769,128,0,149561:0:0:0:0:
192,192,150457,1,0,0:0:0:0:
320,192,150681,1,0,0:0:0:0:
448,192,150906,1,0,0:0:0:0:
448,192,151130,1,0,0:0:0:0:
320,192,151354,128,0,152250:0:0:0:0:
192,192,152698,1,0,0:0:0:0:
192,192,153146,1,0,0:0:0:0:
192,192,153594,1,0,0:0:0:0:
64,192,154042,1,0,0:0:0:0:
192,192,154490,1,0,0:0:0:0:
320,192,154938,1,0,0:0:0:0:
448,192,155386,1,0,0:0:0:0:
192,192,156059,1,0,0:0:0:0:
320,192,156283,1,0,0:0:0:0:
448,192,156507,1,0,0:0:0:0:
448,192,156731,1,0,0:0:0:0:
448,192,156955,1,0,0:0:0:0:
192,192,157179,1,0,0:0:0:0:
320,192,157179,1,0,0:0:0:0:
64,192,157403,1,0,0:0:0:0:
320,192,157627,1,0,0:0:0:0:
192,192,157851,1,0,0:0:0:0:
448,192,158075,1,0,0:0:0:0:
64,192,158075,1,0,0:0:0:0:
448,192,158299,1,0,0:0:0:0:
192,192,158299,1,0,0:0:0:0:
320,192,158523,1,0,0:0:0:0:
64,192,158747,1,0,0:0:0:0:
448,192,158747,1,0,0:0:0:0:
192,192,158971,1,0,0:0:0:0:
320,192,159195,1,0,0:0:0:0:
64,192,159419,1,0,0:0:0:0:
448,192,159643,1,0,0:0:0:0:
192,192,159867,1,0,0:0:0:0:
320,192,160091,1,0,0:0:0:0:
448,192,160316,128,0,160764:0:0:0:0:
192,192,160764,128,0,161212:0:0:0:0:
448,192,161212,128,0,161660:0:0:0:0:
64,192,161660,128,0,162108:0:0:0:0:
320,192,162108,128,0,163900:0:0:0:0:
192,192,162108,128,0,163900:0:0:0:0:
448,192,162556,1,0,0:0:0:0:
64,192,162556,1,0,0:0:0:0:
448,192,163004,1,0,0:0:0:0:
64,192,163004,1,0,0:0:0:0:
448,192,163452,1,0,0:0:0:0:
64,192,163452,1,0,0:0:0:0:
64,192,164796,1,0,0:0:0:0:
192,192,165021,1,0,0:0:0:0:
320,192,165245,1,0,0:0:0:0:
448,192,165469,1,0,0:0:0:0:
320,192,165693,1,0,0:0:0:0:
64,192,165693,1,0,0:0:0:0:
192,192,165917,1,0,0:0:0:0:
320,192,166141,1,0,0:0:0:0:
64,192,166141,1,0,0:0:0:0:
448,192,166365,1,0,0:0:0:0:
192,192,166365,1,0,0:0:0:0:
320,192,166589,1,0,0:0:0:0:
448,192,166813,1,0,0:0:0:0:
192,192,166813,1,0,0:0:0:0:
320,192,167037,1,0,0:0:0:0:
64,192,167037,1,0,0:0:0:0:
192,192,167261,1,0,0:0:0:0:
320,192,167485,1,0,0:0:0:0:
64,192,167485,1,0,0:0:0:0:
448,192,167709,1,0,0:0:0:0:
192,192,167709,1,0,0:0:0:0:
320,192,167933,1,0,0:0:0:0:
448,192,168157,1,0,0:0:0:0:
192,192,168157,1,0,0:0:0:0:
320,192,168381,1,0,0:0:0:0:
64,192,168381,1,0,0:0:0:0:
192,192,168605,1,0,0:0:0:0:
320,192,168829,1,0,0:0:0:0:
64,192,168829,1,0,0:0:0:0:
320,192,169277,1,0,0:0:0:0:
448,192,169277,1,0,0:0:0:0:
192,192,169501,1,0,0:0:0:0:
64,192,169726,1,0,0:0:0:0:
320,192,169950,1,0,0:0:0:0:
448,192,170174,1,0,0:0:0:0:
192,192,170174,1,0,0:0:0:0:
64,192,170622,1,0,0:0:0:0:
320,192,170622,1,0,0:0:0:0:
192,192,170846,1,0,0:0:0:0:
320,192,171070,1,0,0:0:0:0:
448,192,171294,1,0,0:0:0:0:
448,192,171518,1,0,0:0:0:0:
192,192,171742,1,0,0:0:0:0:
64,192,171742,1,0,0:0:0:0:
64,192,171966,1,0,0:0:0:0:
192,192,172190,1,0,0:0:0:0:
320,192,172414,1,0,0:0:0:0:
64,192,172638,1,0,0:0:0:0:
320,192,172638,1,0,0:0:0:0:
448,192,172862,128,0,173534:0:0:0:0:
64,192,173534,128,0,174655:0:0:0:0:
448,192,174655,1,0,0:0:0:0:
320,192,174879,1,0,0:0:0:0:
448,192,175103,1,0,0:0:0:0:
320,192,175327,1,0,0:0:0:0:
448,192,175551,1,0,0:0:0:0:
64,192,175551,1,0,0:0:0:0:
192,192,175775,1,0,0:0:0:0:
64,192,175999,1,0,0:0:0:0:
192,192,176223,1,0,0:0:0:0:
320,192,176447,128,0,177791:0:0:0:0:
192,192,178015,1,0,0:0:0:0:
64,192,178239,1,0,0:0:0:0:
192,192,178463,1,0,0:0:0:0:
448,192,178687,1,0,0:0:0:0:
320,192,178911,1,0,0:0:0:0:
192,192,179136,1,0,0:0:0:0:
320,192,179360,1,0,0:0:0:0:
192,192,179360,1,0,0:0:0:0:
448,192,179584,1,0,0:0:0:0:
192,192,179584,1,0,0:0:0:0:
320,192,179808,1,0,0:0:0:0:
64,192,179808,1,0,0:0:0:0:
448,192,180032,1,0,0:0:0:0:
192,192,180032,1,0,0:0:0:0:
320,192,180256,1,0,0:0:0:0:
64,192,180256,1,0,0:0:0:0:
448,192,180480,1,0,0:0:0:0:
192,192,180480,1,0,0:0:0:0:
320,192,180704,1,0,0:0:0:0:
64,192,180704,1,0,0:0:0:0:
192,192,180928,1,0,0:0:0:0:
320,192,181152,1,0,0:0:0:0:
448,192,181376,1,0,0:0:0:0:
448,192,181600,1,0,0:0:0:0:
448,192,181824,1,0,0:0:0:0:
448,192,182048,1,0,0:0:0:0:
64,192,182048,1,0,0:0:0:0:
64,192,182272,1,0,0:0:0:0:
64,192,182496,1,0,0:0:0:0:
64,192,182720,1,0,0:0:0:0:
64,192,182944,1,0,0:0:0:0:
192,192,183168,1,0,0:0:0:0:
320,192,183168,1,0,0:0:0:0:
192,192,183392,1,0,0:0:0:0:
320,192,183392,1,0,0:0:0:0:
192,192,183617,128,0,184513:0:0:0:0:
320,192,184065,1,0,0:0:0:0:
448,192,184513,1,0,0:0:0:0:
64,192,184737,1,0,0:0:0:0:
192,192,184961,1,0,0:0:0:0:
320,192,185185,1,0,0:0:0:0:
448,192,185409,1,0,0:0:0:0:
64,192,185409,1,0,0:0:0:0:
192,192,185633,1,0,0:0:0:0:
320,192,185857,1,0,0:0:0:0:
448,192,186081,1,0,0:0:0:0:
448,192,186305,1,0,0:0:0:0:
320,192,186529,1,0,0:0:0:0:
192,192,186753,1,0,0:0:0:0:
64,192,186977,1,0,0:0:0:0:
448,192,186977,1,0,0:0:0:0:
320,192,187201,1,0,0:0:0:0:
192,192,187425,1,0,0:0:0:0:
64,192,187649,1,0,0:0:0:0:
192,192,187873,1,0,0:0:0:0:
320,192,187873,1,0,0:0:0:0:
64,192,188097,1,0,0:0:0:0:
448,192,188097,1,0,0:0:0:0:
192,192,188322,1,0,0:0:0:0:
320,192,188322,1,0,0:0:0:0:
448,192,188546,1,0,0:0:0:0:
64,192,188546,1,0,0:0:0:0:
320,192,188770,1,0,0:0:0:0:
192,192,188770,1,0,0:0:0:0:
448,192,188994,1,0,0:0:0:0:
64,192,188994,1,0,0:0:0:0:
192,192,189442,1,0,0:0:0:0:
448,192,189442,1,0,0:0:0:0:
64,192,189890,1,0,0:0:0:0:
320,192,189890,1,0,0:0:0:0:
448,192,190338,1,0,0:0:0:0:
192,192,190338,1,0,0:0:0:0:
64,192,190786,1,0,0:0:0:0:
192,192,190786,1,0,0:0:0:0:
192,192,191234,1,0,0:0:0:0:
320,192,191234,1,0,0:0:0:0:
448,192,191682,1,0,0:0:0:0:
320,192,191682,1,0,0:0:0:0:
448,192,192130,128,0,193027:0:0:0:0:
192,192,192578,1,0,0:0:0:0:
192,192,193027,1,0,0:0:0:0:
64,192,193475,1,0,0:0:0:0:
320,192,193475,1,0,0:0:0:0:
192,192,193923,1,0,0:0:0:0:
320,192,194147,1,0,0:0:0:0:
448,192,194371,1,0,0:0:0:0:
64,192,194371,1,0,0:0:0:0:
192,192,194595,1,0,0:0:0:0:
320,192,194819,1,0,0:0:0:0:
448,192,195043,1,0,0:0:0:0:
320,192,195267,1,0,0:0:0:0:
192,192,195491,1,0,0:0:0:0:
64,192,195715,1,0,0:0:0:0:
192,192,195939,1,0,0:0:0:0:
448,192,196163,1,0,0:0:0:0:
64,192,196611,1,0,0:0:0:0:
192,192,196611,1,0,0:0:0:0:
64,192,197059,1,0,0:0:0:0:
192,192,197059,1,0,0:0:0:0:
64,192,197507,1,0,0:0:0:0:
192,192,197507,1,0,0:0:0:0:
64,192,197956,1,0,0:0:0:0:
192,192,197956,1,0,0:0:0:0:
320,192,198404,1,0,0:0:0:0:
448,192,198404,1,0,0:0:0:0:
64,192,198852,1,0,0:0:0:0:
192,192,198852,1,0,0:0:0:0:
320,192,199300,1,0,0:0:0:0:
448,192,199300,1,0,0:0:0:0:
448,192,199748,128,0,200644:0:0:0:0:
192,192,200644,128,0,201316:0:0:0:0:
64,192,201540,128,0,202661:0:0:0:0:
320,192,201540,128,0,202661:0:0:0:0:
192,192,202661,1,0,0:0:0:0:
320,192,202885,1,0,0:0:0:0:
448,192,203109,1,0,0:0:0:0:
64,192,203109,1,0,0:0:0:0:
192,192,203333,1,0,0:0:0:0:
320,192,203557,1,0,0:0:0:0:
448,192,203781,1,0,0:0:0:0:
192,192,203781,1,0,0:0:0:0:
320,192,204005,1,0,0:0:0:0:
448,192,204229,1,0,0:0:0:0:
192,192,204229,1,0,0:0:0:0:
64,192,204453,1,0,0:0:0:0:
320,192,204453,1,0,0:0:0:0:
192,192,204677,1,0,0:0:0:0:
448,192,204677,1,0,0:0:0:0:
64,192,204901,1,0,0:0:0:0:
320,192,205125,1,0,0:0:0:0:
192,192,205125,1,0,0:0:0:0:
64,192,205349,1,0,0:0:0:0:
320,192,205573,1,0,0:0:0:0:
448,192,205797,1,0,0:0:0:0:
64,192,206021,1,0,0:0:0:0:
448,192,206245,1,0,0:0:0:0:
192,192,206245,1,0,0:0:0:0:
448,192,206469,1,0,0:0:0:0:
64,192,206693,1,0,0:0:0:0:
320,192,206693,1,0,0:0:0:0:
448,192,206917,1,0,0:0:0:0:
192,192,206917,1,0,0:0:0:0:
64,192,207142,1,0,0:0:0:0:
448,192,207142,1,0,0:0:0:0:
192,192,207366,1,0,0:0:0:0:
320,192,207590,1,0,0:0:0:0:
64,192,207590,1,0,0:0:0:0:
448,192,207814,1,0,0:0:0:0:
192,192,208038,1,0,0:0:0:0:
64,192,208262,1,0,0:0:0:0:
448,192,208262,1,0,0:0:0:0:
192,192,208486,1,0,0:0:0:0:
320,192,208710,128,0,209606:0:0:0:0:
192,192,209158,1,0,0:0:0:0:
192,192,210054,1,0,0:0:0:0:
64,192,210278,1,0,0:0:0:0:
192,192,210502,1,0,0:0:0:0:
320,192,210726,1,0,0:0:0:0:
448,192,210950,1,0,0:0:0:0:
320,192,211174,1,0,0:0:0:0:
192,192,211398,1,0,0:0:0:0:
64,192,211847,1,0,0:0:0:0:
448,192,211847,1,0,0:0:0:0:
192,192,212071,1,0,0:0:0:0:
320,192,212071,1,0,0:0:0:0:
64,192,212295,1,0,0:0:0:0:
448,192,212295,1,0,0:0:0:0:
192,192,212519,1,0,0:0:0:0:
320,192,212519,1,0,0:0:0:0:
64,192,212743,1,0,0:0:0:0:
448,192,212743,1,0,0:0:0:0:
192,192,212967,1,0,0:0:0:0:
320,192,212967,1,0,0:0:0:0:
64,192,213191,1,0,0:0:0:0:
448,192,213191,1,0,0:0:0:0:
192,192,213415,1,0,0:0:0:0:
320,192,213415,1,0,0:0:0:0:
64,192,213639,1,0,0:0:0:0:
448,192,213639,1,0,0:0:0:0:
192,192,213863,128,0,215431:0:0:0:0:
320,192,213863,128,0,215431:0:0:0:0:
448,192,215879,1,0,0:0:0:0:
448,192,216103,1,0,0:0:0:0:
448,192,216327,1,0,0:0:0:0:
448,192,216552,1,0,0:0:0:0:
448,192,216776,1,0,0:0:0:0:
320,192,216776,1,0,0:0:0:0:
320,192,217000,1,0,0:0:0:0:
320,192,217224,1,0,0:0:0:0:
320,192,217448,1,0,0:0:0:0:
320,192,217672,1,0,0:0:0:0:
192,192,217672,1,0,0:0:0:0:
192,192,217896,1,0,0:0:0:0:
192,192,218120,1,0,0:0:0:0:
192,192,218344,1,0,0:0:0:0:
192,192,218568,1,0,0:0:0:0:
192,192,218792,1,0,0:0:0:0:
64,192,218792,1,0,0:0:0:0:
64,192,219016,1,0,0:0:0:0:
64,192,219240,1,0,0:0:0:0:
64,192,219464,1,0,0:0:0:0:
320,192,219464,1,0,0:0:0:0:
192,192,219688,1,0,0:0:0:0:
448,192,219688,1,0,0:0:0:0:
64,192,219912,1,0,0:0:0:0:
320,192,219912,1,0,0:0:0:0:
192,192,220136,1,0,0:0:0:0:
448,192,220136,1,0,0:0:0:0:
320,192,220360,1,0,0:0:0:0:
192,192,220584,1,0,0:0:0:0:
448,192,220584,1,0,0:0:0:0:
320,192,220808,1,0,0:0:0:0:
192,192,221032,1,0,0:0:0:0:
64,192,221257,1,0,0:0:0:0:
320,192,221257,1,0,0:0:0:0:
192,192,221481,1,0,0:0:0:0:
64,192,221705,1,0,0:0:0:0:
320,192,221705,1,0,0:0:0:0:
192,192,221929,1,0,0:0:0:0:
64,192,222153,1,0,0:0:0:0:
320,192,222153,1,0,0:0:0:0:
192,192,222377,1,0,0:0:0:0:
320,192,222601,1,0,0:0:0:0:
448,192,222601,1,0,0:0:0:0:
64,192,222825,1,0,0:0:0:0:
192,192,222825,1,0,0:0:0:0:
320,192,223049,1,0,0:0:0:0:
448,192,223049,1,0,0:0:0:0:
64,192,223273,1,0,0:0:0:0:
192,192,223273,1,0,0:0:0:0:
320,192,223497,1,0,0:0:0:0:
448,192,223497,1,0,0:0:0:0:
64,192,223721,1,0,0:0:0:0:
192,192,223721,1,0,0:0:0:0:
320,192,223945,1,0,0:0:0:0:
448,192,223945,1,0,0:0:0:0:
64,192,224169,1,0,0:0:0:0:
192,192,224169,1,0,0:0:0:0:
320,192,224393,1,0,0:0:0:0:
448,192,224393,1,0,0:0:0:0:
64,192,224617,1,0,0:0:0:0:
192,192,224617,1,0,0:0:0:0:
192,192,224841,1,0,0:0:0:0:
320,192,225065,1,0,0:0:0:0:
448,192,225289,1,0,0:0:0:0:
192,192,225289,1,0,0:0:0:0:
64,192,225513,1,0,0:0:0:0:
192,192,225737,1,0,0:0:0:0:
64,192,225962,1,0,0:0:0:0:
192,192,226186,1,0,0:0:0:0:
320,192,226410,1,0,0:0:0:0:
448,192,226634,128,0,228426:0:0:0:0:
192,192,226634,128,0,228426:0:0:0:0:
