osu file format v14

[General]
AudioFilename: audio.mp3
AudioLeadIn: 0
PreviewTime: 100876
Countdown: 0
SampleSet: Soft
StackLeniency: 0.2
Mode: 0
LetterboxInBreaks: 0
WidescreenStoryboard: 0

[Editor]
DistanceSpacing: 0.8
BeatDivisor: 4
GridSize: 4
TimelineZoom: 2.4

[Metadata]
Title:Ukiyo-e Yokochou
TitleUnicode:浮世絵横丁
Artist:Makai Toshi Niigata
ArtistUnicode:魔界都市ニイガタ
Creator:DeviousPanda
Version:Extravaganza
Source:BMS
Tags:
BeatmapID:1924977
BeatmapSetID:921808

[Difficulty]
HPDrainRate:5
CircleSize:4.6
OverallDifficulty:8.6
ApproachRate:9.5
SliderMultiplier:1.8
SliderTickRate:1

[Events]
//Background and Video events
0,0,"bg.jpg",0,0
//Break Periods
2,89241,91016
2,91741,92578
//Storyboard Layer 0 (Background)
//Storyboard Layer 1 (Fail)
//Storyboard Layer 2 (Pass)
//Storyboard Layer 3 (Foreground)
//Storyboard Layer 4 (Overlay)
//Storyboard Sound Samples

[TimingPoints]
291,312.5,4,2,1,30,1,0
291,-166.666666666667,4,2,1,30,0,0
6541,-100,4,2,1,30,0,0
9509,-151.515151515152,4,2,1,30,0,0
10134,-400,4,2,1,30,0,0
11541,-100,4,2,1,30,0,0
13572,-200,4,2,1,30,0,0
14041,-83.3333333333333,4,2,1,30,0,0
15173,-83.3333333333333,4,2,1,5,0,0
15212,-83.3333333333333,4,2,1,30,0,0
24041,-66.6666666666667,4,2,1,30,0,0
24353,-76.9230769230769,4,2,1,30,0,0
25837,-66.6666666666667,4,2,1,30,0,0
25994,-76.9230769230769,4,2,1,30,0,0
32791,-133.333333333333,4,2,1,30,0,0
33103,-117.647058823529,4,2,1,30,0,0
33416,-100,4,2,1,30,0,0
33728,-100,4,2,1,40,0,0
34041,-83.3333333333333,4,2,1,40,0,0
34353,-125,4,2,1,40,0,0
34666,-66.6666666666667,4,2,1,40,0,0
34978,-83.3333333333333,4,2,1,40,0,0
36853,-66.6666666666667,4,2,1,40,0,0
37166,-83.3333333333333,4,2,1,40,0,0
39041,-66.6666666666667,4,2,1,40,0,0
39354,-83.3333333333333,4,2,1,40,0,0
39666,-100,4,2,1,40,0,0
39822,-83.3333333333333,4,2,1,40,0,0
43923,-83.3333333333333,4,2,1,5,0,0
44041,-83.3333333333333,4,2,1,40,0,0
50759,-200,4,2,1,40,0,0
50994,-83.3333333333333,4,2,1,40,0,0
51853,-200,4,2,1,40,0,0
52322,-133.333333333333,4,2,1,40,0,0
52791,-100,4,2,1,40,0,0
53259,-79.9999999999999,4,2,1,40,0,0
56541,-83.3333333333333,4,2,1,70,0,1
64861,-83.3333333333333,4,2,1,5,0,1
64900,-83.3333333333333,4,2,1,70,0,1
65017,-83.3333333333333,4,2,1,5,0,1
65056,-83.3333333333333,4,2,1,70,0,1
66228,-500,4,2,1,70,0,0
66462,-100,4,2,1,70,0,0
66541,-66.6666666666667,4,2,1,70,0,1
67009,-100,4,2,1,70,0,1
67087,-66.6666666666667,4,2,1,70,0,1
67322,-100,4,2,1,70,0,1
67478,-66.6666666666667,4,2,1,70,0,1
69666,-100,4,2,1,70,0,1
69744,-66.6666666666667,4,2,1,70,0,1
69978,-100,4,2,1,70,0,1
70056,-66.6666666666667,4,2,1,70,0,1
72009,-100,4,2,1,70,0,1
72087,-66.6666666666667,4,2,1,70,0,1
72322,-100,4,2,1,70,0,1
72478,-66.6666666666667,4,2,1,70,0,1
74822,-100,4,2,1,70,0,1
74978,-66.6666666666667,4,2,1,70,0,1
76228,-500,4,2,1,70,0,1
76541,-90.9090909090909,4,2,1,70,0,0
76697,-90.9090909090909,4,2,1,20,0,0
77166,-83.3333333333333,4,2,1,30,0,0
77478,-76.9230769230769,4,2,1,40,0,0
77791,-76.9230769230769,4,2,1,50,0,0
78103,-76.9230769230769,4,2,1,60,0,0
78572,-250,4,2,1,70,0,0
79041,-83.3333333333333,4,2,1,70,0,0
82791,-83.3333333333333,4,2,1,55,0,0
83103,-83.3333333333333,4,2,1,40,0,0
83337,-133.333333333333,4,2,1,50,0,0
83728,-133.333333333333,4,2,1,60,0,0
84041,-83.3333333333333,4,2,1,70,0,0
87791,-83.3333333333333,4,2,1,80,0,0
87895,-83.3333333333333,4,2,1,75,0,0
87999,-83.3333333333333,4,2,1,70,0,0
88103,-83.3333333333333,4,2,1,65,0,0
88207,-83.3333333333333,4,2,1,60,0,0
88311,-83.3333333333333,4,2,1,55,0,0
88416,-83.3333333333333,4,2,1,50,0,0
88520,-83.3333333333333,4,2,1,45,0,0
88624,-83.3333333333333,4,2,1,40,0,0
88728,-83.3333333333333,4,2,1,35,0,0
88832,-83.3333333333333,4,2,1,30,0,0
88936,-83.3333333333333,4,2,1,25,0,0
89041,-250,4,2,1,20,0,0
93416,-125,4,2,1,20,0,0
93728,-83.3333333333333,4,2,1,70,0,0
96697,-83.3333333333333,4,2,1,40,0,0
97166,-83.3333333333333,4,2,1,45,0,0
97791,-83.3333333333333,4,2,1,30,0,0
97869,-83.3333333333333,4,2,1,35,0,0
97947,-83.3333333333333,4,2,1,40,0,0
98025,-83.3333333333333,4,2,1,45,0,0
98103,-83.3333333333333,4,2,1,50,0,0
98181,-83.3333333333333,4,2,1,55,0,0
98259,-83.3333333333333,4,2,1,60,0,0
98337,-83.3333333333333,4,2,1,65,0,0
98416,-83.3333333333333,4,2,1,70,0,0
98494,-83.3333333333333,4,2,1,75,0,0
98572,-83.3333333333333,4,2,1,80,0,0
98650,-83.3333333333333,4,2,1,85,0,0
98728,-83.3333333333333,4,2,1,90,0,0
98806,-83.3333333333333,4,2,1,95,0,0
98884,-1000,4,2,1,70,0,0
98962,-1000,4,2,1,5,0,0
100916,-285.714285714286,4,2,1,30,0,0
103728,-57.1428571428571,4,2,1,80,0,0
104041,-76.9230769230769,4,2,1,70,0,1
105447,-66.6666666666667,4,2,1,70,0,1
106541,-76.9230769230769,4,2,1,70,0,1
109861,-76.9230769230769,4,2,1,5,0,1
109900,-76.9230769230769,4,2,1,70,0,1
110017,-76.9230769230769,4,2,1,5,0,1
110056,-76.9230769230769,4,2,1,70,0,1
110916,-66.6666666666667,4,2,1,70,0,1
111228,-500,4,2,1,70,0,0
111541,-62.5,4,2,1,70,0,1
112322,-83.3333333333333,4,2,1,70,0,1
112634,-62.5,4,2,1,70,0,1
115837,-62.5,4,2,1,75,0,1
115916,-62.5,4,2,1,80,0,1
115994,-62.5,4,2,1,85,0,1
116072,-62.5,4,2,1,80,0,1
116150,-62.5,4,2,1,70,0,1
116228,-62.5,4,2,1,60,0,1
116306,-62.5,4,2,1,50,0,1
116384,-62.5,4,2,1,40,0,1
116462,-62.5,4,2,1,30,0,1
116541,-62.5,4,2,1,50,0,1
116697,-62.5,4,2,1,70,0,1
117400,-100,4,2,1,70,0,1
117439,-100,4,2,1,5,0,1
117478,-62.5,4,2,1,70,0,1
120447,-83.3333333333333,4,2,1,70,0,1
120759,-62.5,4,2,1,70,0,1
121228,-62.5,4,2,1,40,0,1
121541,-100,4,2,1,80,0,0
121697,-100,4,2,1,60,0,0
122634,-100,4,2,1,70,0,0

[Colours]
Combo1 : 250,196,184
Combo2 : 255,222,155

[HitObjects]
220,42,1541,6,0,P|274:37|332:61,1,107.999996704102,2|0,0:0|0:0,0:0:0:0:
162,79,2009,2,0,P|200:39|267:27,1,107.999996704102,2|0,0:0|0:0,0:0:0:0:
298,164,2478,5,0,0:0:0:0:
250,110,2634,2,0,P|226:164|248:219,1,107.999996704102,2|0,0:0|0:0,0:0:0:0:
164,239,3103,1,0,0:0:0:0:
223,274,3259,2,0,P|233:232|224:204,1,53.9999983520508,2|0,0:0|0:0,0:0:0:0:
105,286,3572,2,0,P|91:250|113:183,1,107.999996704102,2|0,0:0|0:0,0:0:0:0:
175,331,4041,6,0,L|301:310,1,107.999996704102,2|0,0:0|0:0,0:0:0:0:
400,341,4509,2,0,L|274:322,1,107.999996704102,2|0,0:0|0:0,0:0:0:0:
304,335,4978,1,0,0:0:0:0:
354,256,5134,6,0,P|321:221|337:97,1,161.999995056153,2|0,0:0|0:0,0:0:0:0:
316,102,5759,2,0,P|299:135|298:162,1,53.9999983520508,2|0,0:0|0:0,0:0:0:0:
370,253,6072,2,0,P|339:229|320:152,1,107.999996704102,2|0,0:0|0:0,0:0:0:0:
401,96,6541,6,0,L|459:103,1,45,2|0,0:0|0:0,0:0:0:0:
460,95,6697,1,2,0:0:0:0:
337,51,6853,5,6,0:0:0:0:
296,19,6957,1,2,0:0:0:0:
245,20,7061,1,2,0:0:0:0:
204,51,7166,1,6,0:0:0:0:
182,111,7270,1,2,0:0:0:0:
209,172,7374,1,2,0:0:0:0:
226,239,7478,1,6,0:0:0:0:
195,301,7582,1,2,0:0:0:0:
127,319,7686,1,2,0:0:0:0:
71,274,7791,5,6,0:0:0:0:
59,240,7895,1,2,0:0:0:0:
69,203,7999,1,2,0:0:0:0:
95,178,8103,2,0,P|119:165|156:169,1,45,2|0,0:0|0:0,0:0:0:0:
140,238,8259,1,6,0:0:0:0:
232,86,8520,5,2,0:0:0:0:
211,111,8624,1,2,0:0:0:0:
208,143,8728,2,0,P|211:166|236:196,1,45,2|0,0:0|0:0,0:0:0:0:
282,263,8962,5,2,0:0:0:0:
295,252,9041,2,0,P|345:257|398:367,1,180,6|0,0:0|0:0,0:0:0:0:
399,362,9509,6,0,P|378:316|447:215,1,178.199999456177,6|0,0:0|0:0,0:0:0:0:
440,217,10134,6,0,P|410:257|288:248,1,180,6|0,0:0|0:0,0:0:0:0:
355,187,11541,5,6,0:0:0:0:
355,187,11853,5,6,0:0:0:0:
340,140,11957,1,2,0:0:0:0:
352,93,12061,1,2,0:0:0:0:
387,68,12166,5,6,0:0:0:0:
366,129,12270,1,2,0:0:0:0:
299,141,12374,1,2,0:0:0:0:
233,121,12478,1,6,0:0:0:0:
168,95,12582,1,2,0:0:0:0:
98,108,12686,1,2,0:0:0:0:
51,168,12791,6,0,L|67:260,1,60,4|0,0:0|0:0,0:0:0:0:
1,114,12999,1,2,0:0:0:0:
1,114,13103,1,6,0:0:0:0:
160,378,13259,5,2,0:0:0:0:
162,364,13337,1,2,0:0:0:0:
163,351,13416,1,6,0:0:0:0:
165,338,13494,1,2,0:0:0:0:
167,326,13572,2,0,L|179:231,1,90,2|2,0:0|0:0,0:0:0:0:
128,162,14041,6,0,P|166:167|193:150,1,53.9999983520508,2|0,0:0|0:0,0:0:0:0:
187,149,14197,1,0,0:0:0:0:
265,287,14353,6,0,P|256:249|268:214,1,53.9999983520508,8|0,0:0|0:0,0:0:0:0:
318,190,14509,1,0,0:0:0:0:
126,341,14666,6,0,P|119:250|74:224,1,107.999996704102,2|2,0:0|0:0,0:0:0:0:
53,200,14900,1,0,0:0:0:0:
59,190,14978,2,0,P|49:149|57:129,1,53.9999983520508,8|0,0:0|0:0,0:0:0:0:
96,55,15134,2,0,L|93:91,1,26.9999991760254
57,310,15291,5,2,0:0:0:0:
67,299,15369,2,0,L|193:279,1,107.999996704102,2|0,0:0|0:0,0:0:0:0:
262,269,15603,5,8,0:0:0:0:
247,273,15681,1,2,0:0:0:0:
192,119,15837,6,0,L|314:136,1,107.999996704102,2|0,0:0|0:0,0:0:0:0:
363,130,16072,2,0,L|291:120,1,53.9999983520508,2|0,0:0|0:0,0:0:0:0:
377,122,16228,2,0,L|305:112,1,53.9999983520508,8|0,0:0|0:0,0:0:0:0:
183,94,16384,1,2,0:0:0:0:
112,267,16541,6,0,P|103:190|35:152,1,161.999995056153,2|0,0:0|0:0,0:0:0:0:
33,140,16853,2,0,P|70:148|106:181,1,53.9999983520508,8|0,0:0|0:0,0:0:0:0:
39,238,17009,1,0,0:0:0:0:
177,364,17166,6,0,P|170:338|174:311,1,53.9999983520508,2|0,0:0|0:0,0:0:0:0:
255,232,17322,2,0,P|229:238|207:253,1,53.9999983520508,2|0,0:0|0:0,0:0:0:0:
266,330,17478,1,8,0:0:0:0:
36,254,17634,1,0,0:0:0:0:
183,126,17791,6,0,L|174:73,1,53.9999983520508,2|0,0:0|0:0,0:0:0:0:
161,4,17947,1,2,0:0:0:0:
289,153,18103,2,0,L|273:234,1,53.9999983520508,8|0,0:0|0:0,0:0:0:0:
339,279,18259,5,2,0:0:0:0:
344,263,18337,2,0,B|380:250|380:250|446:271,1,107.999996704102,2|0,0:0|0:0,0:0:0:0:
423,226,18572,2,0,B|449:243|449:243|463:275,1,53.9999983520508,2|0,0:0|0:0,0:0:0:0:
452,339,18728,1,8,0:0:0:0:
250,373,19041,6,0,P|257:338|237:303,1,53.9999983520508,2|0,0:0|0:0,0:0:0:0:
236,311,19197,1,2,0:0:0:0:
287,203,19353,6,0,P|266:222|202:212,1,53.9999983520508,8|0,0:0|0:0,0:0:0:0:
172,209,19509,1,2,0:0:0:0:
55,236,19666,6,0,P|105:253|129:300,1,107.999996704102,2|2,0:0|0:0,0:0:0:0:
89,356,19900,1,0,0:0:0:0:
97,367,19978,2,0,P|124:376|165:358,1,53.9999983520508,8|0,0:0|0:0,0:0:0:0:
178,200,20134,6,0,L|165:128,1,53.9999983520508,2|0,0:0|0:0,0:0:0:0:
149,40,20291,1,2,0:0:0:0:
160,58,20369,1,2,0:0:0:0:
185,71,20447,1,2,0:0:0:0:
222,74,20525,1,2,0:0:0:0:
264,60,20603,1,8,0:0:0:0:
312,46,20681,1,2,0:0:0:0:
366,56,20759,1,2,0:0:0:0:
401,115,20837,6,0,P|404:163|323:218,1,107.999996704102,2|0,0:0|0:0,0:0:0:0:
327,260,21072,2,0,P|331:241|374:207,1,53.9999983520508,2|0,0:0|0:0,0:0:0:0:
279,153,21228,2,0,P|304:136|344:141,1,53.9999983520508,8|0,0:0|0:0,0:0:0:0:
336,146,21384,1,2,0:0:0:0:
397,269,21541,5,2,0:0:0:0:
474,159,21697,1,2,0:0:0:0:
480,170,21775,1,2,0:0:0:0:
486,180,21853,2,0,L|420:167,1,53.9999983520508,8|0,0:0|0:0,0:0:0:0:
195,122,22009,5,2,0:0:0:0:
146,145,22087,1,2,0:0:0:0:
134,184,22166,1,2,0:0:0:0:
143,213,22244,1,2,0:0:0:0:
161,231,22322,1,2,0:0:0:0:
166,250,22400,1,2,0:0:0:0:
161,265,22478,6,0,P|131:285|88:285,1,53.9999983520508,8|0,0:0|0:0,0:0:0:0:
55,249,22634,1,2,0:0:0:0:
247,360,22791,5,2,0:0:0:0:
245,347,22869,1,2,0:0:0:0:
243,334,22947,1,6,0:0:0:0:
241,321,23025,1,2,0:0:0:0:
239,308,23103,5,10,0:0:0:0:
258,303,23181,1,2,0:0:0:0:
278,302,23259,1,6,0:0:0:0:
297,299,23337,1,2,0:0:0:0:
316,296,23416,5,2,0:0:0:0:
311,267,23494,1,2,0:0:0:0:
307,239,23572,1,6,0:0:0:0:
303,211,23650,1,2,0:0:0:0:
297,179,23728,5,10,0:0:0:0:
243,188,23806,1,2,0:0:0:0:
191,196,23884,1,6,0:0:0:0:
139,203,23962,1,2,0:0:0:0:
89,213,24041,6,0,B|15:224|15:224|46:147|46:147|97:140|97:140,1,202.500007724762,6|0,0:0|0:0,0:0:0:0:
77,132,24353,2,0,B|38:136|38:136|22:171,1,58.4999973220826,8|0,0:0|0:0,0:0:0:0:
99,222,24509,2,0,B|162:213,1,58.4999973220826,2|0,0:0|0:0,0:0:0:0:
166,86,24666,6,0,B|138:117|138:117|30:126,1,116.999994644165,2|2,0:0|0:0,0:0:0:0:
22,63,24900,1,0,0:0:0:0:
33,54,24978,2,0,L|99:50,1,58.4999973220826,8|0,0:0|0:0,0:0:0:0:
276,43,25134,2,0,B|241:66|241:66|230:177,1,116.999994644165,2|2,0:0|0:0,0:0:0:0:
260,202,25369,1,0,0:0:0:0:
249,216,25447,2,0,L|241:299,1,58.4999973220826
232,370,25603,5,8,0:0:0:0:
234,353,25681,1,2,0:0:0:0:
322,137,25837,6,0,B|349:160|349:160|363:289,1,135.000005149842,2|0,0:0|0:0,0:0:0:0:
396,322,26072,2,0,B|377:300|377:300|370:252,1,58.4999973220826,2|0,0:0|0:0,0:0:0:0:
429,316,26228,2,0,B|401:306|401:306|371:268,1,58.4999973220826,8|0,0:0|0:0,0:0:0:0:
423,221,26384,1,2,0:0:0:0:
471,26,26541,6,0,B|405:32|405:32|389:48|389:48|274:58,1,175.499991966248,2|0,0:0|0:0,0:0:0:0:
289,46,26853,2,0,L|377:38,1,58.4999973220826,8|0,0:0|0:0,0:0:0:0:
498,52,27009,1,2,0:0:0:0:
488,44,27087,1,2,0:0:0:0:
479,36,27166,2,0,L|409:44,1,58.4999973220826,2|0,0:0|0:0,0:0:0:0:
276,32,27322,6,0,L|267:114,1,58.4999973220826,2|0,0:0|0:0,0:0:0:0:
313,223,27478,2,0,L|319:164,1,58.4999973220826,8|0,0:0|0:0,0:0:0:0:
312,151,27634,1,2,0:0:0:0:
149,154,27791,6,0,B|119:157|119:157|74:125,1,58.4999973220826,2|0,0:0|0:0,0:0:0:0:
133,18,27947,2,0,B|163:15|163:15|208:47,1,58.4999973220826,2|0,0:0|0:0,0:0:0:0:
142,86,28103,1,8,0:0:0:0:
0,151,28259,5,2,0:0:0:0:
9,159,28337,1,6,0:0:0:0:
20,167,28416,5,2,0:0:0:0:
18,193,28494,1,2,0:0:0:0:
16,218,28572,1,6,0:0:0:0:
15,244,28650,1,2,0:0:0:0:
13,271,28728,5,12,0:0:0:0:
63,268,28806,1,2,0:0:0:0:
116,261,28884,2,0,L|196:250,1,58.4999973220826,2|0,0:0|0:0,0:0:0:0:
323,300,29041,6,0,B|307:277|307:277|318:234,1,58.4999973220826,2|0,0:0|0:0,0:0:0:0:
327,236,29197,1,2,0:0:0:0:
218,158,29353,6,0,B|229:132|229:132|272:120,1,58.4999973220826,8|0,0:0|0:0,0:0:0:0:
327,141,29509,1,2,0:0:0:0:
465,61,29666,6,0,L|446:208,1,116.999994644165,2|2,0:0|0:0,0:0:0:0:
476,244,29900,1,0,0:0:0:0:
461,257,29978,2,0,L|450:342,1,58.4999973220826,8|0,0:0|0:0,0:0:0:0:
498,377,30134,1,2,0:0:0:0:
303,375,30291,5,2,0:0:0:0:
332,350,30369,1,2,0:0:0:0:
335,307,30447,1,2,0:0:0:0:
313,272,30525,1,2,0:0:0:0:
270,240,30603,1,8,0:0:0:0:
262,190,30681,1,2,0:0:0:0:
285,140,30759,1,2,0:0:0:0:
333,114,30837,6,0,L|466:91,1,116.999994644165,2|0,0:0|0:0,0:0:0:0:
401,20,31072,2,0,L|317:11,1,58.4999973220826,2|0,0:0|0:0,0:0:0:0:
260,117,31228,2,0,L|352:99,1,58.4999973220826,8|0,0:0|0:0,0:0:0:0:
241,110,31384,2,0,L|333:92,1,58.4999973220826,2|0,0:0|0:0,0:0:0:0:
188,19,31541,5,2,0:0:0:0:
84,91,31697,1,2,0:0:0:0:
59,128,31775,1,2,0:0:0:0:
64,167,31853,1,8,0:0:0:0:
82,184,31931,1,2,0:0:0:0:
102,188,32009,1,2,0:0:0:0:
117,187,32087,1,2,0:0:0:0:
135,175,32166,1,2,0:0:0:0:
164,170,32244,1,2,0:0:0:0:
197,180,32322,1,2,0:0:0:0:
216,221,32400,1,2,0:0:0:0:
204,271,32478,5,8,0:0:0:0:
94,96,32634,1,0,0:0:0:0:
247,115,32791,6,0,L|293:111,1,33.7500012874604,2|0,0:0|0:0,0:0:0:0:
259,123,32947,2,0,L|305:119,1,33.7500012874604,2|0,0:0|0:0,0:0:0:0:
127,265,33103,6,0,L|62:260,1,38.2500007295609,2|0,0:0|0:0,0:0:0:0:
115,273,33259,2,0,L|60:267,1,38.2500007295609,2|0,0:0|0:0,0:0:0:0:
303,190,33416,6,0,L|375:183,1,45,2|0,0:0|0:0,0:0:0:0:
132,346,33572,2,0,L|60:339,1,45,2|0,0:0|0:0,0:0:0:0:
242,74,33728,5,8,0:0:0:0:
249,71,34041,6,0,B|252:21|183:0|137:89|213:134,1,161.999995056153,2|0,0:0|0:0,0:0:0:0:
262,154,34353,6,0,P|272:170|272:188,2,24,8|0|0,0:0|0:0|0:0,0:0:0:0:
196,181,34509,2,0,P|191:199|188:207,2,24,2|0|0,0:0|0:0|0:0,0:0:0:0:
313,311,34666,6,0,B|316:368|237:392|184:290|271:238,1,202.500007724762,2|0,0:0|0:0,0:0:0:0:
270,247,34978,1,8,0:0:0:0:
492,239,35134,6,0,P|456:271|354:218,1,161.999995056153,2|0,0:0|0:0,0:0:0:0:
347,231,35447,2,0,P|346:186|361:163,1,53.9999983520508,2|0,0:0|0:0,0:0:0:0:
340,167,35603,2,0,P|373:127|443:129,1,107.999996704102,8|0,0:0|0:0,0:0:0:0:
431,134,35837,1,2,0:0:0:0:
436,148,35916,1,2,0:0:0:0:
380,309,36072,6,0,L|285:300,1,53.9999983520508,2|0,0:0|0:0,0:0:0:0:
254,297,36228,1,8,0:0:0:0:
98,292,36384,5,2,0:0:0:0:
93,301,36462,1,2,0:0:0:0:
88,311,36541,2,0,P|93:345|133:374,1,53.9999983520508,2|0,0:0|0:0,0:0:0:0:
52,230,36697,2,0,P|21:246|8:293,1,53.9999983520508,2|0,0:0|0:0,0:0:0:0:
190,166,36853,6,0,B|130:128|97:206|118:243|189:259|239:223,1,202.500007724762,8|0,0:0|0:0,0:0:0:0:
192,101,37166,2,0,P|193:133|204:155,1,53.9999983520508,2|0,0:0|0:0,0:0:0:0:
254,107,37322,2,0,P|226:123|213:144,1,53.9999983520508,2|0,0:0|0:0,0:0:0:0:
240,361,37478,5,8,0:0:0:0:
249,348,37556,2,0,L|224:226,1,107.999996704102,2|0,0:0|0:0,0:0:0:0:
346,98,37791,2,0,L|334:181,1,53.9999983520508,2|0,0:0|0:0,0:0:0:0:
395,331,37947,6,0,P|409:302|438:286,1,53.9999983520508,2|0,0:0|0:0,0:0:0:0:
412,211,38103,2,0,P|444:208|472:225,1,53.9999983520508,8|0,0:0|0:0,0:0:0:0:
374,310,38259,6,0,P|397:287|429:282,1,53.9999983520508,2|0,0:0|0:0,0:0:0:0:
424,185,38415,2,0,P|454:193|475:219,1,53.9999983520508,2|0,0:0|0:0,0:0:0:0:
501,277,38572,5,2,0:0:0:0:
328,376,38728,2,0,P|279:352|189:364,1,107.999996704102,8|0,0:0|0:0,0:0:0:0:
150,376,38962,1,2,0:0:0:0:
154,384,39041,2,0,B|208:388|231:329|162:260|92:327,1,202.500007724762,2|0,0:0|0:0,0:0:0:0:
9,373,39353,6,0,P|28:335|18:291,1,67.5000025749208,8|0,0:0|0:0,0:0:0:0:
114,216,39509,2,0,P|90:180|47:167,1,67.5000025749208,2|0,0:0|0:0,0:0:0:0:
15,241,39666,6,0,L|45:237,3,30,2|0|0|2,0:0|0:0|0:0|0:0,0:0:0:0:
214,222,39978,6,0,L|293:214,1,53.9999983520508,8|0,0:0|0:0,0:0:0:0:
220,210,40134,2,0,L|299:202,1,53.9999983520508,2|0,0:0|0:0,0:0:0:0:
365,249,40291,6,0,P|380:188|339:133,1,107.999996704102,6|0,0:0|0:0,0:0:0:0:
411,95,40525,1,0,0:0:0:0:
401,86,40603,2,0,P|371:71|322:90,1,53.9999983520508,12|0,0:0|0:0,0:0:0:0:
308,15,40759,2,0,P|283:40|277:66,1,53.9999983520508,6|0,0:0|0:0,0:0:0:0:
293,240,40916,6,0,P|344:195|348:138,1,107.999996704102,6|0,0:0|0:0,0:0:0:0:
214,90,41150,1,0,0:0:0:0:
219,104,41228,2,0,P|244:126|295:134,1,53.9999983520508,12|0,0:0|0:0,0:0:0:0:
183,216,41384,2,0,P|221:210|251:178,1,53.9999983520508,6|0,0:0|0:0,0:0:0:0:
451,302,41541,6,0,P|347:292|305:369,1,161.999995056153,2|0,0:0|0:0,0:0:0:0:
247,308,41853,2,0,P|241:337|257:367,1,53.9999983520508,8|0,0:0|0:0,0:0:0:0:
316,342,42009,1,2,0:0:0:0:
160,294,42166,5,2,0:0:0:0:
155,311,42244,1,2,0:0:0:0:
151,328,42322,1,2,0:0:0:0:
183,216,42478,5,8,0:0:0:0:
376,254,42634,1,2,0:0:0:0:
292,126,42791,1,2,0:0:0:0:
383,270,42947,5,2,0:0:0:0:
165,222,43103,1,8,0:0:0:0:
296,110,43259,1,2,0:0:0:0:
295,312,43416,6,0,L|286:252,1,53.9999983520508,2|0,0:0|0:0,0:0:0:0:
393,86,43572,1,2,0:0:0:0:
402,96,43650,2,0,L|393:156,1,53.9999983520508,2|8,0:0|0:0,0:0:0:0:
139,111,43884,6,0,L|181:101,1,26.9999991760254,6|0,0:0|0:0,0:0:0:0:
43,52,44197,5,0,0:0:0:0:
22,71,44275,1,0,0:0:0:0:
13,96,44353,1,4,0:0:0:0:
18,132,44431,1,0,0:0:0:0:
41,162,44509,1,0,0:0:0:0:
74,177,44587,1,0,0:0:0:0:
91,197,44666,1,4,0:0:0:0:
97,223,44744,1,0,0:0:0:0:
91,242,44822,1,0,0:0:0:0:
79,254,44900,1,0,0:0:0:0:
65,257,44978,5,4,0:0:0:0:
92,244,45056,1,0,0:0:0:0:
132,245,45134,1,0,0:0:0:0:
177,267,45212,1,0,0:0:0:0:
228,294,45291,1,4,0:0:0:0:
285,288,45369,1,0,0:0:0:0:
319,258,45447,1,0,0:0:0:0:
317,217,45525,1,0,0:0:0:0:
297,197,45603,1,4,0:0:0:0:
279,197,45681,1,0,0:0:0:0:
270,205,45759,1,0,0:0:0:0:
271,214,45837,1,0,0:0:0:0:
276,221,45916,6,0,B|292:144|292:144|269:84,1,107.999996704102,6|0,0:0|0:0,0:0:0:0:
178,65,46150,2,0,B|236:117|236:117|300:127,1,107.999996704102,6|0,0:0|0:0,0:0:0:0:
463,82,46384,5,6,0:0:0:0:
406,39,46541,5,0,0:0:0:0:
393,56,46619,1,0,0:0:0:0:
389,88,46697,1,0,0:0:0:0:
404,124,46775,1,0,0:0:0:0:
431,159,46853,1,4,0:0:0:0:
436,213,46931,1,0,0:0:0:0:
403,268,47009,1,0,0:0:0:0:
342,278,47087,1,0,0:0:0:0:
296,265,47166,1,4,0:0:0:0:
274,238,47244,1,0,0:0:0:0:
247,226,47322,1,0,0:0:0:0:
225,232,47400,1,0,0:0:0:0:
215,244,47478,1,4,0:0:0:0:
212,255,47556,1,0,0:0:0:0:
216,264,47634,1,0,0:0:0:0:
224,268,47712,1,0,0:0:0:0:
233,268,47791,5,4,0:0:0:0:
247,254,47869,1,0,0:0:0:0:
247,216,47947,1,0,0:0:0:0:
220,178,48025,1,0,0:0:0:0:
187,137,48103,1,4,0:0:0:0:
177,81,48181,1,0,0:0:0:0:
202,21,48259,1,0,0:0:0:0:
265,1,48337,1,0,0:0:0:0:
322,35,48416,5,6,0:0:0:0:
117,122,48572,1,2,0:0:0:0:
117,122,48650,1,6,0:0:0:0:
358,198,48806,1,2,0:0:0:0:
358,198,48884,1,6,0:0:0:0:
95,282,49041,5,0,0:0:0:0:
103,270,49119,1,0,0:0:0:0:
102,244,49197,1,2,0:0:0:0:
76,211,49275,1,0,0:0:0:0:
47,169,49353,2,0,P|37:140|44:104,1,53.9999983520508,8|0,0:0|0:0,0:0:0:0:
76,37,49509,5,0,0:0:0:0:
139,14,49587,1,0,0:0:0:0:
180,27,49666,1,2,0:0:0:0:
198,53,49744,1,0,0:0:0:0:
215,67,49822,1,0,0:0:0:0:
238,69,49900,1,0,0:0:0:0:
253,62,49978,6,0,P|261:34|257:7,1,53.9999983520508
358,198,50134,2,0,P|340:124|383:53,1,161.999995056153,2|0,0:0|0:0,0:0:0:0:
492,128,50447,6,0,P|459:139|419:128,1,53.9999983520508,2|0,0:0|0:0,0:0:0:0:
318,268,50603,2,0,P|291:244|281:204,1,53.9999983520508,2|0,0:0|0:0,0:0:0:0:
148,334,50759,6,0,L|157:281,1,45,2|0,0:0|0:0,0:0:0:0:
135,347,50994,2,0,L|166:148,1,161.999995056153,8|0,0:0|0:0,0:0:0:0:
128,79,51306,5,6,0:0:0:0:
128,79,51853,6,0,P|166:69|245:90,1,112.5,6|0,0:0|0:0,0:0:0:0:
240,69,52322,2,0,P|282:88|398:46,1,168.750006437302,6|0,0:0|0:0,0:0:0:0:
410,60,52791,2,0,P|454:58|508:203,1,225,6|0,0:0|0:0,0:0:0:0:
512,217,53259,2,0,P|402:254|328:110,1,281.25,6|0,0:0|0:0,0:0:0:0:
335,123,53728,5,2,0:0:0:0:
509,187,53962,5,2,0:0:0:0:
455,35,54197,5,2,0:0:0:0:
400,212,54431,5,2,0:0:0:0:
363,49,54666,5,2,0:0:0:0:
512,98,54900,5,2,0:0:0:0:
156,64,55134,5,4,0:0:0:0:
156,64,55916,5,4,0:0:0:0:
154,77,56228,1,4,0:0:0:0:
151,89,56541,6,0,P|166:117|199:130,1,53.9999983520508,2|0,0:0|0:0,0:0:0:0:
253,120,56697,1,0,0:0:0:0:
94,224,56853,6,0,P|162:203|215:234,1,107.999996704102,8|0,0:0|0:0,0:0:0:0:
202,230,57087,1,0,0:0:0:0:
211,243,57166,2,0,P|252:254|279:244,1,53.9999983520508,4|0,0:0|0:0,0:0:0:0:
262,108,57322,6,0,L|251:54,3,35.9999989013672,2|0|0|8,0:0|0:0|0:0|0:0,0:0:0:0:
402,259,57634,6,0,P|345:181|410:76,1,215.999993408203
402,273,58103,2,0,P|375:256|357:229,1,53.9999983520508,8|0,0:0|0:0,0:0:0:0:
397,98,58259,2,0,P|372:117|360:147,1,53.9999983520508
474,302,58416,6,0,P|478:269|458:224,1,53.9999983520508,4|0,0:0|0:0,0:0:0:0:
470,68,58572,2,0,P|474:101|454:146,1,53.9999983520508,2|0,0:0|0:0,0:0:0:0:
308,187,58728,5,8,0:0:0:0:
511,185,58884,1,0,0:0:0:0:
288,59,59041,6,0,L|275:143,1,53.9999983520508,2|0,0:0|0:0,0:0:0:0:
252,314,59197,1,0,0:0:0:0:
260,308,59275,1,0,0:0:0:0:
269,302,59353,2,0,L|257:230,1,53.9999983520508,8|0,0:0|0:0,0:0:0:0:
218,0,59509,6,0,L|205:78,1,53.9999983520508
205,8,59666,2,0,L|192:86,1,53.9999983520508,4|0,0:0|0:0,0:0:0:0:
216,190,59822,2,0,L|203:112,1,53.9999983520508,2|0,0:0|0:0,0:0:0:0:
192,16,59978,2,0,L|183:70,1,53.9999983520508,8|0,0:0|0:0,0:0:0:0:
30,110,60134,6,0,P|100:149|83:283,1,215.999993408203
80,275,60603,1,8,0:0:0:0:
188,364,60759,6,0,P|188:293|276:256,1,161.999995056153
272,266,61072,2,0,P|301:280|319:318,1,53.9999983520508,2|0,0:0|0:0,0:0:0:0:
310,314,61228,1,8,0:0:0:0:
105,368,61384,1,2,0:0:0:0:
194,184,61541,6,0,P|199:160|175:106,1,53.9999983520508,2|0,0:0|0:0,0:0:0:0:
137,89,61697,1,0,0:0:0:0:
233,6,61853,6,0,P|239:58|302:94,1,107.999996704102,8|0,0:0|0:0,0:0:0:0:
288,160,62087,1,0,0:0:0:0:
308,157,62166,2,0,P|330:143|346:112,1,53.9999983520508,4|0,0:0|0:0,0:0:0:0:
332,13,62322,6,0,L|341:79,3,35.9999989013672,2|0|0|8,0:0|0:0|0:0|0:0,0:0:0:0:
474,40,62634,6,0,B|436:65|436:65|405:233,1,215.999993408203
394,223,63103,2,0,L|407:151,1,53.9999983520508,8|0,0:0|0:0,0:0:0:0:
473,57,63259,2,0,B|448:74|448:74|441:108,1,53.9999983520508
486,295,63416,6,0,L|475:243,1,53.9999983520508,4|0,0:0|0:0,0:0:0:0:
339,31,63572,2,0,B|364:48|364:48|371:82,1,53.9999983520508,2|0,0:0|0:0,0:0:0:0:
300,291,63728,5,8,0:0:0:0:
306,278,63884,1,0,0:0:0:0:
261,211,64041,5,2,0:0:0:0:
312,362,64197,1,0,0:0:0:0:
410,192,64353,5,8,0:0:0:0:
377,200,64431,1,0,0:0:0:0:
336,191,64509,1,0,0:0:0:0:
302,147,64587,1,0,0:0:0:0:
309,81,64666,1,0,0:0:0:0:
185,158,64822,6,0,L|225:151,1,26.9999991760254,2|0,0:0|0:0,0:0:0:0:
172,148,64978,2,0,L|213:140,1,26.9999991760254,8|0,0:0|0:0,0:0:0:0:
426,54,65134,6,0,L|193:35,1,215.999993408203
115,295,65603,6,0,L|193:278,1,53.9999983520508,8|0,0:0|0:0,0:0:0:0:
239,267,65759,1,0,0:0:0:0:
189,384,65916,1,0,0:0:0:0:
49,201,66072,5,2,0:0:0:0:
102,158,66150,1,2,0:0:0:0:
104,90,66228,2,0,P|98:78|87:68,1,27,14|0,0:0|0:0,0:0:0:0:
256,32,66541,6,0,P|189:91|77:23,1,202.500007724762,2|0,0:0|0:0,0:0:0:0:
141,224,66853,6,0,P|164:200|195:187,1,67.5000025749208,8|0,0:0|0:0,0:0:0:0:
262,42,67009,2,0,L|256:118,1,45,4|0,0:0|0:0,0:0:0:0:
310,274,67166,2,0,P|274:242|213:240,1,67.5000025749208,4|0,0:0|0:0,0:0:0:0:
270,56,67322,6,0,L|267:85,3,30,6|0|0|8,0:0|0:0|0:0|0:0,0:0:0:0:
511,150,67634,6,0,B|482:121|482:121|311:143,1,202.500007724762,2|0,0:0|0:0,0:0:0:0:
362,62,67947,2,0,L|452:50,1,67.5000025749208,4|0,0:0|0:0,0:0:0:0:
350,51,68103,2,0,L|440:39,1,67.5000025749208,8|0,0:0|0:0,0:0:0:0:
337,230,68259,2,0,L|233:217,1,67.5000025749208,4|0,0:0|0:0,0:0:0:0:
349,219,68416,6,0,L|188:200,1,135.000005149842,4|2,0:0|0:0,0:0:0:0:
86,154,68650,1,0,0:0:0:0:
82,169,68728,2,0,B|110:202|110:202|232:217,1,135.000005149842,8|0,0:0|0:0,0:0:0:0:
242,276,68962,1,0,0:0:0:0:
229,287,69041,6,0,L|130:276,1,67.5000025749208,2|0,0:0|0:0,0:0:0:0:
270,103,69197,1,0,0:0:0:0:
280,116,69275,1,0,0:0:0:0:
290,129,69353,2,0,L|357:136,1,67.5000025749208,8|0,0:0|0:0,0:0:0:0:
428,226,69509,6,0,P|391:232|357:265,1,67.5000025749208,4|0,0:0|0:0,0:0:0:0:
477,167,69666,2,0,L|470:115,1,45,4|0,0:0|0:0,0:0:0:0:
394,320,69822,2,0,P|380:355|392:400,1,67.5000025749208,2|0,0:0|0:0,0:0:0:0:
488,177,69978,2,0,L|481:132,1,45,8|0,0:0|0:0,0:0:0:0:
293,16,70134,6,0,L|270:221,1,202.500007724762,2|0,0:0|0:0,0:0:0:0:
195,302,70447,2,0,B|199:267|199:267|166:236,1,67.5000025749208,4|0,0:0|0:0,0:0:0:0:
324,314,70603,2,0,B|327:278|327:278|367:256,1,67.5000025749208,8|0,0:0|0:0,0:0:0:0:
269,234,70759,6,0,L|284:94,1,135.000005149842,4|0,0:0|0:0,0:0:0:0:
293,16,70994,1,0,0:0:0:0:
305,26,71072,2,0,L|296:123,1,67.5000025749208,2|0,0:0|0:0,0:0:0:0:
407,193,71228,6,0,B|377:172|377:135,1,67.5000025749208,8|0,0:0|0:0,0:0:0:0:
151,161,71384,2,0,B|183:146|192:110,1,67.5000025749208,4|0,0:0|0:0,0:0:0:0:
170,345,71541,6,0,P|253:310|347:372,1,202.500007724762,2|0,0:0|0:0,0:0:0:0:
491,253,71853,6,0,P|447:269|399:250,1,67.5000025749208,8|0,0:0|0:0,0:0:0:0:
352,356,72009,2,0,L|346:290,1,45,4|0,0:0|0:0,0:0:0:0:
265,186,72166,2,0,P|309:202|357:183,1,67.5000025749208,4|0,0:0|0:0,0:0:0:0:
361,348,72322,6,0,L|358:294,3,30,2|0|0|8,0:0|0:0|0:0|0:0,0:0:0:0:
159,338,72634,6,0,B|187:296|187:296|158:109,1,202.500007724762,2|0,0:0|0:0,0:0:0:0:
86,194,72947,2,0,L|99:284,1,67.5000025749208,4|0,0:0|0:0,0:0:0:0:
75,206,73103,2,0,L|88:296,1,67.5000025749208,8|0,0:0|0:0,0:0:0:0:
270,347,73259,2,0,L|283:257,1,67.5000025749208,4|0,0:0|0:0,0:0:0:0:
259,335,73416,6,0,L|281:171,1,135.000005149842,4|2,0:0|0:0,0:0:0:0:
271,186,73650,1,0,0:0:0:0:
266,170,73728,1,8,0:0:0:0:
172,135,73884,6,0,L|158:60,1,67.5000025749208,4|0,0:0|0:0,0:0:0:0:
167,52,74041,1,2,0:0:0:0:
23,142,74197,1,0,0:0:0:0:
147,235,74353,5,8,0:0:0:0:
169,273,74431,1,0,0:0:0:0:
163,323,74509,1,0,0:0:0:0:
118,367,74587,1,0,0:0:0:0:
49,369,74666,6,0,P|19:344|11:296,1,67.5000025749208,4|0,0:0|0:0,0:0:0:0:
104,101,74822,2,0,L|92:181,1,45,2|0,0:0|0:0,0:0:0:0:
0,303,74978,2,0,P|6:264|44:233,1,67.5000025749208,8|0,0:0|0:0,0:0:0:0:
122,87,75134,6,0,L|85:299,1,202.500007724762,2|0,0:0|0:0,0:0:0:0:
246,219,75447,2,0,L|225:110,1,67.5000025749208,4|0,0:0|0:0,0:0:0:0:
141,75,75603,2,0,L|128:163,1,67.5000025749208,8|0,0:0|0:0,0:0:0:0:
332,260,75759,6,0,L|311:151,1,67.5000025749208,4|0,0:0|0:0,0:0:0:0:
344,248,75916,2,0,L|323:139,1,67.5000025749208,4|0,0:0|0:0,0:0:0:0:
70,26,76072,5,2,0:0:0:0:
59,93,76150,1,2,0:0:0:0:
47,159,76228,2,0,P|52:178|58:186,1,27,8|0,0:0|0:0,0:0:0:0:
224,81,76541,5,2,0:0:0:0:
293,64,76736,5,2,0:0:0:0:
301,53,76853,2,0,B|311:84|311:84|285:134,2,66.0000020141602,2|2|2,0:0|0:0|0:0,0:0:0:0:
155,55,77166,2,0,B|143:89|143:89|172:145,2,71.9999978027344,2|2|2,0:0|0:0|0:0,0:0:0:0:
359,223,77478,6,0,B|345:190|345:190|359:151,2,77.9999964294435,6|2|2,0:0|0:0|0:0,0:0:0:0:
96,241,77791,2,0,B|112:207|112:207|99:168,2,77.9999964294435,6|2|2,0:0|0:0|0:0,0:0:0:0:
137,310,78103,6,0,P|147:300|159:293,2,29.2499986610413,2|0|2,0:0|0:0|0:0,0:0:0:0:
336,300,78259,2,0,P|325:289|313:281,2,29.2499986610413,2|0|2,0:0|0:0|0:0,0:0:0:0:
236,296,78416,5,2,0:0:0:0:
236,296,78494,1,2,0:0:0:0:
204,364,78572,2,0,B|242:372|242:372|278:356,1,72,2|0,0:0|0:0,0:0:0:0:
512,185,79041,6,0,P|443:198|373:112,1,161.999995056153,6|0,0:0|0:0,0:0:0:0:
269,171,79353,2,0,P|334:147|386:170,1,107.999996704102,8|0,0:0|0:0,0:0:0:0:
459,123,79666,6,0,L|448:69,2,53.9999983520508,2|0|2,0:0|0:0|0:0,0:0:0:0:
325,224,79978,2,0,L|313:286,1,53.9999983520508,8|0,0:0|0:0,0:0:0:0:
324,290,80134,1,2,0:0:0:0:
167,375,80291,6,0,B|189:345|189:345|153:179,1,161.999995056153,6|0,0:0|0:0,0:0:0:0:
177,109,80603,2,0,B|156:142|156:142|175:225,1,107.999996704102,8|0,0:0|0:0,0:0:0:0:
107,319,80916,6,0,L|89:243,2,53.9999983520508,2|0|2,0:0|0:0|0:0,0:0:0:0:
234,163,81228,2,0,L|249:231,1,53.9999983520508,8|0,0:0|0:0,0:0:0:0:
238,234,81384,1,0,0:0:0:0:
18,189,81541,6,0,P|76:158|70:62,1,161.999995056153,6|0,0:0|0:0,0:0:0:0:
79,52,81853,2,0,P|98:81|99:123,1,53.9999983520508,8|0,0:0|0:0,0:0:0:0:
6,181,82009,2,0,P|43:168|72:140,1,53.9999983520508
188,2,82166,5,2,0:0:0:0:
181,11,82244,1,2,0:0:0:0:
172,21,82322,2,0,L|185:96,1,53.9999983520508,2|0,0:0|0:0,0:0:0:0:
127,214,82478,5,8,0:0:0:0:
156,179,82556,1,2,0:0:0:0:
203,165,82634,1,2,0:0:0:0:
249,184,82712,1,2,0:0:0:0:
283,220,82791,5,6,0:0:0:0:
310,231,82869,1,2,0:0:0:0:
338,228,82947,1,2,0:0:0:0:
364,211,83025,1,2,0:0:0:0:
370,190,83103,1,8,0:0:0:0:
364,174,83181,1,2,0:0:0:0:
352,166,83259,1,2,0:0:0:0:
342,170,83337,6,0,P|339:137|361:97,2,67.5000025749208,2|2|2,0:0|0:0|0:0,0:0:0:0:
443,193,83728,2,0,P|458:145|439:99,1,101.250003862381,8|0,0:0|0:0,0:0:0:0:
326,45,84041,2,0,L|237:56,2,71.9999978027344,6|0|0,0:0|0:0|0:0,0:0:0:0:
311,304,84353,6,0,P|272:295|248:270,1,53.9999983520508,8|0,0:0|0:0,0:0:0:0:
201,320,84509,2,0,P|189:281|198:248,1,53.9999983520508
132,232,84666,2,0,P|159:202|192:194,1,53.9999983520508,2|0,0:0|0:0,0:0:0:0:
173,128,84822,2,0,P|212:137|236:162,1,53.9999983520508,2|0,0:0|0:0,0:0:0:0:
302,143,84978,6,0,L|295:196,1,53.9999983520508,8|0,0:0|0:0,0:0:0:0:
302,211,85134,1,0,0:0:0:0:
460,89,85291,6,0,P|394:101|342:37,1,107.999996704102,6|0,0:0|0:0,0:0:0:0:
416,32,85525,1,0,0:0:0:0:
416,32,85603,1,8,0:0:0:0:
408,351,85759,6,0,L|370:144,1,161.999995056153
387,177,86072,1,2,0:0:0:0:
264,359,86228,6,0,P|299:332|306:261,1,107.999996704102,8|0,0:0|0:0,0:0:0:0:
265,211,86462,1,0,0:0:0:0:
265,211,86541,2,0,P|253:154|316:94,1,107.999996704102,6|0,0:0|0:0,0:0:0:0:
333,71,86775,1,0,0:0:0:0:
333,71,86853,2,0,L|430:76,1,53.9999983520508,8|0,0:0|0:0,0:0:0:0:
454,77,87009,2,0,L|551:82,1,53.9999983520508
229,63,87166,6,0,L|76:54,1,107.999996704102,0|2,0:0|0:0,0:0:0:0:
50,54,87400,1,0,0:0:0:0:
50,54,87478,1,8,0:0:0:0:
290,0,87634,1,0,0:0:0:0:
372,215,87791,5,6,0:0:0:0:
339,280,87895,1,2,0:0:0:0:
268,306,87999,1,2,0:0:0:0:
201,288,88103,1,2,0:0:0:0:
160,231,88207,1,2,0:0:0:0:
90,215,88311,1,2,0:0:0:0:
38,273,88416,5,6,0:0:0:0:
41,283,88520,1,2,0:0:0:0:
44,293,88624,1,2,0:0:0:0:
47,303,88728,1,2,0:0:0:0:
50,313,88832,1,2,0:0:0:0:
53,323,88936,1,2,0:0:0:0:
56,333,89041,5,6,0:0:0:0:
56,333,91541,5,6,0:0:0:0:
244,58,93103,6,0,L|250:99,1,36,2|0,0:0|0:0,0:0:0:0:
258,160,93416,2,0,L|268:238,1,72,2|0,0:0|0:0,0:0:0:0:
324,322,93728,5,4,0:0:0:0:
316,335,93884,2,0,B|233:342|233:342|209:332|209:332|72:343,1,215.999993408203,2|2,0:0|0:0,0:0:0:0:
31,347,94275,1,0,0:0:0:0:
31,347,94353,1,6,0:0:0:0:
281,250,94509,6,0,B|188:258|188:258|162:231|162:231|36:242,1,215.999993408203,2|2,0:0|0:0,0:0:0:0:
6,249,94900,1,0,0:0:0:0:
6,249,94978,1,6,0:0:0:0:
264,175,95134,6,0,B|217:179|217:179|128:79|128:79,1,161.999995056153,2|0,0:0|0:0,0:0:0:0:
126,95,95447,2,0,L|41:104,1,53.9999983520508,2|0,0:0|0:0,0:0:0:0:
0,110,95603,1,6,0:0:0:0:
283,6,95759,6,0,L|276:73,1,53.9999983520508,2|0,0:0|0:0,0:0:0:0:
291,19,96072,2,0,L|284:86,1,53.9999983520508,2|0,0:0|0:0,0:0:0:0:
457,224,96384,6,0,P|403:171|436:68,1,161.999995056153,6|0,0:0|0:0,0:0:0:0:
427,85,96697,1,2,0:0:0:0:
325,172,96853,1,2,0:0:0:0:
482,139,97009,1,2,0:0:0:0:
340,74,97166,5,2,0:0:0:0:
394,219,97322,1,2,0:0:0:0:
487,38,97478,1,2,0:0:0:0:
339,165,97634,1,2,0:0:0:0:
352,70,97791,5,2,0:0:0:0:
322,48,97869,1,2,0:0:0:0:
279,49,97947,1,2,0:0:0:0:
237,68,98025,1,2,0:0:0:0:
202,98,98103,1,2,0:0:0:0:
153,114,98181,1,2,0:0:0:0:
97,101,98259,1,2,0:0:0:0:
61,54,98337,1,2,0:0:0:0:
77,6,98416,5,2,0:0:0:0:
128,60,98494,1,2,0:0:0:0:
119,134,98572,1,2,0:0:0:0:
74,190,98650,1,2,0:0:0:0:
79,261,98728,1,2,0:0:0:0:
144,297,98806,1,2,0:0:0:0:
219,257,98884,6,0,L|225:144,1,112.5,6|0,0:0|0:0,0:0:0:0:
230,76,100916,1,4,0:0:0:0:
230,76,101228,1,0,0:0:0:0:
373,273,101541,5,4,0:0:0:0:
359,202,101697,1,0,0:0:0:0:
343,133,101853,1,0,0:0:0:0:
442,75,102009,5,0,0:0:0:0:
426,148,102166,1,0,0:0:0:0:
321,65,102322,6,0,L|317:48,3,10.4999996795654
462,0,102634,5,4,0:0:0:0:
502,266,102947,5,0,0:0:0:0:
454,216,103103,1,0,0:0:0:0:
383,209,103259,1,0,0:0:0:0:
321,237,103416,2,0,P|299:255|289:280,1,47.2499985580445,4|0,0:0|0:0,0:0:0:0:
179,384,103728,6,0,P|196:261|52:237,1,236.250002253056,12|0,0:0|0:0,0:0:0:0:
226,84,104041,6,0,L|217:168,1,58.4999973220826,6|0,0:0|0:0,0:0:0:0:
48,366,104197,1,0,0:0:0:0:
52,351,104275,1,0,0:0:0:0:
55,337,104353,2,0,L|132:302,1,58.4999973220826,8|0,0:0|0:0,0:0:0:0:
359,357,104509,2,0,L|290:307,1,58.4999973220826,2|0,0:0|0:0,0:0:0:0:
211,326,104666,6,0,L|204:387,1,58.4999973220826,2|0,0:0|0:0,0:0:0:0:
156,224,104822,2,0,L|105:187,1,58.4999973220826,2|0,0:0|0:0,0:0:0:0:
272,228,104978,2,0,L|328:202,1,58.4999973220826,8|0,0:0|0:0,0:0:0:0:
214,259,105134,5,2,0:0:0:0:
226,84,105291,2,0,L|233:1,1,58.4999973220826,2|0,0:0|0:0,0:0:0:0:
343,81,105447,6,0,P|364:121|416:147,1,67.5000025749208,2|0,0:0|0:0,0:0:0:0:
119,68,105603,2,0,P|91:103|35:120,1,67.5000025749208,8|0,0:0|0:0,0:0:0:0:
142,238,105759,6,0,P|212:183|289:272,1,202.500007724762,2|0,0:0|0:0,0:0:0:0:
87,293,106072,6,0,P|109:310|150:314,1,67.5000025749208,2|0,0:0|0:0,0:0:0:0:
332,308,106228,2,0,P|307:320|266:317,1,67.5000025749208,8|0,0:0|0:0,0:0:0:0:
206,369,106384,1,2,0:0:0:0:
357,229,106541,6,0,B|367:161|367:161|347:134|347:134|358:55,1,175.499991966248,6|0,0:0|0:0,0:0:0:0:
434,0,106853,2,0,L|415:135,1,116.999994644165,8|0,0:0|0:0,0:0:0:0:
294,183,107087,1,0,0:0:0:0:
284,197,107166,2,0,L|293:268,1,58.4999973220826,2|0,0:0|0:0,0:0:0:0:
367,224,107322,6,0,L|373:184,3,38.9999982147218,2|0|0|8,0:0|0:0|0:0|0:0,0:0:0:0:
479,322,107634,6,0,P|422:309|345:402,1,175.499991966248,6|0,0:0|0:0,0:0:0:0:
238,300,107947,2,0,P|269:322|325:313,1,58.4999973220826,2|0,0:0|0:0,0:0:0:0:
291,255,108103,1,8,0:0:0:0:
436,172,108259,5,6,0:0:0:0:
451,175,108337,1,0,0:0:0:0:
466,179,108416,2,0,P|466:217|426:257,1,58.4999973220826,2|0,0:0|0:0,0:0:0:0:
322,146,108572,1,2,0:0:0:0:
428,384,108728,5,8,0:0:0:0:
327,158,108884,1,0,0:0:0:0:
298,319,109041,5,6,0:0:0:0:
333,169,109197,1,0,0:0:0:0:
268,229,109353,5,8,0:0:0:0:
316,251,109431,1,0,0:0:0:0:
369,241,109509,1,4,0:0:0:0:
407,205,109587,1,0,0:0:0:0:
409,150,109666,1,2,0:0:0:0:
252,100,109822,6,0,L|248:132,1,29.2499986610413,6|0,0:0|0:0,0:0:0:0:
244,89,109978,2,0,L|240:121,1,29.2499986610413,8|0,0:0|0:0,0:0:0:0:
154,321,110134,6,0,L|132:123,1,175.499991966248,4|0,0:0|0:0,0:0:0:0:
114,82,110447,2,0,L|124:165,1,58.4999973220826,2|0,0:0|0:0,0:0:0:0:
78,264,110603,2,0,L|68:181,1,58.4999973220826,8|0,0:0|0:0,0:0:0:0:
66,258,110759,2,0,L|56:175,1,58.4999973220826,4|0,0:0|0:0,0:0:0:0:
177,16,110916,2,0,L|187:109,1,67.5000025749208,2|0,0:0|0:0,0:0:0:0:
289,330,111072,5,2,0:0:0:0:
266,264,111150,1,2,0:0:0:0:
295,203,111228,2,0,P|304:191|315:185,1,27,8|0,0:0|0:0,0:0:0:0:
495,191,111541,6,0,P|445:202|391:70,1,216,6|0,0:0|0:0,0:0:0:0:
446,26,111853,2,0,P|424:66|379:75,1,72,8|0,0:0|0:0,0:0:0:0:
287,0,112009,2,0,P|310:39|295:82,1,72,2|0,0:0|0:0,0:0:0:0:
231,200,112166,2,0,P|259:178|294:179,1,72,2|0,0:0|0:0,0:0:0:0:
505,206,112322,6,0,L|500:261,3,35.9999989013672,6|0|0|8,0:0|0:0|0:0|0:0,0:0:0:0:
276,310,112634,6,0,B|204:303|204:303|174:240|174:240|95:233,1,216,6|0,0:0|0:0,0:0:0:0:
57,300,112947,2,0,L|152:308,1,72,2|0,0:0|0:0,0:0:0:0:
283,320,113103,1,8,0:0:0:0:
96,226,113259,5,6,0:0:0:0:
250,239,113416,2,0,B|334:247|334:247|392:214|392:214|485:223,1,216,2|0,0:0|0:0,0:0:0:0:
464,229,113728,1,8,0:0:0:0:
376,136,113884,1,2,0:0:0:0:
406,384,114041,6,0,P|360:331|253:364,1,144,2|0,0:0|0:0,0:0:0:0:
314,255,114275,2,0,P|245:268|220:377,1,144,6|0,0:0|0:0,0:0:0:0:
219,341,114509,1,2,0:0:0:0:
92,132,114666,6,0,P|101:191|197:192,1,144,2|0,0:0|0:0,0:0:0:0:
130,88,114900,2,0,P|83:125|102:208,1,144,6|0,0:0|0:0,0:0:0:0:
202,96,115134,2,0,P|169:76|111:87,1,72,2|0,0:0|0:0,0:0:0:0:
170,221,115291,6,0,B|262:212|262:212|307:245,1,144,2|0,0:0|0:0,0:0:0:0:
303,227,115525,2,0,B|344:257|344:257|436:248,1,144,6|0,0:0|0:0,0:0:0:0:
508,378,115759,5,2,0:0:0:0:
475,346,115837,1,2,0:0:0:0:
419,335,115916,1,2,0:0:0:0:
354,352,115994,1,2,0:0:0:0:
293,384,116072,1,2,0:0:0:0:
243,371,116150,1,2,0:0:0:0:
226,339,116228,1,8,0:0:0:0:
229,314,116306,1,2,0:0:0:0:
243,304,116384,1,2,0:0:0:0:
254,302,116462,1,2,0:0:0:0:
259,305,116541,5,2,0:0:0:0:
502,384,116697,1,2,0:0:0:0:
439,242,116853,5,8,0:0:0:0:
442,234,116931,1,2,0:0:0:0:
445,226,117009,1,2,0:0:0:0:
448,218,117088,1,2,0:0:0:0:
451,210,117166,1,2,0:0:0:0:
351,94,117322,5,2,0:0:0:0:
354,105,117400,2,0,L|328:96,1,22.5,2|0,0:0|0:0,0:0:0:0:
358,116,117478,1,8,0:0:0:0:
348,310,117634,6,0,P|359:268|229:202,1,216,2|0,0:0|0:0,0:0:0:0:
170,247,117947,2,0,P|206:237|234:199,1,72,2|0,0:0|0:0,0:0:0:0:
166,170,118103,2,0,P|175:133|156:90,1,72,8|0,0:0|0:0,0:0:0:0:
100,70,118259,1,2,0:0:0:0:
63,222,118416,6,0,L|94:54,1,144,2|2,0:0|0:0,0:0:0:0:
33,26,118650,1,2,0:0:0:0:
33,26,118728,1,8,0:0:0:0:
97,151,118884,1,2,0:0:0:0:
0,316,119041,6,0,B|47:294|47:294|183:320,1,144,2|2,0:0|0:0,0:0:0:0:
201,285,119275,1,2,0:0:0:0:
208,296,119353,2,0,B|298:313|298:313|345:291,1,144,8|2,0:0|0:0,0:0:0:0:
406,327,119587,1,2,0:0:0:0:
413,336,119666,5,2,0:0:0:0:
445,296,119744,1,2,0:0:0:0:
433,245,119822,1,2,0:0:0:0:
389,214,119900,1,2,0:0:0:0:
362,170,119978,2,0,P|362:135|401:83,1,72,8|0,0:0|0:0,0:0:0:0:
222,148,120134,6,0,P|265:58|409:10,1,216,2|0,0:0|0:0,0:0:0:0:
500,59,120447,6,0,L|410:44,1,53.9999983520508,2|0,0:0|0:0,0:0:0:0:
488,68,120603,2,0,L|398:53,1,53.9999983520508,2|0,0:0|0:0,0:0:0:0:
169,250,120759,6,0,L|418:222,1,216,2|0,0:0|0:0,0:0:0:0:
490,346,121072,5,0,0:0:0:0:
420,324,121150,1,0,0:0:0:0:
349,305,121228,1,10,0:0:0:0:
351,317,121306,1,2,0:0:0:0:
353,330,121384,1,2,0:0:0:0:
355,343,121462,1,2,0:0:0:0:
288,363,121541,5,6,0:0:0:0:
389,232,121697,1,2,0:0:0:0:
269,153,121853,1,2,0:0:0:0:
272,166,121931,1,2,0:0:0:0:
358,51,122087,5,2,0:0:0:0:
362,65,122166,2,0,L|351:127,1,45,8|0,0:0|0:0,0:0:0:0:
493,4,122321,5,2,0:0:0:0:
489,18,122400,2,0,L|497:82,1,45,8|0,0:0|0:0,0:0:0:0:
80,36,122634,6,0,B|39:101|73:167|123:187|123:187|174:200|219:244|225:340|130:406|32:361|24:248|76:204|123:187|123:187|167:161|187:104|142:54,1,720,6|0,0:0|0:0,0:0:0:0:
168,74,123943,1,0,0:0:0:0:
175,70,124001,1,0,0:0:0:0:
