osu file format v14

[General]
AudioFilename: H3h3 Productions Theme (short).mp3
AudioLeadIn: 0
PreviewTime: -1
Countdown: 1
SampleSet: Normal
StackLeniency: 0.2
Mode: 0
LetterboxInBreaks: 0
WidescreenStoryboard: 1

[Editor]
Bookmarks: 47179,59487
DistanceSpacing: 3
BeatDivisor: 4
GridSize: 4
TimelineZoom: 1

[Metadata]
Title:h3h3productions Theme
TitleUnicode:h3h3productions Theme
Artist:MajorLeagueWobs
ArtistUnicode:MajorLeagueWobs
Creator:DT-sama
Version:k0k0nuts
Source:
Tags:
BeatmapID:864633
BeatmapSetID:397533

[Difficulty]
HPDrainRate:6
CircleSize:4
OverallDifficulty:9
ApproachRate:7
SliderMultiplier:3.59999990463257
SliderTickRate:4

[Events]
//Background and Video events
0,0,"hqdefault.jpg",0,0
//Break Periods
//Storyboard Layer 0 (Background)
//Storyboard Layer 1 (Fail)
//Storyboard Layer 2 (Pass)
//Storyboard Layer 3 (Foreground)
//Storyboard Sound Samples

[TimingPoints]
0,512.820512820513,4,1,0,100,1,0
10256,-66.6666666666667,4,1,0,100,0,1
14871,-66.6666666666667,4,1,0,100,0,0
15897,-58.8235294117647,4,1,0,100,0,0
16410,-52.6315789473684,4,1,0,100,0,0
16666,-66.6666666666667,4,1,0,100,0,0
20512,-58.8235294117647,4,1,0,100,0,0
21282,-66.6666666666667,4,1,0,100,0,0
26153,-50,4,1,0,100,0,0
26666,-50,4,1,0,100,0,1
30769,-58.8235294117647,4,1,0,100,0,0
34871,-58.8235294117647,4,1,0,100,0,1
43076,-66.6666666666667,4,1,0,100,0,0

[HitObjects]
48,56,0,5,0,0:0:0:0:
476,384,512,1,0,0:0:0:0:
232,268,769,1,0,0:0:0:0:
440,112,1025,5,0,0:0:0:0:
368,236,1153,1,0,0:0:0:0:
232,268,1282,1,0,0:0:0:0:
232,268,1538,2,0,P|144:276|80:204,1,179.999995231629
224,64,1923,1,0,0:0:0:0:
224,64,2051,6,0,P|380:100|324:264,1,359.999990463257
284,160,2820,1,0,0:0:0:0:
256,344,3076,6,0,B|106:280|186:72|34:38,2,359.999990463257
72,52,4615,1,0,0:0:0:0:
384,376,4871,5,0,0:0:0:0:
146,257,5128,2,0,P|336:242|374:405,1,359.999990463257
146,257,6153,6,0,B|296:256|296:44|436:44,1,359.999990463257
176,156,6923,1,0,0:0:0:0:
400,152,7179,2,0,B|276:208|276:208|300:120|300:120|136:168,2,359.999990463257
80,332,8717,5,0,0:0:0:0:
344,268,8974,5,0,0:0:0:0:
156,72,9230,1,0,0:0:0:0:
28,308,9487,5,0,0:0:0:0:
372,76,9743,1,0,0:0:0:0:
244,312,10000,1,0,0:0:0:0:
124,252,10128,1,0,0:0:0:0:
120,116,10256,6,0,P|328:88|236:312,1,540.000006294251
120,120,11025,6,0,B|44:184|128:312|48:376,1,270.000003147125
120,120,11538,6,0,B|140:200|304:144|360:260,2,270.000003147125
448,332,12307,6,0,B|204:368|240:24|12:28,1,540.000006294251
448,332,13076,6,0,B|396:312|368:368|316:346,1,135.000001573563
40,32,13333,1,0,0:0:0:0:
448,332,13589,1,0,0:0:0:0:
64,332,13846,5,0,0:0:0:0:
472,32,14103,1,0,0:0:0:0:
64,332,14358,2,0,B|308:368|272:24|500:28,1,540.000006294251
136,216,15128,5,0,0:0:0:0:
440,160,15384,2,0,B|368:92|256:176|184:88,1,270.000003147125
444,164,15897,6,0,B|352:65|239:315|140:159,1,305.999997730255
444,164,16410,6,0,B|296:71|345:413|138:279,1,341.999981807709
456,44,16923,1,0,0:0:0:0:
96,51,17179,6,0,B|88:155|168:191|184:307,2,269.999992847443
184,304,17948,5,0,0:0:0:0:
416,51,18461,6,0,B|424:155|344:191|328:302,2,269.999992847443
328,304,19230,5,0,0:0:0:0:
96,51,19487,1,0,0:0:0:0:
416,51,19743,1,0,0:0:0:0:
184,304,20000,1,0,0:0:0:0:
248,40,20256,5,0,0:0:0:0:
248,40,20512,2,0,B|176:144|300:224|244:364,2,305.999997730255
252,336,21282,6,0,B|160:304|188:168|60:120,1,270.000003147125
252,336,21794,6,0,B|341:304|313:168|415:132,1,270.000003147125
252,48,22307,5,0,0:0:0:0:
56,40,22564,2,0,B|128:232|352:128|476:360,1,540.000006294251
252,335,23333,1,0,0:0:0:0:
136,24,23589,6,0,B|232:84|168:196|260:272,1,270.000003147125
348,20,24102,6,0,B|253:79|317:191|248:264,1,270.000003147125
60,244,24615,6,0,P|248:376|500:184,1,540.000006294251
260,204,25384,5,0,0:0:0:0:
192,24,25641,6,0,B|316:104|184:284|392:368,1,405.000004720688
480,80,26153,2,0,B|444:288|52:100|28:400,1,539.999985694885
340,28,26666,6,0,P|236:148|136:16,2,359.999990463257
32,40,27435,5,0,0:0:0:0:
512,40,27692,1,0,0:0:0:0:
492,180,27948,5,0,0:0:0:0:
44,180,28205,1,0,0:0:0:0:
92,308,28461,5,0,0:0:0:0:
432,308,28717,2,0,B|400:204|128:192|140:32,1,359.999990463257
512,40,29230,5,0,0:0:0:0:
92,308,29487,1,0,0:0:0:0:
432,308,29743,5,0,0:0:0:0:
136,60,30000,1,0,0:0:0:0:
392,200,30256,5,0,0:0:0:0:
136,200,30512,1,0,0:0:0:0:
392,200,30769,6,0,P|261:-18|136:204,1,611.99999546051
264,128,31538,1,0,0:0:0:0:
392,344,31794,6,0,P|262:125|134:345,1,611.99999546051
264,272,32564,1,0,0:0:0:0:
0,376,32820,6,0,B|196:80|408:484|504:148,1,611.99999546051
48,56,33589,1,0,0:0:0:0:
388,368,33846,1,0,0:0:0:0:
448,220,33974,1,0,0:0:0:0:
376,84,34102,1,0,0:0:0:0:
224,60,34230,1,0,0:0:0:0:
296,196,34358,5,0,0:0:0:0:
224,60,34487,1,0,0:0:0:0:
72,52,34615,1,0,0:0:0:0:
4,188,34743,1,0,0:0:0:0:
84,320,34871,5,0,0:0:0:0:
452,44,35128,1,0,0:0:0:0:
240,32,35384,5,0,0:0:0:0:
240,192,35641,1,0,0:0:0:0:
240,300,35897,6,0,B|112:236|184:112|148:24,1,305.999997730255
240,300,36410,6,0,B|368:236|296:112|330:27,1,305.999997730255
236,292,36923,6,0,P|237:92|249:291,1,611.99999546051
240,192,37692,1,0,0:0:0:0:
97,142,37948,6,0,B|176:76|296:196|392:153,1,305.999997730255
390,151,38461,6,0,B|313:86|193:206|96:144,1,305.999997730255
95,143,38974,6,0,P|240:360|392:144,1,611.99999546051
92,256,40000,6,0,P|245:45|390:262,2,611.99999546051
390,262,41538,1,0,0:0:0:0:
64,44,41794,1,0,0:0:0:0:
256,354,42051,5,0,0:0:0:0:
418,191,42179,1,0,0:0:0:0:
255,29,42307,1,0,0:0:0:0:
93,192,42435,1,0,0:0:0:0:
428,364,42564,5,0,0:0:0:0:
428,19,42692,1,0,0:0:0:0:
83,19,42820,1,0,0:0:0:0:
83,364,42948,1,0,0:0:0:0:
256,196,43076,5,0,0:0:0:0:
