osu file format v14

[General]
AudioFilename: audio.mp3
AudioLeadIn: 0
PreviewTime: -1
Countdown: 1
SampleSet: None
StackLeniency: 0.7
Mode: 3
LetterboxInBreaks: 0
SpecialStyle: 0
WidescreenStoryboard: 0

[Editor]
DistanceSpacing: 1
BeatDivisor: 16
GridSize: 32
TimelineZoom: 4.500003

[Metadata]
Title:Pingu Theme Trap Remix
TitleUnicode:Pingu Theme Trap Remix
Artist:MajorLeagueWobs
ArtistUnicode:MajorLeagueWobs
Creator:EL-S
Version:
Source:
Tags:
BeatmapID:1342771
BeatmapSetID:632579

[Difficulty]
HPDrainRate:5
CircleSize:4
OverallDifficulty:5
ApproachRate:5
SliderMultiplier:1.4
SliderTickRate:1

[Events]
//Background and Video events
//Break Periods
//Storyboard Layer 0 (Background)
//Storyboard Layer 1 (Fail)
//Storyboard Layer 2 (Pass)
//Storyboard Layer 3 (Foreground)
//Storyboard Sound Samples

[TimingPoints]
34,606.060606060606,4,1,0,100,1,0
958,606.060606060606,4,1,0,100,1,0
1038,606.060606060606,4,1,0,100,1,0
4863,606.060606060606,4,1,0,100,1,0

[HitObjects]
64,192,34,128,0,438:0:0:0:0:
192,192,337,1,0,0:0:0:0:
448,192,438,128,0,690:0:0:0:0:
320,192,640,1,0,0:0:0:0:
64,192,690,1,0,0:0:0:0:
448,192,791,1,0,0:0:0:0:
320,192,867,1,0,0:0:0:0:
64,192,958,1,0,0:0:0:0:
192,192,1038,1,0,0:0:0:0:
448,192,1139,1,0,0:0:0:0:
192,192,1240,1,0,0:0:0:0:
320,192,1240,1,0,0:0:0:0:
64,192,1240,128,0,1644:0:0:0:0:
448,192,1644,128,0,1947:0:0:0:0:
64,192,1846,1,0,0:0:0:0:
320,192,2060,1,0,0:0:0:0:
192,192,2136,1,0,0:0:0:0:
320,192,2325,1,0,0:0:0:0:
64,192,2439,1,0,0:0:0:0:
192,192,2477,1,0,0:0:0:0:
448,192,2780,1,0,0:0:0:0:
320,192,2856,1,0,0:0:0:0:
64,192,3083,1,0,0:0:0:0:
320,192,3083,1,0,0:0:0:0:
320,192,3651,1,0,0:0:0:0:
192,192,3954,1,0,0:0:0:0:
320,192,4257,1,0,0:0:0:0:
192,192,4295,1,0,0:0:0:0:
64,192,4333,1,0,0:0:0:0:
320,192,4371,1,0,0:0:0:0:
448,192,4409,1,0,0:0:0:0:
64,192,4560,1,0,0:0:0:0:
320,192,4712,1,0,0:0:0:0:
64,192,4863,1,0,0:0:0:0:
448,192,4863,1,0,0:0:0:0:
192,192,5014,1,0,0:0:0:0:
448,192,5317,1,0,0:0:0:0:
320,192,5469,1,0,0:0:0:0:
192,192,5469,1,0,0:0:0:0:
64,192,5772,1,0,0:0:0:0:
448,192,5772,1,0,0:0:0:0:
64,192,6075,1,0,0:0:0:0:
448,192,6075,1,0,0:0:0:0:
192,192,6264,1,0,0:0:0:0:
320,192,6567,1,0,0:0:0:0:
64,192,6681,1,0,0:0:0:0:
192,192,6681,1,0,0:0:0:0:
320,192,6984,1,0,0:0:0:0:
192,192,7135,1,0,0:0:0:0:
64,192,7287,1,0,0:0:0:0:
448,192,7287,1,0,0:0:0:0:
192,192,7363,1,0,0:0:0:0:
448,192,7438,1,0,0:0:0:0:
320,192,7514,1,0,0:0:0:0:
192,192,7590,1,0,0:0:0:0:
64,192,7666,1,0,0:0:0:0:
448,192,7741,1,0,0:0:0:0:
192,192,7741,1,0,0:0:0:0:
320,192,7817,1,0,0:0:0:0:
192,192,7893,1,0,0:0:0:0:
64,192,7893,1,0,0:0:0:0:
64,192,8196,1,0,0:0:0:0:
192,192,8272,1,0,0:0:0:0:
320,192,8347,1,0,0:0:0:0:
448,192,8423,1,0,0:0:0:0:
64,192,8499,1,0,0:0:0:0:
320,192,8499,1,0,0:0:0:0:
192,192,8575,1,0,0:0:0:0:
320,192,8650,1,0,0:0:0:0:
64,192,8726,1,0,0:0:0:0:
192,192,8802,1,0,0:0:0:0:
448,192,8802,1,0,0:0:0:0:
320,192,8878,1,0,0:0:0:0:
448,192,8953,1,0,0:0:0:0:
64,192,9105,1,0,0:0:0:0:
320,192,9105,1,0,0:0:0:0:
192,192,9181,1,0,0:0:0:0:
320,192,9256,1,0,0:0:0:0:
448,192,9332,1,0,0:0:0:0:
192,192,9408,1,0,0:0:0:0:
64,192,9484,1,0,0:0:0:0:
192,192,9559,1,0,0:0:0:0:
320,192,9635,1,0,0:0:0:0:
64,192,9711,1,0,0:0:0:0:
448,192,9711,1,0,0:0:0:0:
192,192,9900,1,0,0:0:0:0:
320,192,9900,1,0,0:0:0:0:
192,192,10203,1,0,0:0:0:0:
320,192,10203,1,0,0:0:0:0:
64,192,10317,1,0,0:0:0:0:
448,192,10317,1,0,0:0:0:0:
64,192,10620,1,0,0:0:0:0:
448,192,10620,1,0,0:0:0:0:
192,192,10658,1,0,0:0:0:0:
320,192,10658,1,0,0:0:0:0:
192,192,10923,1,0,0:0:0:0:
320,192,10923,1,0,0:0:0:0:
64,192,11113,1,0,0:0:0:0:
448,192,11113,1,0,0:0:0:0:
192,192,11453,1,0,0:0:0:0:
320,192,11453,1,0,0:0:0:0:
64,192,11529,1,0,0:0:0:0:
448,192,11529,1,0,0:0:0:0:
64,192,12135,1,0,0:0:0:0:
448,192,12135,1,0,0:0:0:0:
192,192,12211,1,0,0:0:0:0:
320,192,12287,1,0,0:0:0:0:
64,192,12363,1,0,0:0:0:0:
448,192,12438,1,0,0:0:0:0:
320,192,12514,1,0,0:0:0:0:
64,192,12590,1,0,0:0:0:0:
448,192,12590,1,0,0:0:0:0:
192,192,12666,1,0,0:0:0:0:
64,192,12741,1,0,0:0:0:0:
448,192,12741,1,0,0:0:0:0:
64,192,13044,1,0,0:0:0:0:
448,192,13044,1,0,0:0:0:0:
192,192,13120,1,0,0:0:0:0:
64,192,13196,1,0,0:0:0:0:
320,192,13272,1,0,0:0:0:0:
64,192,13347,1,0,0:0:0:0:
448,192,13347,1,0,0:0:0:0:
192,192,13423,1,0,0:0:0:0:
320,192,13423,1,0,0:0:0:0:
64,192,13499,1,0,0:0:0:0:
192,192,13575,1,0,0:0:0:0:
320,192,13575,1,0,0:0:0:0:
64,192,13650,1,0,0:0:0:0:
448,192,13650,1,0,0:0:0:0:
320,192,13726,1,0,0:0:0:0:
448,192,13802,1,0,0:0:0:0:
192,192,13878,1,0,0:0:0:0:
64,192,13953,1,0,0:0:0:0:
320,192,14029,1,0,0:0:0:0:
64,192,14105,1,0,0:0:0:0:
448,192,14105,1,0,0:0:0:0:
448,192,14559,1,0,0:0:0:0:
64,192,14559,128,0,15014:0:0:0:0:
192,192,15014,128,0,15317:0:0:0:0:
448,192,15166,1,0,0:0:0:0:
320,192,15317,128,0,15469:0:0:0:0:
64,192,15469,128,0,15620:0:0:0:0:
192,192,15469,1,0,0:0:0:0:
448,192,15772,128,0,15999:0:0:0:0:
192,192,15772,1,0,0:0:0:0:
448,192,16150,128,0,16378:0:0:0:0:
64,192,16378,1,0,0:0:0:0:
192,192,16681,128,0,16832:0:0:0:0:
448,192,16984,128,0,17211:0:0:0:0:
64,192,16984,1,0,0:0:0:0:
448,192,17287,128,0,17438:0:0:0:0:
320,192,17438,128,0,17590:0:0:0:0:
64,192,17438,1,0,0:0:0:0:
192,192,17590,128,0,17741:0:0:0:0:
448,192,17590,1,0,0:0:0:0:
448,192,17741,128,0,17893:0:0:0:0:
64,192,17893,128,0,18044:0:0:0:0:
320,192,17893,1,0,0:0:0:0:
320,192,18196,128,0,18423:0:0:0:0:
192,192,18196,1,0,0:0:0:0:
448,192,18499,1,0,0:0:0:0:
320,192,18575,128,0,18802:0:0:0:0:
64,192,18802,128,0,19105:0:0:0:0:
192,192,18802,1,0,0:0:0:0:
192,192,19105,128,0,19408:0:0:0:0:
320,192,19408,128,0,19711:0:0:0:0:
448,192,19408,1,0,0:0:0:0:
448,192,19711,128,0,19787:0:0:0:0:
64,192,19863,128,0,20090:0:0:0:0:
320,192,20014,1,0,0:0:0:0:
