osu file format v14

[General]
AudioFilename: audio.mp3
AudioLeadIn: 0
PreviewTime: -1
Countdown: 1
SampleSet: None
StackLeniency: 0.7
Mode: 3
LetterboxInBreaks: 0
SpecialStyle: 0
WidescreenStoryboard: 1

[Editor]
DistanceSpacing: 1
BeatDivisor: 16
GridSize: 32
TimelineZoom: 4.500003

[Metadata]
Title:Pingu Theme Trap Remix
TitleUnicode:Pingu Theme Trap Remix
Artist:MajorLeagueWobs
ArtistUnicode:MajorLeagueWobs
Creator:EL-S
Version:EZPZ
Source:
Tags:
BeatmapID:1342770
BeatmapSetID:632579

[Difficulty]
HPDrainRate:5
CircleSize:4
OverallDifficulty:5
ApproachRate:5
SliderMultiplier:1.4
SliderTickRate:1

[Events]
//Background and Video events
//Break Periods
//Storyboard Layer 0 (Background)
//Storyboard Layer 1 (Fail)
//Storyboard Layer 2 (Pass)
//Storyboard Layer 3 (Foreground)
//Storyboard Sound Samples

[TimingPoints]
34,606.060606060606,4,1,0,100,1,0
958,606.060606060606,4,1,0,100,1,0
1038,606.060606060606,4,1,0,100,1,0
4863,606.060606060606,4,1,0,100,1,0

[HitObjects]
64,192,34,128,0,438:0:0:0:0:
448,192,438,128,0,690:0:0:0:0:
64,192,1240,128,0,1644:0:0:0:0:
448,192,1644,128,0,1947:0:0:0:0:
64,192,2174,1,0,0:0:0:0:
64,192,2325,1,0,0:0:0:0:
192,192,2477,128,0,2856:0:0:0:0:
448,192,2856,128,0,3462:0:0:0:0:
320,192,3651,1,0,0:0:0:0:
192,192,3954,1,0,0:0:0:0:
320,192,4257,1,0,0:0:0:0:
64,192,4333,1,0,0:0:0:0:
448,192,4409,1,0,0:0:0:0:
64,192,4560,1,0,0:0:0:0:
320,192,4712,1,0,0:0:0:0:
64,192,4863,1,0,0:0:0:0:
448,192,4863,1,0,0:0:0:0:
448,192,5317,1,0,0:0:0:0:
64,192,5317,1,0,0:0:0:0:
320,192,5469,1,0,0:0:0:0:
192,192,5469,1,0,0:0:0:0:
64,192,5772,1,0,0:0:0:0:
448,192,5772,1,0,0:0:0:0:
64,192,6075,1,0,0:0:0:0:
448,192,6075,1,0,0:0:0:0:
320,192,6264,1,0,0:0:0:0:
192,192,6567,1,0,0:0:0:0:
64,192,6681,1,0,0:0:0:0:
448,192,6681,1,0,0:0:0:0:
320,192,6984,1,0,0:0:0:0:
192,192,7135,1,0,0:0:0:0:
448,192,7287,1,0,0:0:0:0:
64,192,7287,128,0,7741:0:0:0:0:
448,192,7741,128,0,8196:0:0:0:0:
192,192,8196,128,0,8726:0:0:0:0:
448,192,8726,128,0,9105:0:0:0:0:
64,192,9105,128,0,9408:0:0:0:0:
448,192,9408,128,0,9559:0:0:0:0:
64,192,9711,1,0,0:0:0:0:
64,192,9900,1,0,0:0:0:0:
448,192,10317,1,0,0:0:0:0:
64,192,10317,1,0,0:0:0:0:
64,192,10620,1,0,0:0:0:0:
448,192,10620,1,0,0:0:0:0:
448,192,10923,1,0,0:0:0:0:
448,192,11113,1,0,0:0:0:0:
64,192,11529,1,0,0:0:0:0:
448,192,11529,1,0,0:0:0:0:
64,192,12135,128,0,12590:0:0:0:0:
448,192,12590,128,0,13044:0:0:0:0:
64,192,13044,128,0,13650:0:0:0:0:
320,192,13650,128,0,13953:0:0:0:0:
192,192,13953,128,0,14105:0:0:0:0:
448,192,14559,1,0,0:0:0:0:
64,192,14559,128,0,15014:0:0:0:0:
320,192,15014,128,0,15317:0:0:0:0:
448,192,15317,128,0,15469:0:0:0:0:
64,192,15469,128,0,15620:0:0:0:0:
448,192,15772,128,0,15999:0:0:0:0:
448,192,16150,128,0,16378:0:0:0:0:
192,192,16681,128,0,16832:0:0:0:0:
448,192,17059,128,0,17287:0:0:0:0:
320,192,17287,128,0,17438:0:0:0:0:
64,192,17438,128,0,17590:0:0:0:0:
192,192,17590,128,0,17741:0:0:0:0:
448,192,17741,128,0,17893:0:0:0:0:
64,192,17893,128,0,18044:0:0:0:0:
320,192,18196,128,0,18423:0:0:0:0:
320,192,18575,128,0,18802:0:0:0:0:
64,192,18802,128,0,19105:0:0:0:0:
192,192,19105,128,0,19408:0:0:0:0:
320,192,19408,128,0,19711:0:0:0:0:
64,192,19711,128,0,19787:0:0:0:0:
64,192,19863,128,0,20090:0:0:0:0:
