osu file format v14

[General]
AudioFilename: H3h3Productions Theme Song.mp3
AudioLeadIn: 0
PreviewTime: 59507
Countdown: 0
SampleSet: Normal
StackLeniency: 0.7
Mode: 0
LetterboxInBreaks: 0
WidescreenStoryboard: 1

[Editor]
Bookmarks: 2061,10266,26676,43086,59497,75907,92061,92189,92317,92445,92574,100522
DistanceSpacing: 0.5
BeatDivisor: 4
GridSize: 8
TimelineZoom: 1.7

[Metadata]
Title:H3h3Productions Theme Song
TitleUnicode:H3h3Productions Theme Song
Artist:MajorLeagueWobs
ArtistUnicode:MajorLeagueWobs
Creator:Zectro
Version:Insan3
Source:
Tags:80's Holder MLW Ethan [h3] Hila -Lemons
BeatmapID:845205
BeatmapSetID:387227

[Difficulty]
HPDrainRate:7.5
CircleSize:4
OverallDifficulty:7
ApproachRate:8.7
SliderMultiplier:2.8
SliderTickRate:1

[Events]
//Background and Video events
0,0,"bg.png",0,0
Video,0,"vid.avi"
//Break Periods
//Storyboard Layer 0 (Background)
//Storyboard Layer 1 (Fail)
//Storyboard Layer 2 (Pass)
//Storyboard Layer 3 (Foreground)
//Storyboard Sound Samples

[TimingPoints]
20,512.820512820513,4,1,1,60,1,0
10276,-83.3333333333333,4,1,1,60,0,0
59507,-66.6666666666667,4,1,1,70,0,1
65148,-100,4,1,1,70,0,1
66686,-83.3333333333333,4,1,1,70,0,1
68481,-66.6666666666667,4,1,1,70,0,1
73866,-100,4,1,1,70,0,1
74891,-83.3333333333333,4,1,1,70,0,1
75404,-66.6666666666667,4,1,1,70,0,1
75917,-83.3333333333333,4,1,1,60,0,0
92455,-83.3333333333333,4,1,1,50,0,0
93353,-83.3333333333333,4,1,1,40,0,0
94378,-83.3333333333333,4,1,1,30,0,0
95404,-83.3333333333333,4,1,1,20,0,0
96430,-83.3333333333333,4,1,1,10,0,0

[Colours]
Combo1 : 218,41,138
Combo2 : 0,101,223
Combo3 : 111,2,157
Combo4 : 32,175,223

[HitObjects]
160,224,20,5,2,0:0:0:0:
344,92,532,1,8,0:0:0:0:
160,224,789,5,2,0:0:0:0:
248,120,1045,1,8,0:0:0:0:
248,84,1173,1,8,0:0:0:0:
248,48,1302,1,2,0:0:0:0:
160,224,1558,1,8,0:0:0:0:
248,48,1814,1,8,0:0:0:0:
248,84,1943,1,8,0:0:0:0:
248,120,2071,6,0,B|268:192|268:192|316:264,1,140,6|0,0:0|0:0,0:0:0:0:
128,120,2584,1,8,0:0:0:0:
304,244,2840,1,0,0:0:0:0:
272,220,2968,1,0,0:0:0:0:
240,196,3096,6,0,P|152:192|100:248,1,140,2|0,0:0|0:0,0:0:0:0:
266,58,3609,2,0,L|234:222,1,140,8|0,0:0|0:0,0:0:0:0:
295,321,4122,6,0,B|275:249|275:249|227:177,1,140,2|0,0:0|0:0,0:0:0:0:
416,322,4635,1,8,0:0:0:0:
238,194,4891,1,0,0:0:0:0:
272,222,5019,1,0,0:0:0:0:
304,246,5147,6,0,P|392:250|444:194,1,140,2|0,0:0|0:0,0:0:0:0:
277,383,5660,2,0,L|309:219,1,140,8|0,0:0|0:0,0:0:0:0:
136,288,6173,5,2,0:0:0:0:
236,112,6430,1,0,0:0:0:0:
208,144,6558,1,0,0:0:0:0:
184,176,6686,1,8,0:0:0:0:
276,272,6943,1,0,0:0:0:0:
304,240,7071,1,0,0:0:0:0:
328,208,7199,6,0,B|348:160|348:112|348:112|376:144,1,140,2|0,0:0|0:0,0:0:0:0:
432,228,7712,2,0,P|448:336|432:360,1,140,8|0,0:0|0:0,0:0:0:0:
376,144,8225,2,0,B|424:88|424:88|468:16,1,140,2|0,0:0|0:0,0:0:0:0:
196,248,8737,1,8,0:0:0:0:
432,228,8994,1,0,0:0:0:0:
392,216,9122,1,0,0:0:0:0:
352,204,9250,1,2,0:0:0:0:
120,136,9507,5,8,0:0:0:0:
320,356,9763,1,8,0:0:0:0:
228,72,10020,1,8,0:0:0:0:
236,112,10148,1,8,0:0:0:0:
244,152,10276,6,0,B|262:287|262:287|183:206|95:205,1,251.999992309571,6|0,0:0|2:0,0:0:0:0:
244,152,10789,2,0,P|340:108|361:105,1,83.9999974365236,8|0,0:0|2:0,0:0:0:0:
432,120,11045,2,0,B|496:196|496:196|422:182|411:194,1,167.999994873047,0|2,0:0|0:0,0:0:0:0:
244,152,11558,2,0,P|176:88|168:76,1,83.9999974365236,0|0,0:0|0:0,0:0:0:0:
204,176,11814,2,0,P|110:170|96:166,1,83.9999974365236,8|0,0:0|0:0,0:0:0:0:
180,212,12071,2,0,P|105:267|91:273,1,83.9999974365236,0|0,0:0|0:0,0:0:0:0:
180,96,12327,6,0,P|264:72|400:180,1,251.999992309571,2|0,0:0|2:0,0:0:0:0:
322,190,12840,2,0,P|259:150|235:154,1,83.9999974365235,8|0,0:0|0:0,0:0:0:0:
392,158,13096,2,0,L|460:270,1,83.9999974365235
338,272,13353,2,0,L|321:189,1,83.9999974365235,2|0,0:0|0:0,0:0:0:0:
243,200,13609,2,0,L|230:283,1,83.9999974365235,0|0,0:0|0:0,0:0:0:0:
126,250,13866,2,0,L|166:176,1,83.9999974365235,8|0,0:0|0:0,0:0:0:0:
99,132,14122,2,0,L|35:187,1,83.9999974365235,0|0,0:0|0:0,0:0:0:0:
174,96,14378,6,0,B|259:48|361:60|361:60|267:123|244:127,1,251.999992309571,2|0,0:0|2:0,0:0:0:0:
174,96,14891,2,0,L|101:30,1,83.9999974365235,8|0,0:0|0:0,0:0:0:0:
244,204,15148,1,0,0:0:0:0:
272,172,15276,1,0,0:0:0:0:
292,136,15404,6,0,B|329:82|339:39|339:39|380:84|352:176,1,251.999992309571,2|0,0:0|0:0,0:0:0:0:
187,189,15917,2,0,B|122:183|80:197|80:197|99:138|192:117,1,251.999992309571,2|0,0:0|0:0,0:0:0:0:
288,252,16430,2,0,B|315:311|348:341|348:341|288:354|223:284,1,251.999992309571,8|0,0:0|0:0,0:0:0:0:
292,134,16943,5,8,0:0:0:0:
81,195,17199,1,0,0:0:0:0:
381,85,17455,2,0,P|275:33|190:117,1,251.999992309571,2|0,0:0|0:0,0:0:0:0:
292,134,17968,1,8,0:0:0:0:
241,310,18225,1,0,0:0:0:0:
216,276,18353,1,0,0:0:0:0:
191,242,18481,6,0,B|140:147|140:147|133:237|83:284,1,251.999992309571,2|0,0:0|0:0,0:0:0:0:
140,147,18994,2,0,P|240:125|258:126,1,83.9999974365235,8|0,0:0|0:0,0:0:0:0:
318,128,19250,2,0,P|359:134|398:149,1,83.9999974365235,0|0,0:0|0:0,0:0:0:0:
204,216,19507,2,0,P|163:223|124:238,1,83.9999974365235,2|0,0:0|0:0,0:0:0:0:
328,212,19763,2,0,P|369:219|408:234,1,83.9999974365235,0|0,0:0|0:0,0:0:0:0:
204,216,20020,2,0,L|152:136,1,83.9999974365235,8|0,0:0|0:0,0:0:0:0:
328,212,20276,2,0,L|380:292,1,83.9999974365235
122,225,20532,6,0,B|20:188|40:48|40:48|88:96|152:68,1,335.999989746094,2|8,0:0|0:0,0:0:0:0:
272,272,21302,2,0,L|244:364,1,83.9999974365235,0|0,0:0|0:0,0:0:0:0:
324,104,21558,2,0,L|296:196,1,83.9999974365235,2|0,0:0|0:0,0:0:0:0:
399,152,21814,2,0,L|424:72,1,83.9999974365235,0|0,0:0|0:0,0:0:0:0:
472,212,22071,2,0,L|447:292,1,83.9999974365235,8|0,0:0|0:0,0:0:0:0:
348,324,22327,2,0,L|372:243,1,83.9999974365235,0|0,0:0|0:0,0:0:0:0:
424,72,22584,6,0,B|352:136|220:112|220:112|272:144,1,251.999992309571,2|0,0:0|2:0,0:0:0:0:
312,196,23096,2,0,P|376:272|392:312,1,83.9999974365235,8|0,0:0|0:0,0:0:0:0:
416,344,23353,1,0,0:0:0:0:
440,312,23481,1,0,0:0:0:0:
456,272,23609,2,0,P|460:164|260:112,2,335.999989746094,2|8|2,0:0|0:0|0:0,0:0:0:0:
322,281,24891,5,0,0:0:0:0:
282,264,25020,1,0,0:0:0:0:
256,230,25148,1,0,0:0:0:0:
456,272,25404,1,0,0:0:0:0:
332,200,25661,2,0,P|220:156|180:208,1,167.999994873047,2|8,0:0|0:0,0:0:0:0:
432,216,26173,1,8,0:0:0:0:
196,176,26430,1,8,0:0:0:0:
236,184,26558,1,8,0:0:0:0:
276,192,26686,6,0,L|480:148,1,167.999994873047,6|0,0:0|2:0,0:0:0:0:
104,208,27199,1,8,0:0:0:0:
348,244,27455,2,0,L|351:160,1,83.9999974365235,0|0,0:0|0:0,0:0:0:0:
268,40,27712,2,0,L|264:144,1,83.9999974365235,2|0,0:0|0:0,0:0:0:0:
144,324,27968,2,0,L|227:327,1,83.9999974365235,0|0,0:0|0:0,0:0:0:0:
348,244,28225,2,0,L|244:240,1,83.9999974365235,8|0,0:0|0:0,0:0:0:0:
52,228,28481,2,0,L|156:232,1,83.9999974365235,0|0,0:0|0:0,0:0:0:0:
264,240,28737,6,0,P|360:224|360:32,1,251.999992309571,2|0,0:0|2:0,0:0:0:0:
335,104,29250,2,0,L|348:188,1,83.9999974365235,8|0,0:0|0:0,0:0:0:0:
263,239,29507,2,0,L|251:156,1,83.9999974365235,0|0,0:0|0:0,0:0:0:0:
418,132,29763,2,0,L|430:215,1,83.9999974365235,2|0,0:0|0:0,0:0:0:0:
181,211,30020,2,0,L|168:128,1,83.9999974365235,0|0,0:0|0:0,0:0:0:0:
498,104,30276,2,0,L|518:240,1,83.9999974365235,8|0,0:0|0:0,0:0:0:0:
103,240,30532,2,0,L|82:105,1,83.9999974365235
352,32,30789,6,0,B|372:116|372:116|384:272|384:272|408:364,2,335.999989746094,2|8|2,0:0|0:0|0:0,0:0:0:0:
176,196,32071,1,0,0:0:0:0:
196,160,32199,1,0,0:0:0:0:
216,124,32327,1,8,0:0:0:0:
336,280,32584,1,0,0:0:0:0:
316,244,32712,1,0,0:0:0:0:
296,208,32840,6,0,P|360:156|240:56,1,251.999992309571,2|0,0:0|2:0,0:0:0:0:
281,124,33353,2,0,L|302:244,1,83.9999974365235,8|0,0:0|0:0,0:0:0:0:
362,259,33609,2,0,L|296:208,1,83.9999974365235
201,131,33866,5,2,0:0:0:0:
187,174,33994,1,0,0:0:0:0:
238,258,34122,1,0,0:0:0:0:
271,285,34250,1,0,0:0:0:0:
334,342,34378,5,8,0:0:0:0:
370,319,34506,1,0,0:0:0:0:
407,236,34634,1,0,0:0:0:0:
366,225,34762,1,0,0:0:0:0:
332,216,34891,6,0,P|244:204|364:136,1,335.999989746094,2|8,0:0|0:0,0:0:0:0:
352,180,35532,1,0,0:0:0:0:
332,216,35661,2,0,P|248:248|208:248,1,83.9999974365235,0|0,0:0|0:0,0:0:0:0:
357,119,35917,2,0,P|441:87|481:87,1,83.9999974365235,2|0,0:0|0:0,0:0:0:0:
254,247,36173,2,0,P|170:279|130:279,1,83.9999974365235,0|0,0:0|0:0,0:0:0:0:
434,87,36430,2,0,P|518:55|558:55,1,83.9999974365235,8|0,0:0|0:0,0:0:0:0:
176,278,36686,2,0,P|92:310|52:310,1,83.9999974365235,0|0,0:0|0:0,0:0:0:0:
200,128,36943,6,0,P|284:96|444:168,1,251.999992309571,2|0,0:0|0:0,0:0:0:0:
348,188,37455,2,0,P|309:174|252:188,1,83.9999974365235,8|0,0:0|0:0,0:0:0:0:
429,150,37712,2,0,P|468:164|525:150,1,83.9999974365235,0|0,0:0|0:0,0:0:0:0:
268,180,37968,2,0,L|240:272,1,83.9999974365235,2|0,0:0|0:0,0:0:0:0:
484,238,38225,2,0,L|509:158,1,83.9999974365235,0|0,0:0|0:0,0:0:0:0:
163,47,38481,2,0,L|191:139,1,83.9999974365235,8|0,0:0|0:0,0:0:0:0:
428,149,38737,2,0,L|404:69,1,83.9999974365235,0|0,0:0|0:0,0:0:0:0:
187,127,38994,6,0,B|263:175|263:175|364:272|364:272|467:343,2,335.999989746094,2|8|2,0:0|0:0|0:0,0:0:0:0:
388,188,40276,1,0,0:0:0:0:
368,152,40404,1,0,0:0:0:0:
344,116,40532,1,8,0:0:0:0:
160,264,40789,1,0,0:0:0:0:
168,224,40917,1,0,0:0:0:0:
180,184,41045,6,0,P|244:116|284:240,1,251.999992309571,2|0,0:0|0:0,0:0:0:0:
180,184,41558,2,0,P|132:88|132:76,1,83.9999974365235,8|0,0:0|0:0,0:0:0:0:
347,150,41814,2,0,P|330:188|303:220,1,83.9999974365235,0|0,0:0|0:0,0:0:0:0:
128,296,42071,5,2,0:0:0:0:
100,328,42199,1,0,0:0:0:0:
184,228,42327,5,8,0:0:0:0:
156,196,42455,1,0,0:0:0:0:
280,260,42584,5,8,0:0:0:0:
252,292,42712,1,0,0:0:0:0:
336,192,42840,5,8,0:0:0:0:
308,160,42968,1,8,0:0:0:0:
276,132,43096,5,4,0:0:0:0:
336,368,43481,1,0,0:0:0:0:
252,248,43737,1,0,0:0:0:0:
260,208,43866,1,0,0:0:0:0:
276,132,44122,5,0,0:0:0:0:
252,248,44378,1,0,0:0:0:0:
260,208,44507,1,0,0:0:0:0:
276,132,44635,1,8,0:0:0:0:
302,101,44764,1,0,0:0:0:0:
268,28,44891,1,0,0:0:0:0:
252,248,45148,5,2,0:0:0:0:
302,101,45532,1,0,0:0:0:0:
276,132,45661,1,8,0:0:0:0:
252,248,45917,5,0,0:0:0:0:
76,272,46173,1,2,0:0:0:0:
252,304,46430,1,0,0:0:0:0:
424,272,46686,1,8,0:0:0:0:
400,240,46814,1,0,0:0:0:0:
376,204,46943,1,0,0:0:0:0:
302,101,47199,5,2,0:0:0:0:
252,248,47584,1,0,0:0:0:0:
260,208,47713,1,8,0:0:0:0:
184,296,47968,1,0,0:0:0:0:
276,132,48225,6,0,B|372:120|400:48|400:48|408:152|452:184,1,251.999992309571,2|0,0:0|2:0,0:0:0:0:
389,183,48737,2,0,P|325:243|329:111,1,251.999992309571,8|0,0:0|2:0,0:0:0:0:
400,48,49250,2,0,P|476:88|456:240,1,251.999992309571,2|0,0:0|2:0,0:0:0:0:
389,183,49763,1,8,0:0:0:0:
275,131,50020,1,0,0:0:0:0:
304,248,50276,2,0,P|304:337|270:254,1,251.999992309571,2|0,0:0|2:0,0:0:0:0:
304,248,50789,2,0,P|376:184|368:96,1,167.999994873047,8|0,0:0|0:0,0:0:0:0:
189,26,51302,6,0,B|233:106|233:106|241:150|241:150|305:250,1,251.999992309571,2|0,0:0|0:0,0:0:0:0:
328,280,51814,1,8,0:0:0:0:
148,168,52071,1,0,0:0:0:0:
336,84,52327,1,2,0:0:0:0:
156,180,52584,1,0,0:0:0:0:
344,96,52840,1,8,0:0:0:0:
304,104,52968,1,0,0:0:0:0:
264,112,53096,1,0,0:0:0:0:
164,192,53353,6,0,P|240:248|160:232,1,251.999992309571,2|0,0:0|2:0,0:0:0:0:
164,192,53866,2,0,P|172:104|112:48,1,167.999994873047,8|0,0:0|0:0,0:0:0:0:
92,272,54378,1,2,0:0:0:0:
344,185,54635,1,0,0:0:0:0:
355,129,54763,1,0,0:0:0:0:
305,100,54892,1,0,0:0:0:0:
261,139,55020,1,0,0:0:0:0:
285,192,55148,1,0,0:0:0:0:
208,248,55404,6,0,P|120:296|76:188,1,167.999994873047,2|0,0:0|0:0,0:0:0:0:
138,223,55789,1,0,0:0:0:0:
160,188,55917,1,8,0:0:0:0:
88,368,56173,1,0,0:0:0:0:
88,72,56430,1,2,0:0:0:0:
216,332,56686,1,0,0:0:0:0:
212,292,56814,1,0,0:0:0:0:
208,248,56943,1,8,0:0:0:0:
83,177,57199,1,0,0:0:0:0:
79,221,57327,1,0,0:0:0:0:
75,261,57456,5,2,0:0:0:0:
200,164,57712,1,0,0:0:0:0:
196,124,57840,1,0,0:0:0:0:
192,80,57969,1,8,0:0:0:0:
75,261,58225,1,0,0:0:0:0:
192,80,58481,1,2,0:0:0:0:
76,248,58737,5,8,0:0:0:0:
193,67,58994,1,8,0:0:0:0:
76,248,59250,1,8,0:0:0:0:
89,287,59378,1,8,0:0:0:0:
104,328,59507,6,0,P|208:348|416:172,1,315.000012016297,6|0,0:0|2:0,0:0:0:0:
420,156,60020,1,8,0:0:0:0:
420,156,60276,2,0,L|256:208,1,140.000005340576,0|0,0:0|2:0,0:0:0:0:
152,184,60532,2,0,L|316:236,1,140.000005340576,2|0,0:0|2:0,0:0:0:0:
424,212,60789,2,0,L|260:264,1,140.000005340576,0|0,0:0|2:0,0:0:0:0:
156,240,61045,2,0,L|320:292,1,140.000005340576,8|0,0:0|2:0,0:0:0:0:
424,264,61302,2,0,L|260:316,1,140.000005340576,0|0,0:0|2:0,0:0:0:0:
156,292,61558,6,0,B|284:332|284:332|485:267,1,315.000012016297,2|0,0:0|2:0,0:0:0:0:
437,280,62071,2,0,L|371:124,1,140.000005340576,8|0,0:0|2:0,0:0:0:0:
327,22,62327,2,0,L|393:178,1,140.000005340576,0|0,0:0|2:0,0:0:0:0:
329,280,62584,2,0,L|393:123,1,140.000005340576,2|0,0:0|2:0,0:0:0:0:
435,21,62840,2,0,L|371:178,1,140.000005340576,0|0,0:0|2:0,0:0:0:0:
253,205,63096,2,0,L|409:139,1,140.000005340576,8|0,0:0|2:0,0:0:0:0:
512,99,63353,2,0,L|357:162,1,140.000005340576,0|0,0:0|2:0,0:0:0:0:
247,104,63609,6,0,B|392:165|392:165|488:253,1,210.000008010865,2|0,0:0|0:0,0:0:0:0:
477,258,63994,1,0,0:0:0:0:
488,331,64122,1,8,0:0:0:0:
339,311,64378,5,0,0:0:0:0:
370,242,64507,1,0,0:0:0:0:
430,200,64635,1,2,0:0:0:0:
430,60,64891,5,0,0:0:0:0:
453,130,65020,1,0,0:0:0:0:
430,200,65148,2,0,B|398:281|398:281|344:227|246:292,1,210,8|0,0:0|0:0,0:0:0:0:
337,345,65661,6,0,B|361:293|356:174|356:174|326:203,1,210,2|0,0:0|0:0,0:0:0:0:
283,270,66173,2,0,L|208:299,1,70,8|0,0:0|0:0,0:0:0:0:
97,263,66430,2,0,L|172:234,1,70,0|0,0:0|0:0,0:0:0:0:
324,183,66686,2,0,P|387:93|218:84,2,335.999989746094,2|8|2,0:0|0:0|0:0,0:0:0:0:
228,57,67968,5,0,0:0:0:0:
170,44,68096,1,0,0:0:0:0:
112,55,68225,1,8,0:0:0:0:
116,204,68481,2,0,L|249:162,1,140.000005340576,0|0,0:0|2:0,0:0:0:0:
335,171,68737,2,0,L|201:212,1,140.000005340576,2|0,0:0|2:0,0:0:0:0:
116,273,68994,2,0,L|272:224,1,140.000005340576,0|0,0:0|2:0,0:0:0:0:
372,229,69250,2,0,L|215:277,1,140.000005340576,8|0,0:0|2:0,0:0:0:0:
84,352,69507,2,0,L|280:291,1,140.000005340576,0|0,0:0|2:0,0:0:0:0:
403,289,69763,6,0,B|71:391,1,315.000012016297,2|0,0:0|2:0,0:0:0:0:
95,349,70276,2,0,L|128:195,1,140.000005340576,8|0,0:0|2:0,0:0:0:0:
159,243,70532,2,0,L|191:88,1,140.000005340576,0|0,0:0|2:0,0:0:0:0:
244,106,70789,2,0,L|272:243,1,140.000005340576,2|0,0:0|2:0,0:0:0:0:
307,213,71045,2,0,L|335:350,1,140.000005340576,0|0,0:0|2:0,0:0:0:0:
159,243,71302,2,0,L|191:88,1,140.000005340576,8|0,0:0|2:0,0:0:0:0:
307,213,71558,2,0,L|335:350,1,140.000005340576,0|0,0:0|2:0,0:0:0:0:
95,349,71814,6,0,L|152:70,1,210.000008010865,2|0,0:0|0:0,0:0:0:0:
154,71,72199,1,0,0:0:0:0:
174,0,72327,1,8,0:0:0:0:
290,0,72584,5,0,0:0:0:0:
310,71,72713,1,0,0:0:0:0:
326,143,72840,2,0,L|368:349,1,210.000008010865,2|0,0:0|0:0,0:0:0:0:
87,341,73353,2,0,L|143:61,1,210.000008010865,8|0,0:0|0:0,0:0:0:0:
351,119,73866,6,0,L|392:324,1,210.000008010865,2|0,0:0|0:0,0:0:0:0:
392,324,74378,2,0,L|307:292,1,70,8|0,0:0|0:0,0:0:0:0:
249,267,74635,2,0,L|163:234,1,70,0|0,0:0|0:0,0:0:0:0:
175,126,74891,6,0,L|266:164,1,83.9999974365235,2|0,0:0|0:0,0:0:0:0:
328,190,75148,2,0,L|421:227,1,83.9999974365235,8|0,0:0|0:0,0:0:0:0:
471,136,75404,6,0,L|368:92,1,105.000004005432,8|0,0:0|0:0,0:0:0:0:
306,64,75661,1,8,0:0:0:0:
238,34,75789,1,8,0:0:0:0:
171,64,75917,6,0,P|142:161|6:109,1,251.999992309571,6|0,0:0|2:0,0:0:0:0:
171,64,76430,2,0,L|267:21,1,83.9999974365235,0|0,0:0|2:0,0:0:0:0:
92,97,76686,1,0,0:0:0:0:
88,252,76943,1,2,0:0:0:0:
171,64,77199,5,0,0:0:0:0:
16,136,77455,1,8,0:0:0:0:
160,225,77712,1,0,0:0:0:0:
41,203,77968,6,0,B|55:272|55:272|87:196|91:96,1,251.999992309571,2|0,0:0|2:0,0:0:0:0:
80,21,78481,1,8,0:0:0:0:
80,21,78737,1,0,0:0:0:0:
120,29,78866,1,0,0:0:0:0:
156,53,78994,6,0,L|204:133,1,83.9999974365235,2|0,0:0|2:0,0:0:0:0:
288,273,79250,2,0,L|240:193,1,83.9999974365235,0|0,0:0|2:0,0:0:0:0:
253,38,79507,2,0,L|230:129,1,83.9999974365235,8|0,0:0|2:0,0:0:0:0:
190,287,79763,2,0,L|213:196,1,83.9999974365235,0|0,0:0|2:0,0:0:0:0:
332,97,80020,6,0,B|208:165|208:165|282:161|356:189,1,251.999992309571,2|0,0:0|2:0,0:0:0:0:
193,244,80532,2,0,B|158:229|84:233|84:233|208:165,1,251.999992309571,8|0,0:0|2:0,0:0:0:0:
316,210,81045,6,0,B|411:234|435:282|435:282|355:298|328:280,1,251.999992309571,2|0,0:0|2:0,0:0:0:0:
124,267,81558,2,0,B|95:281|69:359|69:359|123:362|191:291,1,251.999992309571,8|0,0:0|2:0,0:0:0:0:
237,97,82071,2,0,B|239:65|185:4|185:4|155:48|183:143,1,251.999992309571,2|0,0:0|2:0,0:0:0:0:
232,204,82584,1,8,0:0:0:0:
296,152,82840,5,0,0:0:0:0:
328,124,82968,1,0,0:0:0:0:
352,88,83096,1,2,0:0:0:0:
168,256,83353,1,0,0:0:0:0:
136,284,83481,1,0,0:0:0:0:
112,320,83609,1,8,0:0:0:0:
232,204,83866,1,0,0:0:0:0:
272,296,84122,6,0,P|352:348|416:220,1,251.999992309571,2|0,0:0|0:0,0:0:0:0:
272,296,84635,2,0,P|180:300|168:296,1,83.9999974365235,8|0,0:0|0:0,0:0:0:0:
348,264,84891,1,0,0:0:0:0:
160,208,85148,1,2,0:0:0:0:
432,341,85661,2,0,P|316:321|348:205,1,251.999992309571,8|0,0:0|0:0,0:0:0:0:
384,277,86173,6,0,P|280:321|264:317,1,83.9999974365235,2|0,0:0|0:0,0:0:0:0:
400,181,86430,1,0,0:0:0:0:
396,141,86558,1,0,0:0:0:0:
380,101,86686,1,8,0:0:0:0:
264,225,86943,1,0,0:0:0:0:
380,101,87199,1,2,0:0:0:0:
176,289,87712,2,0,P|96:341|32:213,1,251.999992309571,8|0,0:0|0:0,0:0:0:0:
176,289,88225,6,0,P|268:293|280:289,1,83.9999974365235,2|0,0:0|0:0,0:0:0:0:
100,257,88481,1,0,0:0:0:0:
92,217,88609,1,0,0:0:0:0:
100,177,88737,1,8,0:0:0:0:
176,289,88994,1,0,0:0:0:0:
184,329,89122,1,0,0:0:0:0:
176,369,89250,1,2,0:0:0:0:
272,149,89763,2,0,P|352:97|416:225,1,251.999992309571,8|0,0:0|2:0,0:0:0:0:
272,149,90276,6,0,P|180:145|168:149,1,83.9999974365235,2|0,0:0|2:0,0:0:0:0:
428,333,90789,1,8,0:0:0:0:
426,203,91045,1,2,0:0:0:0:
328,289,91302,1,8,0:0:0:0:
288,305,91430,1,8,0:0:0:0:
248,309,91558,1,2,0:0:0:0:
426,203,91814,1,8,0:0:0:0:
204,165,92071,1,8,0:0:0:0:
236,193,92199,1,8,0:0:0:0:
276,209,92327,5,6,0:0:0:0:
256,192,92455,12,4,96430,0:0:0:0:
