osu file format v14

[General]
AudioFilename: audio.mp3
AudioLeadIn: 0
PreviewTime: 26923
Countdown: 0
SampleSet: Soft
StackLeniency: 0.7
Mode: 2
LetterboxInBreaks: 0
WidescreenStoryboard: 1

[Editor]
Bookmarks: 44867
DistanceSpacing: 1.3
BeatDivisor: 4
GridSize: 8
TimelineZoom: 1.2

[Metadata]
Title:Cory In The House
TitleUnicode:Cory In The House
Artist:MajorLeagueWobs
ArtistUnicode:MajorLeagueWobs
Creator:ScarletRose
Version:Salad
Source:
Tags:Scarlet Rose Cory In The House Meme Anime Opening
BeatmapID:1526784
BeatmapSetID:723303

[Difficulty]
HPDrainRate:4
CircleSize:2.5
OverallDifficulty:6.7
ApproachRate:6.7
SliderMultiplier:1.34999990463257
SliderTickRate:1

[Events]
//Background and Video events
0,0,"thebg.jpg",0,0
//Break Periods
//Storyboard Layer 0 (Background)
//Storyboard Layer 1 (Fail)
//Storyboard Layer 2 (Pass)
//Storyboard Layer 3 (Foreground)
//Storyboard Sound Samples

[TimingPoints]
3933,560.747663551402,4,2,0,65,1,0
8979,-100,4,2,0,65,0,0
26923,-100,4,2,0,65,0,1
35755,-100,4,2,0,65,0,0
35895,-100,4,2,0,65,0,1
44867,-100,4,2,0,65,0,0

[HitObjects]
256,192,4493,12,0,7858,0:0:0:0:
128,192,8979,5,0,0:0:0:0:
320,192,9540,2,0,L|392:192,2,67.4999952316284
480,192,10661,1,0,0:0:0:0:
256,192,11222,6,0,L|184:192,1,67.4999952316284
384,192,12063,1,0,0:0:0:0:
256,192,12344,1,0,0:0:0:0:
384,192,12624,1,0,0:0:0:0:
176,192,13185,1,0,0:0:0:0:
448,192,13465,5,0,0:0:0:0:
288,192,14026,1,0,0:0:0:0:
160,192,14306,2,0,L|248:192,1,67.4999952316285
80,192,15007,1,0,0:0:0:0:
256,192,15428,1,0,0:0:0:0:
32,192,15708,6,0,L|104:192,1,67.4999952316285
288,192,16549,2,0,L|216:192,2,67.4999952316285
416,192,17671,1,0,0:0:0:0:
232,192,17951,6,0,L|96:192,1,134.999990463257
232,192,19073,1,0,0:0:0:0:
448,192,19633,1,0,0:0:0:0:
256,192,20194,6,0,L|184:192,1,67.4999952316285
304,192,20755,1,0,0:0:0:0:
128,192,21316,1,0,0:0:0:0:
336,192,21876,1,0,0:0:0:0:
128,192,22437,6,0,L|256:152,1,134.999990463257
160,192,23278,2,0,L|96:168,1,67.4999952316285
288,192,24119,1,0,0:0:0:0:
96,192,24680,6,0,L|160:168,2,67.4999952316285
256,192,25802,2,0,L|392:192,1,134.999990463257
0,192,26923,6,0,L|64:168,1,67.4999952316285
176,192,27484,2,0,L|112:168,1,67.4999952316285
208,192,28045,2,0,L|272:168,1,67.4999952316285
400,192,28605,1,0,0:0:0:0:
288,192,28886,1,0,0:0:0:0:
176,192,29166,6,0,L|112:168,1,67.4999952316285
320,192,30007,2,0,L|256:168,2,67.4999952316285
128,192,31129,1,0,0:0:0:0:
352,192,31409,6,0,L|416:168,1,67.4999952316285
280,192,31970,2,0,L|344:168,1,67.4999952316285
240,192,32531,2,0,L|176:168,1,67.4999952316285
80,192,33091,1,0,0:0:0:0:
176,192,33372,1,0,0:0:0:0:
80,192,33652,6,0,L|16:168,1,67.4999952316285
192,192,34493,2,0,L|256:168,2,67.4999952316285
64,192,35615,1,0,0:0:0:0:
288,192,35895,6,0,L|352:168,1,67.4999952316285
88,192,36736,2,0,L|24:168,1,67.4999952316285
128,192,37297,2,0,L|192:168,1,67.4999952316285
256,192,37858,1,0,0:0:0:0:
480,192,38138,6,0,L|416:168,1,67.4999952316285
224,192,38979,2,0,L|160:168,2,67.4999952316285
432,192,40101,1,0,0:0:0:0:
256,192,40381,5,0,0:0:0:0:
32,192,41222,2,0,L|96:168,1,67.4999952316285
288,192,42063,1,0,0:0:0:0:
480,192,42624,6,0,L|416:168,2,67.4999952316285
368,192,43465,2,0,L|432:168,1,67.4999952316285
320,192,44026,1,0,0:0:0:0:
176,192,44587,1,0,0:0:0:0:
256,192,44867,12,0,47110,0:0:0:0:
