osu file format v14

[General]
AudioFilename: audio.mp3
AudioLeadIn: 0
PreviewTime: 26923
Countdown: 0
SampleSet: Soft
StackLeniency: 0.7
Mode: 2
LetterboxInBreaks: 0
WidescreenStoryboard: 1

[Editor]
Bookmarks: 4213,44867
DistanceSpacing: 1.3
BeatDivisor: 6
GridSize: 8
TimelineZoom: 2.3

[Metadata]
Title:Cory In The House
TitleUnicode:Cory In The House
Artist:MajorLeagueWobs
ArtistUnicode:MajorLeagueWobs
Creator:ScarletRose
Version:Platter
Source:
Tags:Scarlet Rose Cory In The House Meme Anime Opening
BeatmapID:1526782
BeatmapSetID:723303

[Difficulty]
HPDrainRate:5
CircleSize:3
OverallDifficulty:5
ApproachRate:8
SliderMultiplier:2.09999990463257
SliderTickRate:2

[Events]
//Background and Video events
0,0,"thebg.jpg",0,0
//Break Periods
//Storyboard Layer 0 (Background)
//Storyboard Layer 1 (Fail)
//Storyboard Layer 2 (Pass)
//Storyboard Layer 3 (Foreground)
//Storyboard Sound Samples

[TimingPoints]
3933,560.747663551402,4,2,0,65,1,0
8979,-100,4,2,0,65,0,0
26923,-100,4,2,0,65,0,1
35755,-100,4,2,0,65,0,0
35895,-100,4,2,0,65,0,1
44867,-100,4,2,0,65,0,0

[HitObjects]
256,192,4213,12,0,7297,0:0:0:0:
220,160,8979,6,0,L|332:160,2,104.999995231629
40,160,9820,1,0,0:0:0:0:
292,80,10101,6,0,L|372:168,1,99.9999952316285
480,160,10661,2,0,L|400:248,1,99.9999952316285
272,304,11222,6,0,L|376:304,1,99.9999952316285
176,264,11783,2,0,L|288:264,1,99.9999952316285
104,264,12344,6,0,L|72:216,1,33.3333317438762
24,264,12531,2,0,L|56:216,1,33.3333317438762
128,232,12718,2,0,L|96:184,1,33.3333317438762
40,192,12904,2,0,L|160:192,1,99.9999952316285
204,192,13465,5,0,0:0:0:0:
368,192,13746,1,0,0:0:0:0:
128,160,14026,1,0,0:0:0:0:
480,160,14306,1,0,0:0:0:0:
288,192,14587,6,0,L|288:176,15,13.1249994039536
288,120,15147,6,0,L|176:120,1,104.999995231629
240,88,15568,1,0,0:0:0:0:
288,48,15708,2,0,L|408:48,1,104.999995231629
224,192,16269,6,0,L|144:96,1,104.999995231629
32,32,16830,2,0,L|152:32,1,104.999995231629
256,32,17390,5,0,0:0:0:0:
296,32,17484,1,0,0:0:0:0:
336,32,17577,1,0,0:0:0:0:
376,32,17671,1,0,0:0:0:0:
336,64,17764,5,0,0:0:0:0:
376,64,17858,1,0,0:0:0:0:
416,64,17951,1,0,0:0:0:0:
488,64,18232,5,0,0:0:0:0:
296,104,18512,1,0,0:0:0:0:
488,136,18792,1,0,0:0:0:0:
128,176,19073,6,0,L|118:200,1,26.2499988079071
80,208,19213,2,0,L|89:232,1,26.2499988079071
128,240,19353,1,0,0:0:0:0:
304,240,19633,5,0,0:0:0:0:
336,240,19704,1,0,0:0:0:0:
376,240,19774,1,0,0:0:0:0:
408,240,19844,1,0,0:0:0:0:
440,240,19914,6,0,L|504:240,2,52.4999976158143
384,168,20334,2,0,L|288:168,2,52.4999976158143
440,96,20755,6,0,L|504:96,1,52.4999976158143
384,96,21035,2,0,L|328:32,1,52.4999976158143
264,56,21316,6,0,L|200:56,1,34.9999984105428
168,112,21503,2,0,L|224:112,1,34.9999984105428
264,168,21690,2,0,L|208:168,1,34.9999984105428
168,216,21876,5,0,0:0:0:0:
248,216,22063,2,0,L|296:280,1,69.9999968210857
176,40,22437,6,0,L|112:128,1,104.999995231629
336,40,22998,2,0,L|400:128,1,104.999995231629
232,104,23559,5,0,0:0:0:0:
264,112,23629,1,0,0:0:0:0:
296,136,23699,1,0,0:0:0:0:
320,168,23769,1,0,0:0:0:0:
328,192,23839,6,0,P|360:224|328:272,1,104.999995231629
296,272,24190,5,0,0:0:0:0:
256,272,24260,1,0,0:0:0:0:
224,272,24330,1,0,0:0:0:0:
184,272,24400,2,0,L|112:272,1,52.4999976158143
32,272,24680,6,0,P|80:232|16:112,2,209.999990463257
64,272,25895,5,0,0:0:0:0:
96,272,25989,1,0,0:0:0:0:
176,208,26082,5,0,0:0:0:0:
144,208,26175,1,0,0:0:0:0:
104,208,26269,1,0,0:0:0:0:
296,208,26362,5,0,0:0:0:0:
336,208,26456,1,0,0:0:0:0:
384,208,26549,1,0,0:0:0:0:
464,136,26643,5,0,0:0:0:0:
416,136,26736,1,0,0:0:0:0:
360,136,26830,1,0,0:0:0:0:
256,136,26923,6,0,L|120:136,1,104.999995231629
368,72,27484,2,0,L|256:72,1,104.999995231629
120,224,28045,6,0,L|224:224,1,104.999995231629
120,296,28605,2,0,P|64:248|128:144,1,209.999990463257
320,64,29447,1,0,0:0:0:0:
208,136,29727,2,0,L|344:136,1,104.999995231629
448,136,30288,6,0,L|368:136,2,52.4999976158143
296,216,30848,2,0,L|240:320,1,104.999995231629
96,192,31409,6,0,L|24:96,1,104.999995231629
416,192,31970,2,0,L|488:96,1,104.999995231629
256,192,32531,2,0,L|184:96,1,104.999995231629
328,288,33091,2,0,L|208:288,2,104.999995231629
128,288,33933,6,0,P|72:240|40:104,1,209.999990463257
176,32,34774,2,0,L|176:96,1,34.9999984105428
232,32,34961,2,0,L|232:88,1,34.9999984105428
320,32,35147,6,0,L|320:96,1,34.9999984105428
264,32,35334,2,0,L|264:88,1,34.9999984105428
176,104,35521,6,0,L|176:168,1,34.9999984105428
232,104,35708,2,0,L|272:104,1,34.9999984105428
440,104,35895,6,0,L|568:104,2,104.999995231629
224,224,36736,2,0,L|112:224,2,104.999995231629
360,288,37577,6,0,P|408:248|344:128,1,209.999990463257
88,32,38418,5,0,0:0:0:0:
272,32,38699,2,0,L|224:160,1,104.999995231629
72,160,39260,2,0,L|120:288,1,104.999995231629
288,192,39820,2,0,L|336:320,1,104.999995231629
440,288,40381,5,0,0:0:0:0:
488,288,40661,1,0,0:0:0:0:
256,288,40942,2,0,B|176:288|176:288|104:168,1,209.999990463257
256,32,41783,6,0,L|480:32,1,209.999990463257
360,88,42624,1,0,0:0:0:0:
400,112,42904,1,0,0:0:0:0:
448,120,43185,5,0,0:0:0:0:
96,32,43465,1,0,0:0:0:0:
256,32,43746,6,0,L|296:32,1,34.9999984105428
360,80,43933,2,0,L|304:80,1,34.9999984105428
256,80,44119,2,0,L|216:80,1,34.9999984105428
152,136,44306,6,0,L|208:136,1,34.9999984105428
256,136,44493,2,0,L|304:136,1,34.9999984105428
360,136,44680,1,0,0:0:0:0:
256,192,44867,12,0,47110,0:0:0:0:
