osu file format v14

[General]
AudioFilename: audio.mp3
AudioLeadIn: 0
PreviewTime: 67844
Countdown: 0
SampleSet: None
StackLeniency: 0.6
Mode: 0
LetterboxInBreaks: 0
WidescreenStoryboard: 0

[Editor]
DistanceSpacing: 1
BeatDivisor: 4
GridSize: 4
TimelineZoom: 1.2

[Metadata]
Title:Never Hold Us Back
TitleUnicode:Never Hold Us Back
Artist:Major Look
ArtistUnicode:Major Look
Creator:vanucik
Version:Insane
Source:
Tags:electronic cut drum and bass dubstep short cut version male vocal trap
BeatmapID:944048
BeatmapSetID:438577

[Difficulty]
HPDrainRate:7
CircleSize:4
OverallDifficulty:8
ApproachRate:9
SliderMultiplier:1.4
SliderTickRate:1

[Events]
//Background and Video events
0,0,"maxresdefaultmajorlook.jpg",0,0
//Break Periods
2,46958,55072
//Storyboard Layer 0 (Background)
//Storyboard Layer 1 (Fail)
//Storyboard Layer 2 (Pass)
//Storyboard Layer 3 (Foreground)
//Storyboard Sound Samples

[TimingPoints]
130,342.857142857143,4,3,1,70,1,0
2872,-83.3333333333333,4,3,1,70,0,0
5187,-83.3333333333333,4,3,1,5,0,0
5272,-83.3333333333333,4,3,1,70,0,0
6558,-83.3333333333333,4,3,1,5,0,0
6644,-83.3333333333333,4,3,1,70,0,0
7930,-83.3333333333333,4,3,1,5,0,0
8015,-83.3333333333333,4,3,1,70,0,0
9301,-83.3333333333333,4,3,1,5,0,0
9387,-83.3333333333333,4,3,1,70,0,0
10672,-83.3333333333333,4,3,1,5,0,0
10758,-83.3333333333333,4,3,1,70,0,0
13844,-90.9090909090909,4,3,1,70,0,0
17872,-90.9090909090909,4,3,1,5,0,0
17958,-90.9090909090909,4,3,1,70,0,0
27130,-90.9090909090909,4,3,1,5,0,0
27215,-90.9090909090909,4,3,1,70,0,0
28501,-90.9090909090909,4,3,1,5,0,0
28587,-90.9090909090909,4,3,1,70,0,0
29872,-90.9090909090909,4,3,1,5,0,0
29958,-90.9090909090909,4,3,1,70,0,0
35787,-100,4,3,1,50,0,0
44015,-100,4,3,1,70,0,0
46758,-100,4,3,1,70,0,0
57730,-111.111111111111,4,3,1,70,0,0
67844,-111.111111111111,4,3,1,50,0,0
68530,-111.111111111111,4,3,1,40,0,0
68701,-71.4285714285714,4,3,1,80,0,1
74101,-71.4285714285714,4,3,1,5,0,1
74187,-71.4285714285714,4,3,1,80,0,1
85072,-71.4285714285714,4,3,1,5,0,1
85158,-100,4,3,1,70,0,0
90644,-76.9230769230769,4,3,1,70,0,0
90901,-76.9230769230769,4,3,1,5,0,0
90987,-76.9230769230769,4,3,1,80,0,1
107015,-76.9230769230769,4,3,1,5,0,1
107101,-90.9090909090909,4,3,1,70,0,0
107787,-76.9230769230769,4,3,1,70,0,0
112587,-100,4,3,1,70,0,0
119015,-100,4,3,1,5,0,0
119101,-100,4,3,1,70,0,0
126558,-100,4,3,1,5,0,0
126644,-100,4,3,1,70,0,0
128615,-100,4,3,1,5,0,0
128701,-100,4,3,1,70,0,0
134530,-83.3333333333333,4,3,1,80,0,0
138215,-83.3333333333333,4,3,1,5,0,0
138301,-83.3333333333333,4,3,1,80,0,0
140958,-83.3333333333333,4,3,1,5,0,0
141044,-83.3333333333333,4,3,1,80,0,0
145501,-86.9565217391304,4,3,1,50,0,0
150901,-86.9565217391304,4,3,1,5,0,0
150987,-86.9565217391304,4,3,1,50,0,0
153730,-86.9565217391304,4,3,1,70,0,0

[Colours]
Combo1 : 255,128,0
Combo2 : 215,0,0
Combo3 : 255,140,140

[HitObjects]
210,334,130,5,0,0:0:0:0:
316,258,301,2,0,B|366:263|365:263,2,35,0|0|0,0:0|0:0|0:0,0:0:0:0:
192,180,644,1,0,0:0:0:0:
322,108,815,2,0,B|372:113|371:113,2,35,0|0|0,0:0|0:0|0:0,0:0:0:0:
181,35,1158,1,0,0:0:0:0:
79,153,1329,1,0,0:0:0:0:
79,153,1415,1,0,0:0:0:0:
79,153,1501,6,0,P|80:198|92:229,1,70,0|0,0:0|0:0,0:0:0:0:
225,305,1844,2,0,L|216:344,2,35,0|0|0,0:0|0:0|0:0,0:0:0:0:
405,276,2187,1,0,0:0:0:0:
417,243,2272,1,0,0:0:0:0:
404,210,2358,1,0,0:0:0:0:
402,174,2444,1,0,0:0:0:0:
372,154,2530,1,0,0:0:0:0:
350,126,2615,1,0,0:0:0:0:
314,126,2701,1,0,0:0:0:0:
284,107,2787,1,0,0:0:0:0:
242,113,2872,6,0,L|151:96,1,83.9999974365235,6|0,0:0|0:0,0:0:0:0:
16,239,3215,2,0,L|107:256,1,83.9999974365235,0|0,0:0|0:0,0:0:0:0:
282,280,3558,2,0,B|317:270|317:270|349:288|349:288|393:257|378:194,1,167.999994873047,8|0,0:0|0:0,0:0:0:0:
260,157,4072,1,0,0:0:0:0:
98,254,4244,6,0,L|81:338,1,83.9999974365235,2|0,0:0|0:0,0:0:0:0:
14,147,4587,2,0,L|31:63,1,83.9999974365235,0|2,0:0|0:0,0:0:0:0:
175,59,4930,2,0,B|207:74|207:74|251:42|302:70,1,125.999996154785,8|0,0:0|0:0,0:0:0:0:
273,102,5272,2,0,L|278:195,1,83.9999974365235,2|0,0:0|0:0,0:0:0:0:
467,368,5615,6,0,L|462:275,1,83.9999974365235,2|0,0:0|0:0,0:0:0:0:
347,180,5958,1,0,0:0:0:0:
242,292,6130,1,0,0:0:0:0:
122,196,6301,2,0,P|104:155|121:75,1,125.999996154785,8|0,0:0|0:0,0:0:0:0:
151,50,6644,2,0,L|235:62,1,83.9999974365235
278,219,6987,5,2,0:0:0:0:
374,92,7158,1,0,0:0:0:0:
199,164,7330,1,0,0:0:0:0:
367,183,7501,1,2,0:0:0:0:
202,274,7672,2,0,P|148:283|77:254,1,125.999996154785,8|0,0:0|0:0,0:0:0:0:
56,231,8015,2,0,L|58:323,1,83.9999974365235,2|0,0:0|0:0,0:0:0:0:
237,151,8358,5,6,0:0:0:0:
148,112,8530,1,0,0:0:0:0:
295,73,8701,1,0,0:0:0:0:
172,208,8872,1,0,0:0:0:0:
212,52,9044,2,0,P|158:23|87:51,1,125.999996154785,8|0,0:0|0:0,0:0:0:0:
71,72,9387,2,0,L|73:163,1,83.9999974365235,0|0,0:0|0:0,0:0:0:0:
211,354,9730,6,0,L|209:263,1,83.9999974365235,2|0,0:0|0:0,0:0:0:0:
350,199,10072,1,0,0:0:0:0:
294,324,10244,1,2,0:0:0:0:
261,135,10415,2,0,L|243:7,1,125.999996154785,8|0,0:0|0:0,0:0:0:0:
207,39,10758,2,0,P|167:54|121:53,1,83.9999974365235,2|0,0:0|0:0,0:0:0:0:
109,257,11101,5,2,0:0:0:0:
236,299,11272,1,0,0:0:0:0:
269,301,11358,1,0,0:0:0:0:
301,282,11444,1,0,0:0:0:0:
378,129,11615,1,0,0:0:0:0:
254,204,11787,2,0,L|204:196,2,41.9999987182618,8|0|0,0:0|0:0|0:0,0:0:0:0:
395,270,12130,1,0,0:0:0:0:
291,134,12301,1,0,0:0:0:0:
273,111,12387,1,0,0:0:0:0:
253,85,12472,5,2,0:0:0:0:
138,55,12644,1,0,0:0:0:0:
327,52,12815,2,0,L|373:60,2,41.9999987182618,0|0|2,0:0|0:0|0:0,0:0:0:0:
175,147,13158,1,8,0:0:0:0:
173,189,13244,1,0,0:0:0:0:
202,218,13330,1,0,0:0:0:0:
220,255,13415,1,0,0:0:0:0:
261,261,13501,1,2,0:0:0:0:
291,289,13587,1,0,0:0:0:0:
332,285,13672,1,0,0:0:0:0:
373,290,13758,1,0,0:0:0:0:
403,261,13844,6,0,P|427:232|441:184,1,77.0000023498536,6|0,0:0|0:0,0:0:0:0:
327,52,14187,2,0,P|302:80|289:129,1,77.0000023498536,0|0,0:0|0:0,0:0:0:0:
202,218,14530,1,8,0:0:0:0:
376,126,14701,1,0,0:0:0:0:
198,111,14872,1,0,0:0:0:0:
317,216,15044,1,0,0:0:0:0:
463,138,15215,6,0,P|474:100|466:52,1,77.0000023498536,2|0,0:0|0:0,0:0:0:0:
317,216,15558,2,0,P|306:254|314:302,1,77.0000023498536,0|2,0:0|0:0,0:0:0:0:
151,60,15901,1,8,0:0:0:0:
191,223,16072,1,0,0:0:0:0:
257,69,16244,1,2,0:0:0:0:
107,153,16415,1,0,0:0:0:0:
295,163,16587,6,0,L|384:160,1,77.0000023498536,2|0,0:0|0:0,0:0:0:0:
216,317,16930,2,0,L|127:320,1,77.0000023498536,0|0,0:0|0:0,0:0:0:0:
371,232,17272,1,8,0:0:0:0:
422,325,17443,1,0,0:0:0:0:
310,321,17615,2,0,B|288:298|288:298|285:263|285:263|261:239|256:205,1,115.50000352478,0|0,0:0|0:0,0:0:0:0:
259,222,17958,5,2,0:0:0:0:
304,74,18130,1,0,0:0:0:0:
171,202,18301,2,0,L|89:188,1,77.0000023498536,0|2,0:0|0:0,0:0:0:0:
217,36,18644,2,0,L|221:118,2,77.0000023498536,8|0|2,0:0|0:0|0:0,0:0:0:0:
95,189,19158,1,0,0:0:0:0:
226,316,19330,6,0,L|313:313,1,77.0000023498536,6|0,0:0|0:0,0:0:0:0:
460,256,19672,2,0,L|373:259,1,77.0000023498536,0|0,0:0|0:0,0:0:0:0:
225,119,20015,2,0,L|231:213,1,77.0000023498536,8|0,0:0|0:0,0:0:0:0:
392,108,20358,2,0,L|386:14,1,77.0000023498536,0|0,0:0|0:0,0:0:0:0:
230,26,20701,6,0,P|176:36|133:123,1,154.000004699707,2|0,0:0|0:0,0:0:0:0:
146,247,21215,1,2,0:0:0:0:
296,109,21387,2,0,L|209:112,1,77.0000023498536,8|0,0:0|0:0,0:0:0:0:
361,51,21730,2,0,L|448:48,1,77.0000023498536,2|0,0:0|0:0,0:0:0:0:
352,179,22072,5,2,0:0:0:0:
488,129,22244,2,0,L|490:171,2,38.5000011749268,0|0|0,0:0|0:0|0:0,0:0:0:0:
307,271,22587,1,0,0:0:0:0:
450,234,22758,2,0,L|452:276,2,38.5000011749268,8|0|0,0:0|0:0|0:0,0:0:0:0:
260,362,23101,1,0,0:0:0:0:
408,341,23272,2,0,L|411:380,1,38.5000011749268,0|0,0:0|0:0,0:0:0:0:
307,271,23444,5,2,0:0:0:0:
296,159,23615,2,0,L|296:113,1,38.5000011749268,0|0,0:0|0:0,0:0:0:0:
206,133,23787,2,0,L|199:86,1,38.5000011749268,0|0,0:0|0:0,0:0:0:0:
114,134,23958,2,0,L|98:87,1,38.5000011749268,2|0,0:0|0:0,0:0:0:0:
22,153,24130,2,0,L|19:202,3,38.5000011749268,8|0|0|0,0:0|0:0|0:0|0:0,0:0:0:0:
82,255,24472,1,2,0:0:0:0:
120,263,24558,1,0,0:0:0:0:
154,270,24644,1,0,0:0:0:0:
190,278,24730,1,0,0:0:0:0:
226,286,24815,6,0,L|326:289,1,77.0000023498536,6|0,0:0|0:0,0:0:0:0:
458,239,25158,2,0,L|358:236,1,77.0000023498536,0|0,0:0|0:0,0:0:0:0:
271,146,25501,1,8,0:0:0:0:
427,147,25672,1,0,0:0:0:0:
372,329,25844,2,0,P|336:319|305:291,1,77.0000023498536,0|0,0:0|0:0,0:0:0:0:
171,116,26187,6,0,L|180:273,1,154.000004699707,2|0,0:0|0:0,0:0:0:0:
79,200,26701,1,2,0:0:0:0:
275,189,26872,2,0,P|311:181|357:114,1,115.50000352478,8|0,0:0|0:0,0:0:0:0:
396,136,27215,2,0,L|402:218,1,77.0000023498536,2|0,0:0|0:0,0:0:0:0:
179,269,27558,5,2,0:0:0:0:
275,189,27730,1,0,0:0:0:0:
363,278,27901,2,0,P|317:286|281:276,1,77.0000023498536,0|0,0:0|0:0,0:0:0:0:
172,174,28244,2,0,L|166:52,1,115.50000352478,8|0,0:0|0:0,0:0:0:0:
203,45,28587,2,0,P|236:70|277:73,1,77.0000023498536,0|0,0:0|0:0,0:0:0:0:
373,50,28930,5,2,0:0:0:0:
466,99,29101,1,0,0:0:0:0:
293,161,29272,2,0,P|255:163|218:147,1,77.0000023498536,0|2,0:0|0:0,0:0:0:0:
373,50,29615,2,0,L|376:175,1,115.50000352478,8|0,0:0|0:0,0:0:0:0:
391,202,29958,2,0,P|417:212|467:200,1,77.0000023498536,2|0,0:0|0:0,0:0:0:0:
244,333,30301,5,6,0:0:0:0:
279,235,30472,1,0,0:0:0:0:
230,134,30644,2,0,L|224:46,1,77.0000023498536,0|0,0:0|0:0,0:0:0:0:
110,14,30987,2,0,B|88:25|83:38|83:38|90:65|90:65|63:102|79:151,1,154.000004699707,8|0,0:0|0:0,0:0:0:0:
72,257,31501,1,0,0:0:0:0:
230,134,31672,6,0,L|145:113,1,77.0000023498536,2|0,0:0|0:0,0:0:0:0:
209,265,32015,2,0,P|255:267|290:253,1,77.0000023498536
410,91,32358,1,8,0:0:0:0:
310,44,32530,1,0,0:0:0:0:
402,196,32701,2,0,P|438:193|477:168,1,77.0000023498536,2|0,0:0|0:0,0:0:0:0:
290,212,33044,5,2,0:0:0:0:
335,334,33215,2,0,L|348:280,2,38.5000011749268,0|0|0,0:0|0:0|0:0,0:0:0:0:
189,203,33558,1,0,0:0:0:0:
226,341,33730,2,0,L|239:287,2,38.5000011749268,8|0|0,0:0|0:0|0:0,0:0:0:0:
89,193,34072,1,0,0:0:0:0:
117,344,34244,2,0,L|130:290,1,38.5000011749268,0|0,0:0|0:0,0:0:0:0:
189,203,34415,5,2,0:0:0:0:
317,131,34587,2,0,L|362:135,1,38.5000011749268,0|0,0:0|0:0,0:0:0:0:
240,64,34758,2,0,L|195:60,3,38.5000011749268,0|0|2|0,0:0|0:0|0:0|0:0,0:0:0:0:
114,102,35101,1,8,0:0:0:0:
85,127,35187,1,0,0:0:0:0:
88,164,35272,1,0,0:0:0:0:
75,200,35358,1,0,0:0:0:0:
100,228,35444,1,2,0:0:0:0:
107,265,35530,1,0,0:0:0:0:
142,279,35615,1,0,0:0:0:0:
169,306,35701,1,0,0:0:0:0:
204,306,35787,6,0,P|242:305|277:282,1,70,6|0,0:0|0:0,0:0:0:0:
100,228,36130,2,0,P|66:231|31:251,1,70,0|0,0:0|0:0,0:0:0:0:
247,193,36472,2,0,P|286:187|363:248,1,140,0|0,0:0|0:0,0:0:0:0:
279,353,36987,1,0,0:0:0:0:
157,248,37158,5,0,0:0:0:0:
247,193,37330,2,0,P|260:232|260:262,2,70,0|0|0,0:0|0:0|0:0,0:0:0:0:
103,83,37844,2,0,L|243:77,1,140,0|0,0:0|0:0,0:0:0:0:
347,26,38358,1,0,0:0:0:0:
448,86,38530,6,0,B|471:112|471:112|465:152|465:152|485:187|471:221,1,140,2|0,0:0|0:0,0:0:0:0:
367,246,39044,1,0,0:0:0:0:
268,188,39215,2,0,P|229:176|191:182,1,70
321,320,39558,2,0,P|360:332|398:326,1,70
220,258,39901,6,0,B|197:294|202:335|202:335|141:333,1,140
43,276,40415,1,0,0:0:0:0:
56,168,40587,2,0,B|53:134|53:134|70:101|70:101|70:68|44:38,1,140,0|0,0:0|0:0,0:0:0:0:
134,148,41101,1,0,0:0:0:0:
262,99,41272,6,0,P|324:72|396:111,1,140,6|0,0:0|0:0,0:0:0:0:
405,220,41787,1,0,0:0:0:0:
329,288,41958,2,0,P|302:221|327:154,1,140,0|0,0:0|0:0,0:0:0:0:
428,325,42472,1,0,0:0:0:0:
260,365,42644,6,0,L|184:358,1,70,0|0,0:0|0:0,0:0:0:0:
66,285,42987,2,0,L|142:292,1,70,0|0,0:0|0:0,0:0:0:0:
308,227,43330,2,0,P|321:186|322:152,1,70,0|2,0:0|0:0,0:0:0:0:
202,66,43672,2,0,P|189:107|188:141,1,70,0|0,0:0|0:0,0:0:0:0:
201,317,44015,5,2,0:0:0:0:
66,283,44187,2,0,L|46:246,2,35,0|0|0,0:0|0:0|0:0,0:0:0:0:
228,214,44530,1,0,0:0:0:0:
96,163,44701,2,0,L|85:124,2,35,8|0|0,0:0|0:0|0:0,0:0:0:0:
286,125,45044,1,0,0:0:0:0:
150,59,45215,2,0,L|148:21,1,35,0|0,0:0|0:0,0:0:0:0:
265,38,45387,6,0,P|302:35|334:51,1,70,2|0,0:0|0:0,0:0:0:0:
394,200,45730,2,0,L|392:158,2,35,0|0|0,0:0|0:0|0:0,0:0:0:0:
265,304,46072,1,2,0:0:0:0:
233,321,46158,1,0,0:0:0:0:
199,311,46244,1,0,0:0:0:0:
164,319,46330,1,0,0:0:0:0:
136,297,46415,1,2,0:0:0:0:
101,289,46501,1,0,0:0:0:0:
89,255,46587,1,0,0:0:0:0:
60,235,46672,1,0,0:0:0:0:
51,200,46758,5,6,0:0:0:0:
256,192,55672,12,0,57387,0:0:0:0:
162,168,57730,6,0,P|163:127|174:97,1,62.9999980773926,4|0,0:0|0:0,0:0:0:0:
278,148,58072,1,0,0:0:0:0:
175,259,58244,2,0,P|127:256|73:183,1,125.999996154785,0|0,0:0|0:0,0:0:0:0:
253,231,58758,2,0,L|262:302,1,62.9999980773926,0|0,0:0|0:0,0:0:0:0:
436,252,59101,6,0,P|454:216|429:136,1,125.999996154785,0|0,0:0|0:0,0:0:0:0:
372,295,59615,2,0,P|399:320|484:312,1,125.999996154785,0|0,0:0|0:0,0:0:0:0:
377,198,60130,2,0,L|307:205,1,62.9999980773926,0|0,0:0|0:0,0:0:0:0:
229,214,60387,1,0,0:0:0:0:
229,214,60472,6,0,P|190:206|148:133,1,125.999996154785,0|0,0:0|0:0,0:0:0:0:
276,17,60987,2,0,L|225:140,1,125.999996154785,0|0,0:0|0:0,0:0:0:0:
73,169,61501,2,0,P|39:169|11:157,1,62.9999980773926,0|0,0:0|0:0,0:0:0:0:
143,57,61844,6,0,P|192:70|227:132,1,125.999996154785,0|0,0:0|0:0,0:0:0:0:
151,263,62358,2,0,L|147:123,1,125.999996154785,0|0,0:0|0:0,0:0:0:0:
91,320,62872,2,0,P|125:341|155:343,1,62.9999980773926,0|0,0:0|0:0,0:0:0:0:
222,298,63130,1,0,0:0:0:0:
222,298,63215,6,0,P|262:280|290:279,1,62.9999980773926,4|0,0:0|0:0,0:0:0:0:
350,338,63472,1,0,0:0:0:0:
350,338,63558,2,0,P|391:347|417:343,1,62.9999980773926,0|0,0:0|0:0,0:0:0:0:
410,211,63901,1,0,0:0:0:0:
406,230,63987,1,0,0:0:0:0:
401,250,64072,1,0,0:0:0:0:
317,135,64244,1,0,0:0:0:0:
289,238,64415,1,0,0:0:0:0:
284,258,64501,1,0,0:0:0:0:
280,278,64587,5,4,0:0:0:0:
206,148,64758,2,0,L|214:111,2,31.4999990386963,0|0|0,0:0|0:0|0:0,0:0:0:0:
178,263,65101,1,0,0:0:0:0:
63,212,65272,2,0,L|71:175,2,31.4999990386963,0|0|0,0:0|0:0|0:0,0:0:0:0:
141,344,65615,1,0,0:0:0:0:
279,290,65787,2,0,L|289:257,1,31.4999990386963,0|0,0:0|0:0,0:0:0:0:
312,182,65958,5,4,0:0:0:0:
185,166,66130,1,0,0:0:0:0:
185,166,66215,1,0,0:0:0:0:
185,166,66301,2,0,P|143:147|114:144,1,62.9999980773926,0|0,0:0|0:0,0:0:0:0:
312,182,66644,1,0,0:0:0:0:
337,161,66730,1,0,0:0:0:0:
361,140,66815,1,0,0:0:0:0:
232,92,66987,1,0,0:0:0:0:
257,283,67158,1,0,0:0:0:0:
257,283,67244,1,0,0:0:0:0:
257,283,67330,6,0,L|293:290,1,31.4999990386963,4|0,0:0|0:0,0:0:0:0:
361,240,67501,2,0,L|397:247,1,31.4999990386963,0|0,0:0|0:0,0:0:0:0:
463,196,67672,2,0,L|499:203,1,31.4999990386963,0|0,0:0|0:0,0:0:0:0:
376,117,67844,6,0,B|333:123|307:121|283:78|243:90|227:115|227:115|232:146|232:146|216:173|216:173|219:204,1,251.999992309571,0|0,0:0|0:0,0:0:0:0:
370,326,68701,6,0,L|372:215,1,97.9999970092774,6|0,0:0|0:0,0:0:0:0:
220,203,69044,1,8,0:0:0:0:
349,97,69215,1,0,0:0:0:0:
174,78,69387,1,0,0:0:0:0:
285,151,69558,1,2,0:0:0:0:
328,14,69730,2,0,P|370:11|416:41,1,97.9999970092774,8|0,0:0|0:0,0:0:0:0:
425,256,70072,6,0,L|438:149,1,97.9999970092774,2|0,0:0|0:0,0:0:0:0:
196,212,70415,1,8,0:0:0:0:
276,288,70587,1,0,0:0:0:0:
345,91,70758,1,0,0:0:0:0:
245,88,70930,1,2,0:0:0:0:
337,236,71101,2,0,P|356:283|346:327,1,97.9999970092774,8|0,0:0|0:0,0:0:0:0:
87,227,71444,6,0,L|90:129,1,97.9999970092774,2|0,0:0|0:0,0:0:0:0:
228,227,71787,1,8,0:0:0:0:
293,65,71958,1,0,0:0:0:0:
337,236,72130,1,0,0:0:0:0:
201,122,72301,1,2,0:0:0:0:
375,134,72472,2,0,P|425:131|465:93,1,97.9999970092774,8|0,0:0|0:0,0:0:0:0:
293,65,72815,6,0,L|285:167,1,97.9999970092774,2|0,0:0|0:0,0:0:0:0:
201,342,73158,2,0,L|209:240,1,97.9999970092774,8|0,0:0|0:0,0:0:0:0:
45,109,73501,1,0,0:0:0:0:
106,265,73672,1,2,0:0:0:0:
205,127,73844,2,0,P|214:73|147:13,1,146.999995513916,8|0,0:0|0:0,0:0:0:0:
135,91,74187,6,0,L|132:188,1,97.9999970092774,6|0,0:0|0:0,0:0:0:0:
297,347,74530,2,0,L|300:250,1,97.9999970092774,8|0,0:0|0:0,0:0:0:0:
256,96,74872,1,0,0:0:0:0:
381,194,75044,1,2,0:0:0:0:
223,189,75215,1,8,0:0:0:0:
354,100,75387,1,0,0:0:0:0:
300,250,75558,6,0,P|263:283|211:287,1,97.9999970092774,2|0,0:0|0:0,0:0:0:0:
125,50,75901,1,8,0:0:0:0:
54,204,76072,1,0,0:0:0:0:
223,189,76243,1,0,0:0:0:0:
45,106,76415,1,2,0:0:0:0:
142,245,76587,1,8,0:0:0:0:
214,91,76758,1,0,0:0:0:0:
54,204,76930,6,0,P|45:249|68:302,1,97.9999970092774,2|0,0:0|0:0,0:0:0:0:
242,378,77272,2,0,P|251:333|228:280,1,97.9999970092774,8|0,0:0|0:0,0:0:0:0:
437,185,77615,1,0,0:0:0:0:
337,236,77787,1,2,0:0:0:0:
336,60,77958,2,0,P|387:48|435:63,1,97.9999970092774,8|0,0:0|0:0,0:0:0:0:
201,193,78301,6,0,P|155:197|110:170,1,97.9999970092774,2|0,0:0|0:0,0:0:0:0:
175,290,78644,1,8,0:0:0:0:
174,108,78815,1,0,0:0:0:0:
337,173,78987,2,0,P|352:216|337:268,1,97.9999970092774,0|2,0:0|0:0,0:0:0:0:
176,382,79330,2,0,P|161:339|176:287,1,97.9999970092774,8|0,0:0|0:0,0:0:0:0:
292,97,79672,6,0,P|340:83|385:97,1,97.9999970092774,6|0,0:0|0:0,0:0:0:0:
220,182,80015,2,0,P|172:196|127:182,1,97.9999970092774,8|0,0:0|0:0,0:0:0:0:
101,39,80358,1,0,0:0:0:0:
207,79,80530,1,2,0:0:0:0:
51,229,80701,2,0,P|38:178|53:133,1,97.9999970092774,8|0,0:0|0:0,0:0:0:0:
227,302,81044,6,0,L|114:309,1,97.9999970092774,2|0,0:0|0:0,0:0:0:0:
276,161,81387,1,8,0:0:0:0:
442,206,81558,1,0,0:0:0:0:
293,257,81730,1,0,0:0:0:0:
389,133,81901,1,2,0:0:0:0:
355,322,82072,1,8,0:0:0:0:
173,241,82244,1,0,0:0:0:0:
209,50,82415,6,0,P|233:98|227:144,1,97.9999970092774,2|0,0:0|0:0,0:0:0:0:
104,305,82758,2,0,P|80:257|86:211,1,97.9999970092774,8|0,0:0|0:0,0:0:0:0:
305,208,83101,1,0,0:0:0:0:
195,313,83272,1,2,0:0:0:0:
228,140,83444,2,0,P|270:109|326:107,1,97.9999970092774,8|0,0:0|0:0,0:0:0:0:
384,271,83787,6,0,P|342:302|286:304,1,97.9999970092774,2|0,0:0|0:0,0:0:0:0:
228,140,84130,2,0,L|232:241,1,97.9999970092774,8|0,0:0|0:0,0:0:0:0:
322,178,84472,1,0,0:0:0:0:
133,187,84644,1,2,0:0:0:0:
273,60,84815,2,0,B|298:44|333:43|361:60|361:60|382:47|382:47|415:62,1,146.999995513916,8|0,0:0|0:0,0:0:0:0:
426,71,85158,6,0,L|422:150,1,70,2|0,0:0|0:0,0:0:0:0:
231,237,85501,2,0,P|242:291|318:331,1,140,12|0,0:0|0:0,0:0:0:0:
177,148,86015,2,0,P|124:130|52:176,1,140,0|0,0:0|0:0,0:0:0:0:
277,148,86530,6,0,P|318:111|314:25,1,140,0|0,0:0|0:0,0:0:0:0:
124,62,87044,2,0,P|164:91|251:65,1,140,0|0,0:0|0:0,0:0:0:0:
172,240,87558,2,0,L|177:162,1,70,0|0,0:0|0:0,0:0:0:0:
410,276,87901,6,0,L|405:354,1,70,2|0,0:0|0:0,0:0:0:0:
287,342,88244,2,0,B|218:351|218:351|136:328,1,140,8|0,0:0|0:0,0:0:0:0:
271,188,88758,2,0,B|340:179|340:179|422:202,1,140,0|0,0:0|0:0,0:0:0:0:
220,264,89272,6,0,P|189:231|207:123,1,140,0|0,0:0|0:0,0:0:0:0:
257,82,89787,1,0,0:0:0:0:
46,106,89958,2,0,P|33:73|39:37,1,70,8|0,0:0|0:0,0:0:0:0:
101,195,90301,2,0,P|114:228|108:264,1,70,8|0,0:0|0:0,0:0:0:0:
257,82,90644,6,0,B|289:72|289:72|320:81|320:81|354:62|396:79,1,136.499993751526,0|0,0:0|0:0,0:0:0:0:
399,92,90987,6,0,L|383:188,1,90.9999958343508,8|0,0:0|0:0,0:0:0:0:
239,335,91330,1,0,0:0:0:0:
264,194,91501,1,2,0:0:0:0:
397,265,91672,2,0,P|439:244|464:200,1,90.9999958343508,12|0,0:0|0:0,0:0:0:0:
305,50,92015,6,0,L|212:51,1,90.9999958343508,2|0,0:0|0:0,0:0:0:0:
264,194,92358,1,8,0:0:0:0:
224,345,92530,1,0,0:0:0:0:
163,200,92701,1,0,0:0:0:0:
322,280,92872,1,2,0:0:0:0:
117,296,93044,1,8,0:0:0:0:
209,130,93215,1,0,0:0:0:0:
389,192,93387,6,0,L|392:85,1,90.9999958343508,2|0,0:0|0:0,0:0:0:0:
212,40,93730,2,0,L|209:147,1,90.9999958343508,8|0,0:0|0:0,0:0:0:0:
209,324,94072,1,0,0:0:0:0:
297,273,94244,1,2,0:0:0:0:
110,295,94415,2,0,L|17:304,1,90.9999958343508,8|0,0:0|0:0,0:0:0:0:
228,204,94758,6,0,L|321:195,1,90.9999958343508,2|0,0:0|0:0,0:0:0:0:
160,100,95101,1,8,0:0:0:0:
54,183,95272,1,0,0:0:0:0:
248,110,95444,2,0,P|247:81|215:29,1,90.9999958343508,0|2,0:0|0:0,0:0:0:0:
144,195,95787,2,0,P|145:224|177:276,1,90.9999958343508,8|0,0:0|0:0,0:0:0:0:
440,348,96130,6,0,L|432:253,1,90.9999958343508,6|0,0:0|0:0,0:0:0:0:
345,86,96472,2,0,L|353:181,1,90.9999958343508,8|0,0:0|0:0,0:0:0:0:
351,361,96815,1,0,0:0:0:0:
432,257,96987,1,2,0:0:0:0:
261,320,97158,2,0,B|215:324|215:324|173:309,1,90.9999958343508,12|0,0:0|0:0,0:0:0:0:
22,308,97501,6,0,L|42:218,1,90.9999958343508,2|0,0:0|0:0,0:0:0:0:
143,137,97844,1,8,0:0:0:0:
310,125,98015,1,0,0:0:0:0:
221,48,98187,1,0,0:0:0:0:
233,215,98358,1,2,0:0:0:0:
218,28,98530,1,8,0:0:0:0:
234,238,98701,1,0,0:0:0:0:
43,216,98872,6,0,P|28:194|24:129,1,90.9999958343508,2|0,0:0|0:0,0:0:0:0:
141,291,99215,2,0,P|156:313|160:378,1,90.9999958343508,8|0,0:0|0:0,0:0:0:0:
307,266,99558,1,0,0:0:0:0:
241,352,99730,1,2,0:0:0:0:
192,189,99901,2,0,P|183:147|192:95,1,90.9999958343508,8|0,0:0|0:0,0:0:0:0:
355,12,100244,6,0,P|364:54|355:106,1,90.9999958343508,2|0,0:0|0:0,0:0:0:0:
307,266,100587,2,0,B|352:273|352:273|397:260,1,90.9999958343508,8|0,0:0|0:0,0:0:0:0:
192,189,100930,1,0,0:0:0:0:
186,324,101101,1,2,0:0:0:0:
307,266,101272,1,8,0:0:0:0:
104,216,101444,1,0,0:0:0:0:
248,112,101615,6,0,L|342:100,1,90.9999958343508,6|0,0:0|0:0,0:0:0:0:
122,80,101958,2,0,L|28:92,1,90.9999958343508,8|0,0:0|0:0,0:0:0:0:
77,303,102301,1,0,0:0:0:0:
178,168,102472,1,2,0:0:0:0:
25,170,102644,2,0,L|103:215,1,90.9999958343508,8|0,0:0|0:0,0:0:0:0:
324,180,102987,6,0,L|246:225,1,90.9999958343508,2|0,0:0|0:0,0:0:0:0:
417,240,103330,1,8,0:0:0:0:
426,140,103501,1,0,0:0:0:0:
245,225,103673,1,0,0:0:0:0:
327,283,103844,1,2,0:0:0:0:
344,83,104015,1,8,0:0:0:0:
253,125,104186,1,0,0:0:0:0:
417,240,104358,6,0,P|466:251|508:236,1,90.9999958343508,2|0,0:0|0:0,0:0:0:0:
245,225,104701,2,0,P|196:214|154:229,1,90.9999958343508,8|0,0:0|0:0,0:0:0:0:
327,283,105044,1,0,0:0:0:0:
253,125,105215,1,2,0:0:0:0:
202,300,105387,2,0,P|158:323|115:321,1,90.9999958343508,8|0,0:0|0:0,0:0:0:0:
168,146,105730,6,0,P|212:123|255:125,1,90.9999958343508,2|0,0:0|0:0,0:0:0:0:
327,283,106072,1,8,0:0:0:0:
229,202,106244,1,0,0:0:0:0:
421,197,106415,2,0,L|414:291,1,90.9999958343508,0|2,0:0|0:0,0:0:0:0:
263,351,106758,2,0,B|229:342|229:342|200:364|158:365|129:342,1,136.499993751526,8|0,0:0|0:0,0:0:0:0:
118,333,107101,6,0,L|126:243,1,77.0000023498536,2|0,0:0|0:0,0:0:0:0:
104,88,107444,1,0,0:0:0:0:
71,177,107615,1,0,0:0:0:0:
196,66,107787,6,0,B|247:63|286:90|271:125|308:149|356:149,1,181.999991668702,12|0,0:0|0:0,0:0:0:0:
203,154,108301,1,0,0:0:0:0:
351,62,108472,6,0,L|441:67,1,90.9999958343508,2|0,0:0|0:0,0:0:0:0:
349,232,108815,2,0,L|259:227,1,90.9999958343508,0|2,0:0|0:0,0:0:0:0:
418,140,109158,2,0,L|508:145,1,90.9999958343508,8|0,0:0|0:0,0:0:0:0:
416,310,109501,2,0,L|326:305,1,90.9999958343508,2|0,0:0|0:0,0:0:0:0:
36,228,109844,5,2,0:0:0:0:
137,310,110015,2,0,L|158:351,2,45.4999979171754,0|0|0,0:0|0:0|0:0,0:0:0:0:
51,133,110358,1,0,0:0:0:0:
188,201,110529,2,0,L|200:244,2,45.4999979171754,8|0|0,0:0|0:0|0:0,0:0:0:0:
69,37,110872,1,0,0:0:0:0:
208,75,111044,2,0,L|213:120,1,45.4999979171754,0|0,0:0|0:0,0:0:0:0:
323,183,111215,5,6,0:0:0:0:
256,192,111301,12,6,112587,0:0:0:0:
261,287,112930,6,0,P|304:294|338:288,1,70,0|0,0:0|0:0,0:0:0:0:
284,197,113272,1,8,0:0:0:0:
185,170,113444,1,0,0:0:0:0:
88,208,113615,1,0,0:0:0:0:
41,299,113787,1,0,0:0:0:0:
185,170,113958,6,0,L|181:92,1,70,2|0,0:0|0:0,0:0:0:0:
143,287,114301,2,0,L|147:365,1,70,0|2,0:0|0:0,0:0:0:0:
284,197,114644,2,0,L|366:190,1,70,8|0,0:0|0:0,0:0:0:0:
491,109,114987,2,0,L|409:116,1,70,2|0,0:0|0:0,0:0:0:0:
243,124,115330,6,0,B|189:120|166:67|166:67|157:110,1,140,2|0,0:0|0:0,0:0:0:0:
197,196,115844,1,0,0:0:0:0:
252,33,116015,2,0,P|286:23|324:24,2,70,8|0|0,0:0|0:0|0:0,0:0:0:0:
301,131,116530,1,0,0:0:0:0:
492,139,116701,5,2,0:0:0:0:
467,246,116872,2,0,P|417:239|369:155,1,140,0|2,0:0|0:0,0:0:0:0:
227,94,117387,2,0,P|218:129|238:191,1,70,8|0,0:0|0:0,0:0:0:0:
258,274,117730,2,0,P|257:323|241:356,1,70,2|0,0:0|0:0,0:0:0:0:
63,354,118072,5,6,0:0:0:0:
4,274,118244,1,0,0:0:0:0:
76,197,118415,2,0,P|86:162|81:126,1,70,0|0,0:0|0:0,0:0:0:0:
120,37,118758,2,0,B|143:27|143:27|169:40|169:40|191:29|223:36,1,105,8|0,0:0|0:0,0:0:0:0:
218,35,119101,2,0,L|211:116,1,70,0|0,0:0|0:0,0:0:0:0:
228,266,119444,5,2,0:0:0:0:
330,208,119615,1,0,0:0:0:0:
163,174,119787,2,0,B|130:163|130:163|96:169,1,70,0|2,0:0|0:0,0:0:0:0:
228,266,120130,2,0,L|279:129,1,140,8|2,0:0|0:0,0:0:0:0:
276,134,120644,1,0,0:0:0:0:
412,238,120815,5,2,0:0:0:0:
336,362,120987,2,0,L|338:324,2,35,0|0|0,0:0|0:0|0:0,0:0:0:0:
284,223,121330,1,0,0:0:0:0:
175,335,121501,2,0,L|189:292,2,35,8|0|0,0:0|0:0|0:0,0:0:0:0:
160,178,121844,1,0,0:0:0:0:
93,75,122015,2,0,L|57:61,1,35,0|0,0:0|0:0,0:0:0:0:
185,40,122187,6,0,L|265:31,1,70,2|0,0:0|0:0,0:0:0:0:
408,79,122530,2,0,L|443:81,2,35,0|0|2,0:0|0:0|0:0,0:0:0:0:
419,237,122872,1,8,0:0:0:0:
416,271,122958,1,0,0:0:0:0:
384,288,123044,1,0,0:0:0:0:
369,320,123130,1,0,0:0:0:0:
335,327,123215,1,2,0:0:0:0:
308,349,123301,1,0,0:0:0:0:
274,345,123387,1,0,0:0:0:0:
242,360,123472,1,0,0:0:0:0:
209,347,123558,6,0,P|174:320|71:327,1,140,6|0,0:0|0:0,0:0:0:0:
161,219,124072,1,0,0:0:0:0:
62,153,124244,2,0,L|50:229,1,70,8|0,0:0|0:0,0:0:0:0:
181,122,124587,2,0,P|191:84|186:51,1,70,0|0,0:0|0:0,0:0:0:0:
161,219,124930,6,0,L|238:224,1,70,2|0,0:0|0:0,0:0:0:0:
377,186,125272,2,0,L|300:181,1,70,0|2,0:0|0:0,0:0:0:0:
186,54,125615,2,0,P|150:43|110:51,1,70,8|0,0:0|0:0,0:0:0:0:
277,98,125958,2,0,P|313:109|353:101,1,70,0|0,0:0|0:0,0:0:0:0:
486,37,126301,6,0,L|477:153,1,105,2|0,0:0|0:0,0:0:0:0:
477,141,126644,2,0,L|407:161,1,70,0|0,0:0|0:0,0:0:0:0:
352,292,126987,2,0,P|387:303|456:241,1,140,8|0,0:0|0:0,0:0:0:0:
323,187,127501,1,0,0:0:0:0:
203,281,127672,6,0,L|192:355,1,70,2|0,0:0|0:0,0:0:0:0:
81,237,128015,2,0,L|92:163,1,70,0|2,0:0|0:0,0:0:0:0:
230,107,128358,2,0,P|260:112|314:66,1,105,8|0,0:0|0:0,0:0:0:0:
291,33,128701,2,0,L|213:22,1,70,2|0,0:0|0:0,0:0:0:0:
243,210,129044,6,0,P|286:178|339:184,1,105,4|0,0:0|0:0,0:0:0:0:
367,196,129387,1,0,0:0:0:0:
458,278,129558,1,0,0:0:0:0:
317,306,129730,2,0,P|310:251|373:194,1,140,8|0,0:0|0:0,0:0:0:0:
399,342,130244,1,0,0:0:0:0:
225,338,130415,6,0,L|146:335,1,70,2|0,0:0|0:0,0:0:0:0:
68,240,130758,1,0,0:0:0:0:
68,240,130930,1,2,0:0:0:0:
230,154,131101,2,0,L|151:151,1,70,8|0,0:0|0:0,0:0:0:0:
326,100,131444,2,0,L|405:103,1,70,2|0,0:0|0:0,0:0:0:0:
287,294,131787,5,2,0:0:0:0:
355,175,131958,2,0,L|349:212,2,35,0|0|0,0:0|0:0|0:0,0:0:0:0:
162,273,132301,1,0,0:0:0:0:
230,154,132472,2,0,L|224:191,2,35,8|0|0,0:0|0:0|0:0,0:0:0:0:
66,193,132815,1,0,0:0:0:0:
187,57,132987,1,0,0:0:0:0:
187,57,133072,1,0,0:0:0:0:
187,57,133158,6,0,L|186:17,1,35,2|0,0:0|0:0,0:0:0:0:
277,74,133330,2,0,L|291:42,1,35,0|0,0:0|0:0,0:0:0:0:
350,137,133501,2,0,L|381:118,1,35,0|0,0:0|0:0,0:0:0:0:
381,230,133672,2,0,L|416:226,1,35,2|0,0:0|0:0,0:0:0:0:
315,312,133844,2,0,L|331:352,3,35,8|0|0|0,0:0|0:0|0:0|0:0,0:0:0:0:
216,289,134187,1,2,0:0:0:0:
183,278,134272,1,0,0:0:0:0:
149,266,134358,1,0,0:0:0:0:
116,253,134444,1,0,0:0:0:0:
76,237,134530,5,6,0:0:0:0:
360,32,134872,2,0,L|364:123,1,83.9999974365235,0|0,0:0|0:0,0:0:0:0:
434,262,135215,2,0,L|430:171,1,83.9999974365235,8|0,0:0|0:0,0:0:0:0:
314,226,135558,1,0,0:0:0:0:
202,168,135730,1,0,0:0:0:0:
96,250,135901,6,0,P|88:302|104:347,1,83.9999974365235,2|0,0:0|0:0,0:0:0:0:
203,249,136244,2,0,P|211:197|199:163,1,83.9999974365235,0|2,0:0|0:0,0:0:0:0:
289,65,136587,2,0,P|311:40|309:107,1,167.999994873047,8|2,0:0|0:0,0:0:0:0:
208,60,137101,1,0,0:0:0:0:
444,65,137272,6,0,L|441:151,1,83.9999974365235,2|0,0:0|0:0,0:0:0:0:
493,310,137615,2,0,L|496:224,1,83.9999974365235,0|0,0:0|0:0,0:0:0:0:
305,258,137958,2,0,P|261:250|195:300,1,125.999996154785,8|0,0:0|0:0,0:0:0:0:
184,334,138301,2,0,L|95:325,1,83.9999974365235,0|0,0:0|0:0,0:0:0:0:
305,258,138644,6,0,L|394:268,1,83.9999974365235,2|0,0:0|0:0,0:0:0:0:
315,180,138987,1,0,0:0:0:0:
340,339,139158,1,2,0:0:0:0:
398,191,139330,2,0,P|389:145|280:101,1,167.999994873047,8|2,0:0|0:0,0:0:0:0:
168,141,139844,1,0,0:0:0:0:
52,22,140015,6,0,L|62:116,1,83.9999974365235,6|0,0:0|0:0,0:0:0:0:
160,225,140358,2,0,L|169:131,1,83.9999974365235,0|0,0:0|0:0,0:0:0:0:
217,294,140701,2,0,P|161:314|99:281,1,125.999996154785,8|0,0:0|0:0,0:0:0:0:
103,286,141044,2,0,L|103:375,1,83.9999974365235,0|0,0:0|0:0,0:0:0:0:
290,245,141387,5,2,0:0:0:0:
325,335,141558,1,0,0:0:0:0:
378,225,141730,1,0,0:0:0:0:
213,289,141901,1,2,0:0:0:0:
258,158,142072,2,0,P|265:111|171:56,1,167.999994873047,8|2,0:0|0:0,0:0:0:0:
181,206,142587,1,0,0:0:0:0:
352,164,142758,5,2,0:0:0:0:
405,248,142930,2,0,L|446:256,2,41.9999987182618,0|0|0,0:0|0:0|0:0,0:0:0:0:
369,69,143272,1,0,0:0:0:0:
434,161,143444,2,0,L|475:169,2,41.9999987182618,8|0|0,0:0|0:0|0:0,0:0:0:0:
300,218,143787,1,0,0:0:0:0:
199,125,143958,2,0,B|149:127,1,41.9999987182618,0|0,0:0|0:0,0:0:0:0:
69,169,144130,5,2,0:0:0:0:
146,283,144301,1,0,0:0:0:0:
146,283,144387,1,0,0:0:0:0:
146,283,144472,2,0,L|192:285,1,41.9999987182618,0|0,0:0|0:0,0:0:0:0:
247,342,144644,2,0,L|289:325,1,41.9999987182618,2|0,0:0|0:0,0:0:0:0:
365,357,144815,2,0,L|391:323,3,41.9999987182618,8|0|0|0,0:0|0:0|0:0|0:0,0:0:0:0:
465,279,145158,1,2,0:0:0:0:
484,241,145244,1,0,0:0:0:0:
487,199,145330,1,0,0:0:0:0:
473,159,145415,1,0,0:0:0:0:
444,129,145501,6,0,P|406:112|359:120,1,80.5000015354157,6|0,0:0|0:0,0:0:0:0:
265,176,145844,2,0,P|303:193|350:185,1,80.5000015354157,0|0,0:0|0:0,0:0:0:0:
194,58,146187,2,0,L|174:229,1,161.000003070831,0|0,0:0|0:0,0:0:0:0:
105,159,146701,1,0,0:0:0:0:
256,257,146872,5,0,0:0:0:0:
99,301,147044,2,0,P|70:259|67:222,2,80.5000015354157,0|0|0,0:0|0:0|0:0,0:0:0:0:
256,257,147558,2,0,L|340:265,1,80.5000015354157,0|2,0:0|0:0,0:0:0:0:
494,222,147901,2,0,L|410:214,1,80.5000015354157,0|0,0:0|0:0,0:0:0:0:
296,87,148244,6,0,P|312:133|410:126,1,161.000003070831,2|0,0:0|0:0,0:0:0:0:
335,18,148758,1,0,0:0:0:0:
214,82,148930,2,0,L|200:165,1,80.5000015354157,0|0,0:0|0:0,0:0:0:0:
114,309,149272,2,0,L|128:226,1,80.5000015354157,0|0,0:0|0:0,0:0:0:0:
282,221,149615,6,0,P|309:278|256:364,1,161.000003070831
221,284,150130,1,0,0:0:0:0:
358,177,150301,2,0,P|381:143|388:99,1,80.5000015354157,0|2,0:0|0:0,0:0:0:0:
260,75,150644,2,0,B|219:77|219:77|181:66|181:66|141:69,1,120.750002303124,0|0,0:0|0:0,0:0:0:0:
140,69,150987,6,0,L|126:233,1,161.000003070831,6|0,0:0|0:0,0:0:0:0:
224,305,151501,1,0,0:0:0:0:
345,272,151672,2,0,B|373:257|406:266|406:266|446:231|433:155,1,161.000003070831,0|0,0:0|0:0,0:0:0:0:
344,71,152187,1,0,0:0:0:0:
188,160,152358,6,0,P|193:115|219:79,1,80.5000015354157,0|0,0:0|0:0,0:0:0:0:
278,208,152701,2,0,P|262:236|217:256,1,80.5000015354157,0|0,0:0|0:0,0:0:0:0:
46,251,153044,2,0,P|88:234|130:236,1,80.5000015354157,0|2,0:0|0:0,0:0:0:0:
278,338,153387,2,0,P|321:339|367:317,1,80.5000015354157,0|0,0:0|0:0,0:0:0:0:
431,201,153730,5,2,0:0:0:0:
366,84,153901,2,0,L|368:33,2,40.2500007677078,0|0|0,0:0|0:0|0:0,0:0:0:0:
312,192,154244,1,0,0:0:0:0:
247,74,154415,2,0,L|249:23,2,40.2500007677078,0|0|0,0:0|0:0|0:0,0:0:0:0:
194,182,154758,1,0,0:0:0:0:
129,67,154930,2,0,L|132:27,1,40.2500007677078,0|0,0:0|0:0,0:0:0:0:
51,129,155101,5,0,0:0:0:0:
104,261,155272,2,0,L|119:299,1,40.2500007677078,0|0,0:0|0:0,0:0:0:0:
195,280,155444,2,0,L|227:305,1,40.2500007677078,0|0,0:0|0:0,0:0:0:0:
289,255,155615,2,0,L|329:262,1,40.2500007677078,0|0,0:0|0:0,0:0:0:0:
375,184,155787,2,0,L|382:135,3,40.2500007677078,0|0|0|0,0:0|0:0|0:0|0:0,0:0:0:0:
305,77,156130,1,0,0:0:0:0:
265,74,156215,1,0,0:0:0:0:
224,72,156301,1,0,0:0:0:0:
183,70,156387,1,0,0:0:0:0:
143,68,156472,5,6,0:0:0:0:
