osu file format v14

[General]
AudioFilename: audio.mp3
AudioLeadIn: 0
PreviewTime: 67844
Countdown: 0
SampleSet: None
StackLeniency: 0.6
Mode: 0
LetterboxInBreaks: 0
WidescreenStoryboard: 0

[Editor]
Bookmarks: 91330
DistanceSpacing: 1.5
BeatDivisor: 4
GridSize: 4
TimelineZoom: 1.2

[Metadata]
Title:Never Hold Us Back
TitleUnicode:Never Hold Us Back
Artist:Major Look
ArtistUnicode:Major Look
Creator:vanucik
Version:Hyper
Source:
Tags:electronic cut drum and bass dubstep short cut version male vocal trap
BeatmapID:947050
BeatmapSetID:438577

[Difficulty]
HPDrainRate:5.5
CircleSize:4
OverallDifficulty:7
ApproachRate:8.2
SliderMultiplier:1.3
SliderTickRate:1

[Events]
//Background and Video events
0,0,"maxresdefaultmajorlook.jpg",0,0
//Break Periods
2,46958,57010
//Storyboard Layer 0 (Background)
//Storyboard Layer 1 (Fail)
//Storyboard Layer 2 (Pass)
//Storyboard Layer 3 (Foreground)
//Storyboard Sound Samples

[TimingPoints]
130,342.857142857143,4,3,1,70,1,0
2872,-83.3333333333333,4,3,1,70,0,0
5187,-83.3333333333333,4,3,1,5,0,0
5272,-83.3333333333333,4,3,1,70,0,0
7930,-83.3333333333333,4,3,1,5,0,0
8015,-83.3333333333333,4,3,1,70,0,0
10672,-83.3333333333333,4,3,1,5,0,0
10758,-83.3333333333333,4,3,1,70,0,0
13844,-90.9090909090909,4,3,1,70,0,0
20272,-90.9090909090909,4,3,1,5,0,0
20358,-90.9090909090909,4,3,1,70,0,0
35787,-100,4,3,1,50,0,0
43930,-100,4,3,1,70,0,0
46758,-100,4,3,1,70,0,0
57730,-111.111111111111,4,3,1,70,0,0
67844,-111.111111111111,4,3,1,50,0,0
68530,-111.111111111111,4,3,1,30,0,0
68701,-76.9230769230769,4,3,1,80,0,1
73415,-76.9230769230769,4,3,1,5,0,1
73501,-76.9230769230769,4,3,1,80,0,1
85072,-76.9230769230769,4,3,1,30,0,1
85158,-100,4,3,1,70,0,0
90644,-76.9230769230769,4,3,1,70,0,0
90901,-76.9230769230769,4,3,1,5,0,0
90987,-76.9230769230769,4,3,1,80,0,1
96044,-76.9230769230769,4,3,1,5,0,1
96130,-76.9230769230769,4,3,1,80,0,1
107101,-111.111111111111,4,3,1,70,0,0
107787,-90.9090909090909,4,3,1,70,0,0
112587,-100,4,3,1,70,0,0
119358,-100,4,3,1,5,0,0
119444,-100,4,3,1,70,0,0
134530,-90.9090909090909,4,3,1,80,0,0
145501,-95.2380952380952,4,3,1,50,0,0
148158,-95.2380952380952,4,3,1,5,0,0
148244,-95.2380952380952,4,3,1,50,0,0
150901,-95.2380952380952,4,3,1,5,0,0
150987,-95.2380952380952,4,3,1,50,0,0
153730,-95.2380952380952,4,3,1,70,0,0

[Colours]
Combo1 : 255,128,0
Combo2 : 215,0,0
Combo3 : 255,140,140

[HitObjects]
129,265,130,5,0,0:0:0:0:
218,226,301,2,0,L|272:231,2,32.5,0|0|0,0:0|0:0|0:0,0:0:0:0:
138,168,644,1,0,0:0:0:0:
225,126,815,2,0,L|270:131,2,32.5,0|0|0,0:0|0:0|0:0,0:0:0:0:
142,73,1158,1,0,0:0:0:0:
59,126,1330,1,0,0:0:0:0:
59,126,1415,1,0,0:0:0:0:
59,126,1501,6,0,P|53:176|54:192,1,65,0|0,0:0|0:0,0:0:0:0:
72,295,1844,2,0,L|40:314,2,32.5,0|0|0,0:0|0:0|0:0,0:0:0:0:
159,339,2187,2,0,L|193:337,3,32.5,0|0|0|0,0:0|0:0|0:0|0:0,0:0:0:0:
229,306,2530,2,0,L|262:314,3,32.5,0|0|0|0,0:0|0:0|0:0|0:0,0:0:0:0:
304,275,2872,6,0,P|316:235|316:198,1,77.999997619629,6|0,0:0|0:0,0:0:0:0:
214,139,3215,2,0,P|202:179|200:217,1,77.999997619629,0|0,0:0|0:0,0:0:0:0:
75,259,3558,2,0,P|55:210|83:112,1,155.999995239258,8|0,0:0|0:0,0:0:0:0:
174,42,4072,1,0,0:0:0:0:
284,100,4244,6,0,P|327:113|369:108,1,77.999997619629,2|0,0:0|0:0,0:0:0:0:
449,35,4587,2,0,P|407:26|361:33,1,77.999997619629,0|2,0:0|0:0,0:0:0:0:
368,192,4930,2,0,B|363:239|363:239|371:259|371:259|364:320,1,116.999996429443,8|0,0:0|0:0,0:0:0:0:
335,322,5272,2,0,P|279:311|242:311,1,77.999997619629,2|0,0:0|0:0,0:0:0:0:
119,296,5615,6,0,L|132:201,1,77.999997619629,2|0,0:0|0:0,0:0:0:0:
227,153,5958,2,0,L|214:248,1,77.999997619629,0|0,0:0|0:0,0:0:0:0:
301,322,6301,2,0,P|345:331|427:262,1,155.999995239258,8|0,0:0|0:0,0:0:0:0:
340,184,6815,1,0,0:0:0:0:
222,231,6987,6,0,L|211:311,1,77.999997619629,2|0,0:0|0:0,0:0:0:0:
106,361,7330,2,0,L|117:281,1,77.999997619629,0|2,0:0|0:0,0:0:0:0:
152,165,7672,2,0,P|187:140|259:143,1,116.999996429443,8|0,0:0|0:0,0:0:0:0:
284,174,8015,2,0,L|365:164,1,77.999997619629,2|0,0:0|0:0,0:0:0:0:
465,104,8358,6,0,P|472:142|464:181,1,77.999997619629,6|0,0:0|0:0,0:0:0:0:
360,240,8701,2,0,P|353:202|361:163,1,77.999997619629,0|0,0:0|0:0,0:0:0:0:
438,269,9044,2,0,P|411:309|309:313,1,155.999995239258,8|0,0:0|0:0,0:0:0:0:
233,226,9558,1,0,0:0:0:0:
258,103,9730,6,0,L|171:107,1,77.999997619629,2|0,0:0|0:0,0:0:0:0:
91,30,10072,2,0,L|178:26,1,77.999997619629,0|2,0:0|0:0,0:0:0:0:
121,174,10415,2,0,P|115:216|150:281,1,116.999996429443,8|0,0:0|0:0,0:0:0:0:
182,305,10758,2,0,L|262:309,1,77.999997619629,2|0,0:0|0:0,0:0:0:0:
380,255,11101,5,2,0:0:0:0:
398,139,11272,2,0,L|402:95,2,38.9999988098145,0|0|0,0:0|0:0|0:0,0:0:0:0:
293,192,11615,1,0,0:0:0:0:
295,74,11787,2,0,L|289:31,2,38.9999988098145,8|0|0,0:0|0:0|0:0,0:0:0:0:
193,130,12130,1,0,0:0:0:0:
97,84,12301,1,0,0:0:0:0:
97,84,12387,1,0,0:0:0:0:
97,84,12472,6,0,P|88:122|91:160,1,77.999997619629,2|0,0:0|0:0,0:0:0:0:
92,276,12815,2,0,L|54:292,2,38.9999988098145,0|0|2,0:0|0:0|0:0,0:0:0:0:
218,305,13158,2,0,L|265:329,3,38.9999988098145,8|0|0|0,0:0|0:0|0:0|0:0,0:0:0:0:
309,309,13501,2,0,L|356:318,3,38.9999988098145,2|0|0|0,0:0|0:0|0:0|0:0,0:0:0:0:
391,285,13844,6,0,L|391:213,1,71.5000021820069,6|0,0:0|0:0,0:0:0:0:
297,159,14187,2,0,L|297:231,1,71.5000021820069,0|0,0:0|0:0,0:0:0:0:
212,143,14530,1,8,0:0:0:0:
301,84,14701,1,0,0:0:0:0:
377,159,14872,1,0,0:0:0:0:
297,230,15044,1,0,0:0:0:0:
178,242,15215,6,0,L|105:226,1,71.5000021820069,2|0,0:0|0:0,0:0:0:0:
126,120,15558,2,0,L|63:79,1,71.5000021820069,0|2,0:0|0:0,0:0:0:0:
217,46,15901,2,0,P|259:36|288:42,1,71.5000021820069,8|0,0:0|0:0,0:0:0:0:
362,117,16244,2,0,P|394:120|436:107,1,71.5000021820069,2|0,0:0|0:0,0:0:0:0:
386,232,16587,6,0,L|387:306,1,71.5000021820069,2|0,0:0|0:0,0:0:0:0:
289,348,16930,2,0,L|288:266,1,71.5000021820069,0|0,0:0|0:0,0:0:0:0:
192,212,17272,1,8,0:0:0:0:
105,275,17444,1,0,0:0:0:0:
18,212,17615,2,0,P|18:166|34:124,1,71.5000021820069,0|0,0:0|0:0,0:0:0:0:
67,30,17958,5,2,0:0:0:0:
173,13,18130,1,0,0:0:0:0:
255,80,18301,2,0,P|298:100|331:95,1,71.5000021820069,0|2,0:0|0:0,0:0:0:0:
441,116,18644,2,0,L|434:190,1,71.5000021820069,8|0,0:0|0:0,0:0:0:0:
344,246,18987,2,0,L|349:170,1,71.5000021820069,2|0,0:0|0:0,0:0:0:0:
466,260,19330,5,6,0:0:0:0:
420,357,19501,1,0,0:0:0:0:
313,359,19672,2,0,P|274:349|242:315,1,71.5000021820069,0|0,0:0|0:0,0:0:0:0:
158,251,20015,2,0,L|143:366,1,107.25000327301,8|0,0:0|0:0,0:0:0:0:
113,366,20358,2,0,L|39:353,1,71.5000021820069,0|0,0:0|0:0,0:0:0:0:
70,235,20701,6,0,P|98:186|185:164,1,143.000004364014,2|0,0:0|0:0,0:0:0:0:
258,233,21215,1,2,0:0:0:0:
263,115,21387,2,0,L|266:43,1,71.5000021820069,8|0,0:0|0:0,0:0:0:0:
362,91,21730,2,0,L|359:163,1,71.5000021820069,2|0,0:0|0:0,0:0:0:0:
378,294,22072,5,2,0:0:0:0:
284,347,22244,2,0,L|243:356,2,35.7500010910034,0|0|0,0:0|0:0|0:0,0:0:0:0:
276,239,22587,1,0,0:0:0:0:
183,291,22758,2,0,L|132:287,2,35.7500010910034,8|0|0,0:0|0:0|0:0,0:0:0:0:
175,183,23101,1,0,0:0:0:0:
90,139,23272,1,0,0:0:0:0:
90,139,23358,1,0,0:0:0:0:
90,139,23444,6,0,L|105:59,1,71.5000021820069,2|0,0:0|0:0,0:0:0:0:
204,32,23787,2,0,L|236:6,2,35.7500010910034,0|0|2,0:0|0:0|0:0,0:0:0:0:
284,113,24130,2,0,L|323:118,3,35.7500010910034,8|0|0|0,0:0|0:0|0:0|0:0,0:0:0:0:
363,147,24472,2,0,L|400:161,3,35.7500010910034,2|0|0|0,0:0|0:0|0:0|0:0,0:0:0:0:
435,197,24815,6,0,L|431:271,1,71.5000021820069,6|0,0:0|0:0,0:0:0:0:
333,313,25158,2,0,L|337:239,1,71.5000021820069,0|0,0:0|0:0,0:0:0:0:
227,252,25501,2,0,P|207:291|233:385,1,143.000004364014,8|0,0:0|0:0,0:0:0:0:
227,252,26015,1,0,0:0:0:0:
110,211,26187,6,0,P|57:230|18:313,1,143.000004364014,2|0,0:0|0:0,0:0:0:0:
121,314,26701,1,2,0:0:0:0:
227,252,26872,2,0,L|234:172,1,71.5000021820069,8|0,0:0|0:0,0:0:0:0:
327,128,27215,2,0,L|319:207,1,71.5000021820069,2|0,0:0|0:0,0:0:0:0:
154,179,27558,6,0,P|137:143|133:112,1,71.5000021820069,2|0,0:0|0:0,0:0:0:0:
208,38,27901,2,0,P|225:74|229:105,1,71.5000021820069,0|0,0:0|0:0,0:0:0:0:
319,199,28244,2,0,L|390:190,1,71.5000021820069,8|0,0:0|0:0,0:0:0:0:
426,291,28587,2,0,L|340:302,1,71.5000021820069,0|0,0:0|0:0,0:0:0:0:
232,317,28930,5,2,0:0:0:0:
157,240,29101,1,0,0:0:0:0:
154,131,29272,2,0,P|155:98|142:60,1,71.5000021820069,0|2,0:0|0:0,0:0:0:0:
31,128,29615,2,0,P|30:161|43:202,1,71.5000021820069,8|0,0:0|0:0,0:0:0:0:
157,240,29958,2,0,P|204:243|231:236,1,71.5000021820069,2|0,0:0|0:0,0:0:0:0:
345,174,30301,5,6,0:0:0:0:
299,270,30472,1,0,0:0:0:0:
264,168,30644,2,0,L|255:85,1,71.5000021820069,0|0,0:0|0:0,0:0:0:0:
384,101,30987,2,0,P|425:149|405:225,1,143.000004364014,8|0,0:0|0:0,0:0:0:0:
360,318,31501,1,0,0:0:0:0:
238,331,31672,6,0,L|144:306,1,71.5000021820069,2|0,0:0|0:0,0:0:0:0:
213,214,32015,2,0,L|285:234,1,71.5000021820069,0|0,0:0|0:0,0:0:0:0:
109,188,32358,2,0,B|98:157|98:157|101:119,1,71.5000021820069,8|0,0:0|0:0,0:0:0:0:
205,144,32701,2,0,B|216:175|216:175|213:213,1,71.5000021820069,2|0,0:0|0:0,0:0:0:0:
292,103,33044,5,2,0:0:0:0:
398,116,33215,2,0,L|437:113,2,35.7500010910034,0|0|0,0:0|0:0|0:0,0:0:0:0:
330,205,33558,1,0,0:0:0:0:
445,199,33730,2,0,L|486:207,2,35.7500010910034,8|0|0,0:0|0:0|0:0,0:0:0:0:
370,285,34072,1,0,0:0:0:0:
476,300,34244,1,0,0:0:0:0:
476,300,34330,1,0,0:0:0:0:
476,300,34415,6,0,L|448:366,1,71.5000021820069,2|0,0:0|0:0,0:0:0:0:
341,350,34758,2,0,L|371:281,1,71.5000021820069,0|2,0:0|0:0,0:0:0:0:
260,237,35101,2,0,L|224:240,3,35.7500010910034,8|0|0|0,0:0|0:0|0:0|0:0,0:0:0:0:
187,201,35444,2,0,L|148:191,3,35.7500010910034,2|0|0|0,0:0|0:0|0:0|0:0,0:0:0:0:
141,144,35787,6,0,L|136:73,1,65,6|0,0:0|0:0,0:0:0:0:
224,37,36130,2,0,L|229:108,1,65,0|0,0:0|0:0,0:0:0:0:
291,176,36472,2,0,P|321:137|309:51,1,130,0|0,0:0|0:0,0:0:0:0:
228,101,36987,1,0,0:0:0:0:
210,196,37158,5,0,0:0:0:0:
276,267,37330,2,0,L|338:285,2,65,0|0|0,0:0|0:0|0:0,0:0:0:0:
206,335,37844,2,0,P|169:325|143:305,1,65,0|0,0:0|0:0,0:0:0:0:
137,212,38187,2,0,P|174:222|200:242,1,65,0|0,0:0|0:0,0:0:0:0:
51,268,38530,6,0,L|47:135,1,130,2|0,0:0|0:0,0:0:0:0:
120,73,39044,1,0,0:0:0:0:
200,126,39215,2,0,L|266:130,1,65,0|0,0:0|0:0,0:0:0:0:
336,70,39558,2,0,L|405:53,1,65,0|0,0:0|0:0,0:0:0:0:
448,153,39901,6,0,L|439:295,1,130,0|0,0:0|0:0,0:0:0:0:
347,313,40415,1,0,0:0:0:0:
278,243,40587,2,0,L|348:234,1,65,0|0,0:0|0:0,0:0:0:0:
376,142,40930,2,0,L|306:151,1,65,0|0,0:0|0:0,0:0:0:0:
202,151,41272,6,0,P|160:150|98:85,1,130,6|0,0:0|0:0,0:0:0:0:
37,20,41787,1,0,0:0:0:0:
37,20,41958,2,0,P|9:63|18:139,1,130,0|0,0:0|0:0,0:0:0:0:
72,219,42472,1,0,0:0:0:0:
169,265,42644,6,0,L|177:330,1,65,0|0,0:0|0:0,0:0:0:0:
273,267,42987,2,0,L|297:342,1,65,0|0,0:0|0:0,0:0:0:0:
373,242,43330,2,0,L|423:294,1,65,0|2,0:0|0:0,0:0:0:0:
454,179,43672,2,0,L|521:210,1,65,0|0,0:0|0:0,0:0:0:0:
400,92,44015,5,2,0:0:0:0:
314,147,44187,2,0,L|303:189,2,32.5,0|0|0,0:0|0:0|0:0,0:0:0:0:
264,62,44530,1,0,0:0:0:0:
185,120,44701,2,0,L|178:165,2,32.5,8|0|0,0:0|0:0|0:0,0:0:0:0:
114,53,45044,1,0,0:0:0:0:
37,126,45215,1,0,0:0:0:0:
37,126,45301,1,0,0:0:0:0:
37,126,45387,6,0,L|47:200,1,65,2|0,0:0|0:0,0:0:0:0:
87,279,45730,2,0,L|60:320,2,32.5,0|0|0,0:0|0:0|0:0,0:0:0:0:
188,247,46072,2,0,L|225:244,3,32.5,2|0|0|0,0:0|0:0|0:0|0:0,0:0:0:0:
260,216,46415,2,0,L|292:194,3,32.5,2|0|0|0,0:0|0:0|0:0|0:0,0:0:0:0:
304,152,46758,5,6,0:0:0:0:
174,233,57730,6,0,L|179:117,1,116.999996429443,4|0,0:0|0:0,0:0:0:0:
276,100,58244,2,0,L|270:217,1,116.999996429443,0|0,0:0|0:0,0:0:0:0:
290,302,58758,2,0,L|354:310,1,58.4999982147217,0|0,0:0|0:0,0:0:0:0:
424,265,59101,6,0,P|441:237|427:158,1,116.999996429443,0|0,0:0|0:0,0:0:0:0:
357,103,59615,2,0,P|340:131|354:210,1,116.999996429443,0|0,0:0|0:0,0:0:0:0:
287,268,60130,1,0,0:0:0:0:
222,226,60301,1,0,0:0:0:0:
222,226,60387,1,0,0:0:0:0:
222,226,60472,6,0,P|206:192|218:109,1,116.999996429443,0|0,0:0|0:0,0:0:0:0:
133,78,60987,2,0,B|77:92|77:92|18:63,1,116.999996429443,0|0,0:0|0:0,0:0:0:0:
27,153,61501,2,0,L|86:172,1,58.4999982147217,0|0,0:0|0:0,0:0:0:0:
129,245,61844,6,0,P|83:258|14:228,1,116.999996429443,0|0,0:0|0:0,0:0:0:0:
82,170,62358,2,0,P|128:154|192:180,1,116.999996429443,0|0,0:0|0:0,0:0:0:0:
256,234,62872,1,0,0:0:0:0:
338,201,63044,1,0,0:0:0:0:
338,201,63130,1,0,0:0:0:0:
338,201,63215,1,4,0:0:0:0:
285,130,63387,6,0,L|245:124,2,29.2499991073609,0|0|0,0:0|0:0|0:0,0:0:0:0:
360,84,63730,1,0,0:0:0:0:
288,35,63901,2,0,L|292:4,2,29.2499991073609,0|0|0,0:0|0:0|0:0,0:0:0:0:
205,65,64244,1,0,0:0:0:0:
125,27,64415,1,0,0:0:0:0:
125,27,64501,1,0,0:0:0:0:
125,27,64587,5,4,0:0:0:0:
129,114,64758,2,0,L|152:141,2,29.2499991073609,0|0|0,0:0|0:0|0:0,0:0:0:0:
45,142,65101,1,0,0:0:0:0:
52,229,65272,2,0,L|59:265,2,29.2499991073609,0|0|0,0:0|0:0|0:0,0:0:0:0:
137,248,65615,1,0,0:0:0:0:
214,207,65787,1,0,0:0:0:0:
214,207,65872,1,0,0:0:0:0:
214,207,65958,1,4,0:0:0:0:
142,155,66130,6,0,L|111:155,2,29.2499991073609,0|0|0,0:0|0:0|0:0,0:0:0:0:
217,110,66472,1,0,0:0:0:0:
302,129,66644,2,0,L|333:121,2,29.2499991073609,0|0|0,0:0|0:0|0:0,0:0:0:0:
345,205,66987,1,0,0:0:0:0:
329,291,67158,1,0,0:0:0:0:
329,291,67244,1,0,0:0:0:0:
329,291,67330,6,0,L|267:282,1,58.4999982147217,4|0,0:0|0:0,0:0:0:0:
206,223,67672,1,0,0:0:0:0:
218,138,67844,6,0,P|239:109|331:207,1,233.999992858887,0|0,0:0|0:0,0:0:0:0:
447,148,68701,6,0,L|434:236,1,84.4999961318971,6|0,0:0|0:0,0:0:0:0:
320,288,69044,2,0,L|333:200,1,84.4999961318971,8|0,0:0|0:0,0:0:0:0:
252,105,69387,1,0,0:0:0:0:
181,209,69558,1,2,0:0:0:0:
100,110,69730,2,0,L|15:99,1,84.4999961318971,8|0,0:0|0:0,0:0:0:0:
31,224,70072,6,0,L|117:234,1,84.4999961318971,2|0,0:0|0:0,0:0:0:0:
241,255,70415,1,8,0:0:0:0:
364,223,70587,1,0,0:0:0:0:
333,100,70758,1,0,0:0:0:0:
210,132,70930,1,2,0:0:0:0:
241,255,71101,2,0,P|248:304|232:343,1,84.4999961318971,8|0,0:0|0:0,0:0:0:0:
109,328,71444,6,0,L|-12:319,1,84.4999961318971,2|0,0:0|0:0,0:0:0:0:
50,195,71787,2,0,L|142:187,1,84.4999961318971,8|0,0:0|0:0,0:0:0:0:
250,240,72130,1,0,0:0:0:0:
284,118,72301,1,2,0:0:0:0:
398,171,72472,2,0,P|429:188|477:187,1,84.4999961318971,8|0,0:0|0:0,0:0:0:0:
363,102,72815,6,0,P|321:99|283:117,1,84.4999961318971,2|0,0:0|0:0,0:0:0:0:
169,131,73158,2,0,P|116:137|54:71,1,126.749994197846,8|0,0:0|0:0,0:0:0:0:
41,62,73501,2,0,L|-1:140,1,84.4999961318971,0|2,0:0|0:0,0:0:0:0:
19,262,73844,2,0,L|62:185,1,84.4999961318971,8|0,0:0|0:0,0:0:0:0:
189,259,74187,6,0,L|274:267,1,84.4999961318971,6|0,0:0|0:0,0:0:0:0:
380,199,74530,2,0,L|294:189,1,84.4999961318971,8|0,0:0|0:0,0:0:0:0:
257,68,74872,1,0,0:0:0:0:
216,188,75044,1,2,0:0:0:0:
320,116,75215,2,0,L|406:117,1,84.4999961318971,8|0,0:0|0:0,0:0:0:0:
191,114,75558,6,0,L|95:112,1,84.4999961318971,2|0,0:0|0:0,0:0:0:0:
107,239,75901,1,8,0:0:0:0:
213,312,76072,1,0,0:0:0:0:
296,215,76244,1,0,0:0:0:0:
398,288,76415,1,2,0:0:0:0:
444,165,76587,2,0,L|351:157,1,84.4999961318971,8|0,0:0|0:0,0:0:0:0:
209,187,76930,6,0,P|205:234|222:269,1,84.4999961318971,2|0,0:0|0:0,0:0:0:0:
274,135,77272,2,0,P|278:88|261:53,1,84.4999961318971,8|0,0:0|0:0,0:0:0:0:
141,16,77615,1,0,0:0:0:0:
47,102,77787,1,2,0:0:0:0:
111,210,77958,2,0,P|118:254|110:296,1,84.4999961318971,8|0,0:0|0:0,0:0:0:0:
6,364,78301,6,0,P|-1:320|7:278,1,84.4999961318971,2|0,0:0|0:0,0:0:0:0:
131,298,78644,2,0,P|180:307|213:296,1,84.4999961318971,8|0,0:0|0:0,0:0:0:0:
336,272,78987,1,0,0:0:0:0:
249,364,79158,1,2,0:0:0:0:
263,237,79330,2,0,L|270:152,1,84.4999961318971,8|0,0:0|0:0,0:0:0:0:
102,80,79672,6,0,P|93:129|104:164,1,84.4999961318971,6|0,0:0|0:0,0:0:0:0:
175,269,80015,2,0,P|184:220|173:185,1,84.4999961318971,8|0,0:0|0:0,0:0:0:0:
61,249,80358,1,0,0:0:0:0:
61,249,80530,1,2,0:0:0:0:
197,371,80701,2,0,P|235:350|251:313,1,84.4999961318971,8|0,0:0|0:0,0:0:0:0:
344,193,81044,6,0,L|347:280,1,84.4999961318971,2|0,0:0|0:0,0:0:0:0:
222,223,81387,1,8,0:0:0:0:
109,151,81558,1,0,0:0:0:0:
242,141,81730,1,0,0:0:0:0:
140,230,81901,1,2,0:0:0:0:
174,94,82072,2,0,P|181:61|173:11,1,84.4999961318971,8|0,0:0|0:0,0:0:0:0:
242,141,82415,6,0,P|235:174|240:226,1,84.4999961318971,2|0,0:0|0:0,0:0:0:0:
360,186,82758,2,0,P|367:153|361:103,1,84.4999961318971,8|0,0:0|0:0,0:0:0:0:
319,277,83101,1,0,0:0:0:0:
445,282,83272,1,2,0:0:0:0:
499,167,83444,2,0,P|508:127|498:81,1,84.4999961318971,8|0,0:0|0:0,0:0:0:0:
358,36,83787,6,0,P|349:76|359:119,1,84.4999961318971,2|0,0:0|0:0,0:0:0:0:
339,244,84130,2,0,L|252:244,1,84.4999961318971,8|0,0:0|0:0,0:0:0:0:
143,183,84472,2,0,P|103:178|57:199,1,84.4999961318971,0|2,0:0|0:0,0:0:0:0:
151,288,84815,2,0,P|189:295|255:239,1,126.749994197846,8|0,0:0|0:0,0:0:0:0:
256,210,85158,6,0,L|243:136,1,65,2|0,0:0|0:0,0:0:0:0:
293,43,85501,2,0,P|328:60|409:32,1,130,12|0,0:0|0:0,0:0:0:0:
507,20,86015,2,0,L|492:151,1,130,0|0,0:0|0:0,0:0:0:0:
453,239,86530,6,0,P|395:178|402:115,1,130,0|0,0:0|0:0,0:0:0:0:
453,239,87044,2,0,P|436:286|365:317,1,130,0|0,0:0|0:0,0:0:0:0:
295,250,87558,2,0,P|247:240|225:242,1,65,0|0,0:0|0:0,0:0:0:0:
160,336,87901,6,0,P|120:336|94:329,1,65,2|0,0:0|0:0,0:0:0:0:
23,264,88244,2,0,P|70:232|149:246,1,130,8|0,0:0|0:0,0:0:0:0:
233,269,88758,2,0,B|291:282|291:282|360:256,1,130,0|0,0:0|0:0,0:0:0:0:
454,235,89272,6,0,L|431:370,1,130,0|0,0:0|0:0,0:0:0:0:
337,336,89787,1,0,0:0:0:0:
245,368,89958,2,0,L|191:331,1,65,8|0,0:0|0:0,0:0:0:0:
195,233,90301,2,0,L|176:165,1,65,8|0,0:0|0:0,0:0:0:0:
280,95,90644,6,0,P|317:137|304:209,1,126.749994197846,0|0,0:0|0:0,0:0:0:0:
321,235,90987,6,0,L|407:260,1,84.4999961318971,8|0,0:0|0:0,0:0:0:0:
506,185,91330,2,0,L|425:160,1,84.4999961318971,0|2,0:0|0:0,0:0:0:0:
366,333,91672,2,0,P|319:352|277:344,1,84.4999961318971,12|0,0:0|0:0,0:0:0:0:
176,283,92015,6,0,P|216:268|267:278,1,84.4999961318971,2|0,0:0|0:0,0:0:0:0:
181,170,92358,1,8,0:0:0:0:
77,111,92530,1,0,0:0:0:0:
165,34,92701,1,0,0:0:0:0:
270,86,92872,1,2,0:0:0:0:
181,170,93044,2,0,P|150:205|99:216,1,84.4999961318971,8|0,0:0|0:0,0:0:0:0:
19,300,93387,6,0,P|15:343|32:387,1,84.4999961318971,2|0,0:0|0:0,0:0:0:0:
149,363,93730,2,0,P|149:319|128:275,1,84.4999961318971,8|0,0:0|0:0,0:0:0:0:
244,222,94072,2,0,L|246:313,1,84.4999961318971,0|2,0:0|0:0,0:0:0:0:
346,224,94415,2,0,L|344:133,1,84.4999961318971,8|0,0:0|0:0,0:0:0:0:
442,59,94758,5,2,0:0:0:0:
442,59,94930,1,0,0:0:0:0:
491,175,95101,2,0,L|463:256,1,84.4999961318971,8|0,0:0|0:0,0:0:0:0:
354,319,95444,2,0,P|313:329|270:315,1,84.4999961318971,0|2,0:0|0:0,0:0:0:0:
169,244,95787,2,0,B|149:259|149:259|145:287|145:287|120:313|122:357,1,126.749994197846,8|0,0:0|0:0,0:0:0:0:
141,379,96130,6,0,L|223:350,1,84.4999961318971,6|0,0:0|0:0,0:0:0:0:
281,240,96472,2,0,L|197:211,1,84.4999961318971,8|0,0:0|0:0,0:0:0:0:
108,125,96815,1,0,0:0:0:0:
229,86,96987,1,2,0:0:0:0:
201,212,97158,2,0,P|158:234|123:233,1,84.4999961318971,12|0,0:0|0:0,0:0:0:0:
242,353,97501,6,0,L|327:355,1,84.4999961318971,2|0,0:0|0:0,0:0:0:0:
500,352,97844,1,8,0:0:0:0:
394,282,98015,1,0,0:0:0:0:
493,202,98187,1,0,0:0:0:0:
376,152,98358,1,2,0:0:0:0:
262,218,98530,2,0,P|222:210|186:183,1,84.4999961318971,8|0,0:0|0:0,0:0:0:0:
48,110,98872,6,0,L|49:205,1,84.4999961318971,2|0,0:0|0:0,0:0:0:0:
121,295,99215,2,0,L|120:200,1,84.4999961318971,8|0,0:0|0:0,0:0:0:0:
45,327,99558,1,0,0:0:0:0:
45,327,99730,1,2,0:0:0:0:
181,347,99901,2,0,P|226:333|271:344,1,84.4999961318971,8|0,0:0|0:0,0:0:0:0:
410,358,100244,6,0,P|365:372|320:361,1,84.4999961318971,2|0,0:0|0:0,0:0:0:0:
343,238,100587,2,0,L|259:226,1,84.4999961318971,8|0,0:0|0:0,0:0:0:0:
132,219,100930,1,0,0:0:0:0:
105,342,101101,1,2,0:0:0:0:
226,377,101272,2,0,P|239:340|224:290,1,84.4999961318971,8|0,0:0|0:0,0:0:0:0:
188,139,101615,6,0,L|178:46,1,84.4999961318971,6|0,0:0|0:0,0:0:0:0:
302,80,101958,2,0,L|312:173,1,84.4999961318971,8|0,0:0|0:0,0:0:0:0:
404,257,102301,1,0,0:0:0:0:
404,257,102472,1,2,0:0:0:0:
459,142,102644,2,0,L|441:55,1,84.4999961318971,8|0,0:0|0:0,0:0:0:0:
404,257,102987,6,0,P|439:277|488:279,1,84.4999961318971,2|0,0:0|0:0,0:0:0:0:
290,321,103330,2,0,P|254:319|214:289,1,84.4999961318971,8|0,0:0|0:0,0:0:0:0:
177,170,103672,1,0,0:0:0:0:
287,233,103844,1,2,0:0:0:0:
128,294,104015,2,0,P|89:307|55:338,1,84.4999961318971,8|0,0:0|0:0,0:0:0:0:
101,198,104358,6,0,L|98:107,1,84.4999961318971,2|0,0:0|0:0,0:0:0:0:
209,52,104701,2,0,L|212:143,1,84.4999961318971,8|0,0:0|0:0,0:0:0:0:
320,202,105044,1,0,0:0:0:0:
431,141,105215,1,2,0:0:0:0:
323,33,105387,2,0,P|307:71|309:118,1,84.4999961318971,8|0,0:0|0:0,0:0:0:0:
431,141,105730,6,0,P|447:103|446:57,1,84.4999961318971,2|0,0:0|0:0,0:0:0:0:
320,202,106072,2,0,P|322:244|342:284,1,84.4999961318971,8|0,0:0|0:0,0:0:0:0:
214,264,106415,2,0,L|123:280,1,84.4999961318971,0|2,0:0|0:0,0:0:0:0:
86,159,106758,2,0,L|4:140,1,84.4999961318971,8|0,0:0|0:0,0:0:0:0:
155,89,107101,6,0,L|161:164,1,58.4999982147217,2|0,0:0|0:0,0:0:0:0:
245,164,107444,1,0,0:0:0:0:
239,76,107615,1,0,0:0:0:0:
339,119,107787,6,0,L|353:265,1,143.000004364014,12|0,0:0|0:0,0:0:0:0:
245,271,108301,1,0,0:0:0:0:
152,220,108472,6,0,P|119:210|79:219,1,71.5000021820069,2|0,0:0|0:0,0:0:0:0:
124,316,108815,2,0,P|157:326|197:317,1,71.5000021820069,0|2,0:0|0:0,0:0:0:0:
151,199,109158,2,0,P|118:189|78:198,1,71.5000021820069,8|0,0:0|0:0,0:0:0:0:
126,339,109501,2,0,P|159:349|199:340,1,71.5000021820069,2|0,0:0|0:0,0:0:0:0:
264,237,109844,5,2,0:0:0:0:
368,261,110015,2,0,L|380:295,2,35.7500010910034,0|0|0,0:0|0:0|0:0,0:0:0:0:
312,168,110358,1,0,0:0:0:0:
416,191,110530,2,0,L|440:220,2,35.7500010910034,8|0|0,0:0|0:0|0:0,0:0:0:0:
359,99,110872,1,0,0:0:0:0:
472,122,111044,1,0,0:0:0:0:
472,122,111130,1,0,0:0:0:0:
472,122,111215,5,6,0:0:0:0:
256,192,111301,12,6,112587,0:0:0:0:
239,53,112930,6,0,L|173:49,1,65,0|0,0:0|0:0,0:0:0:0:
105,128,113272,2,0,L|173:133,1,65,8|0,0:0|0:0,0:0:0:0:
269,148,113615,1,0,0:0:0:0:
344,210,113787,1,0,0:0:0:0:
391,304,113958,6,0,P|400:343|399:375,2,65,2|0|0,0:0|0:0|0:0,0:0:0:0:
293,314,114472,1,2,0:0:0:0:
190,294,114644,2,0,P|164:270|152:231,1,65,8|0,0:0|0:0,0:0:0:0:
219,158,114987,2,0,P|245:182|257:221,1,65,2|0,0:0|0:0,0:0:0:0:
124,168,115330,6,0,P|123:132|191:68,1,130,2|0,0:0|0:0,0:0:0:0:
373,89,116015,2,0,L|365:162,2,65,8|0|0,0:0|0:0|0:0,0:0:0:0:
274,104,116530,1,0,0:0:0:0:
178,78,116701,6,0,L|180:159,1,65,2|0,0:0|0:0,0:0:0:0:
82,170,117044,2,0,L|80:89,1,65,0|2,0:0|0:0,0:0:0:0:
179,142,117387,2,0,L|225:195,1,65,8|0,0:0|0:0,0:0:0:0:
313,156,117730,2,0,L|267:103,1,65,2|0,0:0|0:0,0:0:0:0:
404,59,118072,5,6,0:0:0:0:
461,138,118244,1,0,0:0:0:0:
461,234,118415,2,0,P|459:269|452:299,1,65,0|0,0:0|0:0,0:0:0:0:
356,338,118758,2,0,P|358:303|364:272,1,65,8|0,0:0|0:0,0:0:0:0:
276,235,119101,2,0,L|178:228,1,97.5,0|0,0:0|0:0,0:0:0:0:
183,266,119444,6,0,L|177:334,1,65,2|0,0:0|0:0,0:0:0:0:
76,293,119787,2,0,L|81:224,1,65,0|2,0:0|0:0,0:0:0:0:
164,153,120130,2,0,P|194:148|230:151,1,65,8|0,0:0|0:0,0:0:0:0:
322,176,120472,2,0,P|351:191|376:219,1,65,2|0,0:0|0:0,0:0:0:0:
423,314,120815,5,2,0:0:0:0:
336,359,120987,2,0,L|309:380,2,32.5,0|0|0,0:0|0:0|0:0,0:0:0:0:
290,274,121330,1,0,0:0:0:0:
215,335,121501,2,0,L|175:346,2,32.5,8|0|0,0:0|0:0|0:0,0:0:0:0:
168,249,121844,1,0,0:0:0:0:
88,305,122015,1,0,0:0:0:0:
88,305,122101,1,0,0:0:0:0:
88,305,122187,6,0,L|78:234,1,65,2|0,0:0|0:0,0:0:0:0:
40,150,122530,2,0,L|-7:141,2,32.5,0|0|2,0:0|0:0|0:0,0:0:0:0:
120,83,122872,2,0,L|160:87,3,32.5,8|0|0|0,0:0|0:0|0:0|0:0,0:0:0:0:
193,59,123215,2,0,L|229:71,3,32.5,2|0|0|0,0:0|0:0|0:0|0:0,0:0:0:0:
271,80,123558,6,0,L|279:150,1,65,6|0,0:0|0:0,0:0:0:0:
362,194,123901,2,0,L|354:124,1,65,0|0,0:0|0:0,0:0:0:0:
434,56,124244,2,0,P|460:104|448:175,1,130,8|0,0:0|0:0,0:0:0:0:
407,272,124758,1,0,0:0:0:0:
304,289,124930,6,0,L|233:280,1,65,2|0,0:0|0:0,0:0:0:0:
146,309,125272,2,0,L|123:246,1,65,0|2,0:0|0:0,0:0:0:0:
21,230,125615,2,0,L|59:170,1,65,8|0,0:0|0:0,0:0:0:0:
16,89,125958,2,0,L|87:91,1,65,0|0,0:0|0:0,0:0:0:0:
183,31,126301,6,0,P|202:57|211:102,1,65,2|0,0:0|0:0,0:0:0:0:
310,88,126644,2,0,P|321:117|322:152,1,65,0|0,0:0|0:0,0:0:0:0:
326,253,126987,2,0,P|272:242|225:175,1,130,8|0,0:0|0:0,0:0:0:0:
317,148,127501,1,0,0:0:0:0:
416,198,127672,6,0,P|427:231|425:262,1,65,2|0,0:0|0:0,0:0:0:0:
347,312,128015,2,0,P|336:279|338:248,1,65,0|2,0:0|0:0,0:0:0:0:
426,190,128358,2,0,P|437:223|435:254,1,65,8|0,0:0|0:0,0:0:0:0:
334,324,128701,2,0,P|323:291|325:260,1,65,2|0,0:0|0:0,0:0:0:0:
329,145,129044,5,4,0:0:0:0:
255,80,129215,2,0,L|266:45,2,32.5,0|0|0,0:0|0:0|0:0,0:0:0:0:
159,101,129558,1,0,0:0:0:0:
123,199,129730,2,0,P|113:233|115:263,1,65,8|0,0:0|0:0,0:0:0:0:
204,299,130072,1,0,0:0:0:0:
112,345,130244,1,0,0:0:0:0:
213,382,130415,6,0,L|279:376,1,65,2|0,0:0|0:0,0:0:0:0:
338,299,130758,1,0,0:0:0:0:
338,299,130930,1,2,0:0:0:0:
269,216,131101,2,0,L|195:204,1,65,8|0,0:0|0:0,0:0:0:0:
184,111,131444,2,0,L|258:123,1,65,2|0,0:0|0:0,0:0:0:0:
358,156,131787,5,2,0:0:0:0:
449,189,131958,2,0,L|486:172,2,32.5,0|0|0,0:0|0:0|0:0,0:0:0:0:
364,242,132301,1,0,0:0:0:0:
455,275,132472,2,0,L|491:257,2,32.5,8|0|0,0:0|0:0|0:0,0:0:0:0:
369,322,132815,1,0,0:0:0:0:
268,290,132987,1,0,0:0:0:0:
268,290,133072,1,0,0:0:0:0:
268,290,133158,6,0,P|232:273|201:269,1,65,2|0,0:0|0:0,0:0:0:0:
110,258,133501,2,0,P|110:292|122:320,1,65,0|2,0:0|0:0,0:0:0:0:
165,195,133844,2,0,L|161:161,3,32.5,8|0|0|0,0:0|0:0|0:0|0:0,0:0:0:0:
205,141,134187,2,0,L|206:107,3,32.5,2|0|0|0,0:0|0:0|0:0|0:0,0:0:0:0:
254,84,134530,6,0,P|293:70|335:66,1,71.5000021820069,6|0,0:0|0:0,0:0:0:0:
408,130,134872,2,0,L|398:204,1,71.5000021820069,0|0,0:0|0:0,0:0:0:0:
398,315,135215,2,0,L|338:269,1,71.5000021820069,8|0,0:0|0:0,0:0:0:0:
249,216,135558,2,0,L|318:187,1,71.5000021820069,0|0,0:0|0:0,0:0:0:0:
278,305,135901,6,0,P|225:309|163:249,1,143.000004364014,2|0,0:0|0:0,0:0:0:0:
157,139,136415,1,2,0:0:0:0:
266,111,136587,2,0,P|271:147|263:180,1,71.5000021820069,8|0,0:0|0:0,0:0:0:0:
157,139,136930,2,0,P|152:103|160:70,1,71.5000021820069,2|0,0:0|0:0,0:0:0:0:
266,111,137272,6,0,P|306:116|339:107,1,71.5000021820069,2|0,0:0|0:0,0:0:0:0:
407,27,137615,2,0,P|367:22|333:29,1,71.5000021820069,0|0,0:0|0:0,0:0:0:0:
418,124,137958,2,0,P|468:110|506:30,1,143.000004364014,8|0,0:0|0:0,0:0:0:0:
418,124,138472,1,0,0:0:0:0:
422,233,138644,6,0,L|405:303,1,71.5000021820069,2|0,0:0|0:0,0:0:0:0:
283,301,138987,2,0,L|319:236,1,71.5000021820069,0|2,0:0|0:0,0:0:0:0:
200,229,139330,2,0,L|146:282,1,71.5000021820069,8|0,0:0|0:0,0:0:0:0:
36,228,139672,2,0,L|102:194,1,71.5000021820069,2|0,0:0|0:0,0:0:0:0:
156,89,140015,6,0,P|185:56|279:49,1,143.000004364014,6|0,0:0|0:0,0:0:0:0:
382,78,140530,1,0,0:0:0:0:
420,175,140701,2,0,L|408:251,1,71.5000021820069,8|0,0:0|0:0,0:0:0:0:
302,263,141044,2,0,L|314:187,1,71.5000021820069,0|0,0:0|0:0,0:0:0:0:
331,345,141387,6,0,P|290:350|261:339,2,71.5000021820069,2|0|0,0:0|0:0|0:0,0:0:0:0:
220,272,141901,1,2,0:0:0:0:
103,314,142072,2,0,L|99:237,1,71.5000021820069,8|0,0:0|0:0,0:0:0:0:
19,169,142415,2,0,L|23:246,1,71.5000021820069,2|0,0:0|0:0,0:0:0:0:
168,175,142758,5,2,0:0:0:0:
274,148,142930,2,0,L|313:129,2,35.7500010910034,0|0|0,0:0|0:0|0:0,0:0:0:0:
248,251,143272,1,0,0:0:0:0:
350,218,143444,2,0,L|385:211,2,35.7500010910034,8|0|0,0:0|0:0|0:0,0:0:0:0:
346,325,143787,1,0,0:0:0:0:
454,264,143958,1,0,0:0:0:0:
454,264,144044,1,0,0:0:0:0:
454,264,144130,6,0,P|467:230|466:194,1,71.5000021820069,2|0,0:0|0:0,0:0:0:0:
367,154,144472,2,0,P|355:191|356:224,1,71.5000021820069,0|2,0:0|0:0,0:0:0:0:
252,282,144815,2,0,L|215:278,3,35.7500010910034,8|0|0|0,0:0|0:0|0:0|0:0,0:0:0:0:
168,254,145158,2,0,L|131:256,3,35.7500010910034,2|0|0|0,0:0|0:0|0:0|0:0,0:0:0:0:
97,218,145501,6,0,P|92:180|96:150,1,68.2499979171754,6|0,0:0|0:0,0:0:0:0:
185,100,145844,2,0,P|190:138|186:168,1,68.2499979171754,0|0,0:0|0:0,0:0:0:0:
280,226,146187,2,0,P|323:210|362:120,1,136.499995834351,0|0,0:0|0:0,0:0:0:0:
263,125,146701,1,0,0:0:0:0:
192,198,146872,6,0,L|199:275,1,68.2499979171754,0|0,0:0|0:0,0:0:0:0:
122,335,147215,2,0,L|115:258,1,68.2499979171754,0|0,0:0|0:0,0:0:0:0:
59,180,147558,2,0,L|68:109,1,68.2499979171754,0|2,0:0|0:0,0:0:0:0:
170,119,147901,2,0,L|218:28,1,102.374996875763,0|0,0:0|0:0,0:0:0:0:
250,19,148244,6,0,B|274:15|274:15|296:27|296:27|340:8|388:32,1,136.499995834351,2|0,0:0|0:0,0:0:0:0:
447,106,148758,1,0,0:0:0:0:
359,160,148930,2,0,P|341:126|339:90,1,68.2499979171754,0|0,0:0|0:0,0:0:0:0:
447,106,149272,2,0,P|461:144|459:183,1,68.2499979171754,0|0,0:0|0:0,0:0:0:0:
397,251,149615,6,0,P|345:262|270:207,1,136.499995834351,0|0,0:0|0:0,0:0:0:0:
359,160,150130,1,0,0:0:0:0:
279,96,150301,2,0,L|206:101,1,68.2499979171754,0|2,0:0|0:0,0:0:0:0:
110,77,150644,2,0,P|90:117|104:181,1,102.374996875763,0|0,0:0|0:0,0:0:0:0:
87,207,150987,6,0,B|91:243|91:243|78:264|78:264|92:307|78:339,1,136.499995834351,6|0,0:0|0:0,0:0:0:0:
178,359,151501,1,0,0:0:0:0:
242,280,151672,2,0,P|292:285|354:350,1,136.499995834351,0|0,0:0|0:0,0:0:0:0:
254,377,152187,1,0,0:0:0:0:
158,339,152358,6,0,L|153:257,1,68.2499979171754,0|0,0:0|0:0,0:0:0:0:
63,222,152701,2,0,L|68:299,1,68.2499979171754,0|0,0:0|0:0,0:0:0:0:
149,190,153044,2,0,L|144:111,1,68.2499979171754,0|2,0:0|0:0,0:0:0:0:
52,58,153387,2,0,L|57:134,1,68.2499979171754,0|0,0:0|0:0,0:0:0:0:
196,53,153730,5,2,0:0:0:0:
286,100,153901,2,0,L|324:94,2,34.1249989585877,0|0|0,0:0|0:0|0:0,0:0:0:0:
261,199,154244,1,0,0:0:0:0:
363,198,154415,2,0,L|397:203,2,34.1249989585877,0|0|0,0:0|0:0|0:0,0:0:0:0:
380,299,154758,1,0,0:0:0:0:
283,333,154930,1,0,0:0:0:0:
283,333,155015,1,0,0:0:0:0:
283,333,155101,6,0,P|244:335|211:323,1,68.2499979171754,0|0,0:0|0:0,0:0:0:0:
127,275,155444,2,0,P|120:243|128:202,1,68.2499979171754,0|0,0:0|0:0,0:0:0:0:
215,165,155787,2,0,L|215:203,3,34.1249989585877,0|0|0|0,0:0|0:0|0:0|0:0,0:0:0:0:
265,207,156130,2,0,L|270:242,3,34.1249989585877,0|0|0|0,0:0|0:0|0:0|0:0,0:0:0:0:
311,269,156472,5,6,0:0:0:0:
