osu file format v14

[General]
AudioFilename: audio.mp3
AudioLeadIn: 0
PreviewTime: 67844
Countdown: 0
SampleSet: None
StackLeniency: 0.6
Mode: 0
LetterboxInBreaks: 0
WidescreenStoryboard: 0

[Editor]
Bookmarks: 91330
DistanceSpacing: 1.6
BeatDivisor: 4
GridSize: 4
TimelineZoom: 1.2

[Metadata]
Title:Never Hold Us Back
TitleUnicode:Never Hold Us Back
Artist:Major Look
ArtistUnicode:Major Look
Creator:vanucik
Version:Hard
Source:
Tags:electronic cut drum and bass dubstep short cut version male vocal trap
BeatmapID:950263
BeatmapSetID:438577

[Difficulty]
HPDrainRate:5
CircleSize:3.6
OverallDifficulty:6
ApproachRate:7
SliderMultiplier:1
SliderTickRate:1

[Events]
//Background and Video events
0,0,"maxresdefaultmajorlook.jpg",0,0
//Break Periods
2,46958,56755
//Storyboard Layer 0 (Background)
//Storyboard Layer 1 (Fail)
//Storyboard Layer 2 (Pass)
//Storyboard Layer 3 (Foreground)
//Storyboard Sound Samples

[TimingPoints]
130,342.857142857143,4,3,1,70,1,0
2872,-90.9090909090909,4,3,1,70,0,0
35787,-100,4,3,1,50,0,0
43930,-100,4,3,1,70,0,0
46758,-100,4,3,1,70,0,0
57730,-100,4,3,1,70,0,0
67844,-100,4,3,1,50,0,0
68530,-100,4,3,1,30,0,0
68701,-83.3333333333333,4,3,1,80,0,1
85158,-100,4,3,1,70,0,0
90644,-83.3333333333333,4,3,1,70,0,0
90987,-83.3333333333333,4,3,1,80,0,1
107101,-100,4,3,1,70,0,0
112587,-95.2380952380952,4,3,1,70,0,0
134530,-90.9090909090909,4,3,1,80,0,0
145501,-90.9090909090909,4,3,1,50,0,0
153730,-90.9090909090909,4,3,1,70,0,0

[Colours]
Combo1 : 255,128,0
Combo2 : 215,0,0
Combo3 : 255,140,140

[HitObjects]
80,280,130,6,0,P|76:232|97:181,1,100,0|0,0:0|0:0,0:0:0:0:
168,153,644,1,0,0:0:0:0:
227,206,815,2,0,L|227:268,2,50,0|0|0,0:0|0:0|0:0,0:0:0:0:
287,152,1330,1,0,0:0:0:0:
347,204,1501,6,0,P|333:235|318:245,1,50,0|0,0:0|0:0,0:0:0:0:
284,315,1844,2,0,P|249:327|235:328,1,50,0|0,0:0|0:0,0:0:0:0:
160,302,2187,2,0,P|136:261|134:247,1,50,0|0,0:0|0:0,0:0:0:0:
181,193,2530,2,0,P|179:164|172:140,1,50,0|0,0:0|0:0,0:0:0:0:
106,94,2872,6,0,L|98:34,1,55.0000016784668,6|0,0:0|0:0,0:0:0:0:
195,11,3215,2,0,L|183:75,1,55.0000016784668,0|0,0:0|0:0,0:0:0:0:
253,120,3558,2,0,P|280:132|358:104,1,110.000003356934,8|0,0:0|0:0,0:0:0:0:
421,53,4072,1,0,0:0:0:0:
467,128,4244,6,0,L|466:186,1,55.0000016784668,2|0,0:0|0:0,0:0:0:0:
386,220,4587,2,0,L|365:280,1,55.0000016784668,0|2,0:0|0:0,0:0:0:0:
299,327,4930,1,8,0:0:0:0:
123,314,5272,1,2,0:0:0:0:
66,147,5615,6,0,L|75:81,2,55.0000016784668,2|0|0,0:0|0:0|0:0,0:0:0:0:
131,205,6130,1,0,0:0:0:0:
215,181,6301,2,0,L|328:194,1,110.000003356934,8|0,0:0|0:0,0:0:0:0:
405,159,6815,1,0,0:0:0:0:
346,92,6987,6,0,L|286:111,1,55.0000016784668,2|0,0:0|0:0,0:0:0:0:
208,83,7330,2,0,L|136:85,1,55.0000016784668,0|2,0:0|0:0,0:0:0:0:
72,50,7672,1,8,0:0:0:0:
76,226,8015,1,2,0:0:0:0:
218,329,8358,6,0,L|280:347,1,55.0000016784668,6|0,0:0|0:0,0:0:0:0:
344,295,8701,2,0,L|397:283,1,55.0000016784668,0|0,0:0|0:0,0:0:0:0:
382,195,9044,2,0,P|381:166|424:95,1,110.000003356934,8|0,0:0|0:0,0:0:0:0:
489,42,9558,1,0,0:0:0:0:
404,15,9730,6,0,L|344:23,1,55.0000016784668,2|0,0:0|0:0,0:0:0:0:
311,101,10072,2,0,L|266:131,1,55.0000016784668,0|2,0:0|0:0,0:0:0:0:
247,218,10415,1,8,0:0:0:0:
364,349,10758,1,2,0:0:0:0:
189,372,11101,6,0,L|127:273,1,110.000003356934,2|0,0:0|0:0,0:0:0:0:
83,204,11615,1,0,0:0:0:0:
145,141,11787,2,0,L|210:244,1,110.000003356934,8|0,0:0|0:0,0:0:0:0:
283,271,12301,1,0,0:0:0:0:
348,212,12472,6,0,L|408:215,1,55.0000016784668,2|0,0:0|0:0,0:0:0:0:
421,129,12815,2,0,L|361:126,1,55.0000016784668,0|2,0:0|0:0,0:0:0:0:
280,146,13158,1,8,0:0:0:0:
341,310,13501,1,2,0:0:0:0:
165,322,13844,6,0,P|145:301|131:268,1,55.0000016784668,6|0,0:0|0:0,0:0:0:0:
174,200,14187,2,0,P|161:175|139:154,1,55.0000016784668,0|0,0:0|0:0,0:0:0:0:
64,113,14530,2,0,P|56:88|58:52,2,55.0000016784668,8|0|0,0:0|0:0|0:0,0:0:0:0:
142,73,15044,1,0,0:0:0:0:
218,115,15215,6,0,L|278:118,1,55.0000016784668,2|0,0:0|0:0,0:0:0:0:
359,100,15558,2,0,L|413:127,1,55.0000016784668,0|2,0:0|0:0,0:0:0:0:
442,205,15901,2,0,L|502:189,2,55.0000016784668,8|0|2,0:0|0:0|0:0,0:0:0:0:
366,250,16415,1,0,0:0:0:0:
277,255,16587,6,0,L|241:303,1,55.0000016784668,2|0,0:0|0:0,0:0:0:0:
175,243,16930,2,0,L|121:269,1,55.0000016784668,0|0,0:0|0:0,0:0:0:0:
89,186,17272,2,0,L|23:190,1,55.0000016784668,8|0,0:0|0:0,0:0:0:0:
24,101,17615,1,0,0:0:0:0:
199,92,17958,5,2,0:0:0:0:
284,70,18130,2,0,L|297:15,2,55.0000016784668,0|0|2,0:0|0:0|0:0,0:0:0:0:
258,154,18644,2,0,L|273:210,1,55.0000016784668,8|0,0:0|0:0,0:0:0:0:
353,242,18987,2,0,L|333:302,1,55.0000016784668,2|0,0:0|0:0,0:0:0:0:
251,321,19330,5,6,0:0:0:0:
175,275,19501,2,0,L|165:214,2,55.0000016784668,0|0|0,0:0|0:0|0:0,0:0:0:0:
119,343,20015,1,8,0:0:0:0:
88,169,20358,2,0,P|92:144|104:114,1,55.0000016784668,0|0,0:0|0:0,0:0:0:0:
175,66,20701,5,2,0:0:0:0:
345,109,21044,1,0,0:0:0:0:
368,193,21215,1,2,0:0:0:0:
361,281,21387,2,0,P|361:308|349:340,1,55.0000016784668,8|0,0:0|0:0,0:0:0:0:
262,359,21730,2,0,P|261:331|273:299,1,55.0000016784668,2|0,0:0|0:0,0:0:0:0:
193,261,22072,6,0,P|179:222|197:153,1,110.000003356934,2|0,0:0|0:0,0:0:0:0:
191,68,22587,1,0,0:0:0:0:
268,108,22758,2,0,P|282:147|264:216,1,110.000003356934,8|0,0:0|0:0,0:0:0:0:
118,115,23444,6,0,P|104:91|101:58,1,55.0000016784668,2|0,0:0|0:0,0:0:0:0:
172,17,23787,2,0,P|186:41|191:71,1,55.0000016784668,0|2,0:0|0:0,0:0:0:0:
271,31,24130,2,0,L|388:20,1,110.000003356934,8|2,0:0|0:0,0:0:0:0:
301,177,24815,5,6,0:0:0:0:
290,268,24987,2,0,L|288:326,2,55.0000016784668,0|0|0,0:0|0:0|0:0,0:0:0:0:
374,243,25501,2,0,P|394:214|387:139,1,110.000003356934,8|0,0:0|0:0,0:0:0:0:
308,94,26015,1,0,0:0:0:0:
225,125,26187,6,0,P|205:154|212:229,1,110.000003356934,2|0,0:0|0:0,0:0:0:0:
151,291,26701,1,2,0:0:0:0:
86,231,26872,2,0,P|101:190|74:124,1,110.000003356934,8|2,0:0|0:0,0:0:0:0:
239,53,27558,6,0,L|297:56,2,55.0000016784668,2|0|0,0:0|0:0|0:0,0:0:0:0:
385,152,28244,2,0,P|409:104|396:50,1,110.000003356934,8|0,0:0|0:0,0:0:0:0:
248,146,28930,5,2,0:0:0:0:
160,151,29101,2,0,L|137:91,2,55.0000016784668,0|0|2,0:0|0:0|0:0,0:0:0:0:
97,214,29615,2,0,P|87:252|113:317,1,110.000003356934,8|2,0:0|0:0,0:0:0:0:
288,312,30301,5,6,0:0:0:0:
324,232,30472,2,0,L|332:174,2,55.0000016784668,0|0|0,0:0|0:0|0:0,0:0:0:0:
409,207,30987,2,0,P|418:169|371:101,1,110.000003356934,8|0,0:0|0:0,0:0:0:0:
297,104,31501,1,0,0:0:0:0:
225,155,31672,6,0,P|172:173|117:153,1,110.000003356934,2|0,0:0|0:0,0:0:0:0:
238,24,32358,2,0,L|351:28,1,110.000003356934,8|2,0:0|0:0,0:0:0:0:
420,78,32872,1,0,0:0:0:0:
406,166,33044,6,0,P|392:214|338:248,1,110.000003356934,2|0,0:0|0:0,0:0:0:0:
259,223,33558,1,0,0:0:0:0:
195,284,33730,2,0,L|132:303,1,55.0000016784668,8|0,0:0|0:0,0:0:0:0:
88,230,34072,2,0,L|33:231,1,55.0000016784668,0|0,0:0|0:0,0:0:0:0:
11,145,34415,5,2,0:0:0:0:
172,75,34758,1,0,0:0:0:0:
257,97,34930,1,2,0:0:0:0:
321,157,35101,2,0,L|379:159,1,55.0000016784668,8|0,0:0|0:0,0:0:0:0:
343,241,35444,2,0,L|285:239,1,55.0000016784668,2|0,0:0|0:0,0:0:0:0:
212,212,35787,6,0,P|189:213|163:221,2,50,6|0|0,0:0|0:0|0:0,0:0:0:0:
52,199,36472,2,0,P|45:223|70:303,1,100,0|0,0:0|0:0,0:0:0:0:
133,331,36987,1,0,0:0:0:0:
199,286,37158,5,0,0:0:0:0:
268,326,37330,2,0,L|323:335,2,50,0|0|0,0:0|0:0|0:0,0:0:0:0:
275,246,37844,2,0,L|289:141,1,100,0|0,0:0|0:0,0:0:0:0:
440,68,38530,6,0,L|426:174,1,100,2|0,0:0|0:0,0:0:0:0:
354,201,39044,1,0,0:0:0:0:
288,146,39215,2,0,L|229:121,1,50,0|0,0:0|0:0,0:0:0:0:
176,173,39558,2,0,L|116:181,1,50,0|0,0:0|0:0,0:0:0:0:
85,248,39901,6,0,P|73:293|86:352,1,100,0|0,0:0|0:0,0:0:0:0:
157,373,40415,1,0,0:0:0:0:
234,353,40587,2,0,P|246:306|235:250,1,100,0|0,0:0|0:0,0:0:0:0:
163,113,41272,6,0,L|161:216,1,100,6|0,0:0|0:0,0:0:0:0:
237,187,41787,1,0,0:0:0:0:
309,153,41958,2,0,L|311:50,1,100,0|0,0:0|0:0,0:0:0:0:
390,44,42472,1,0,0:0:0:0:
442,104,42644,6,0,L|454:161,1,50,0|0,0:0|0:0,0:0:0:0:
385,197,42987,2,0,L|377:258,1,50,0|0,0:0|0:0,0:0:0:0:
300,264,43330,2,0,P|267:307|208:321,1,100,0|0,0:0|0:0,0:0:0:0:
76,261,44015,6,0,P|64:234|68:161,1,100,2|0,0:0|0:0,0:0:0:0:
117,101,44530,1,0,0:0:0:0:
193,125,44701,2,0,P|239:136|293:119,1,100,8|0,0:0|0:0,0:0:0:0:
367,109,45215,1,0,0:0:0:0:
423,166,45387,5,2,0:0:0:0:
330,296,45730,1,0,0:0:0:0:
170,288,46072,2,0,P|161:264|158:238,1,50,2|0,0:0|0:0,0:0:0:0:
219,187,46415,2,0,P|228:160|232:135,1,50,2|0,0:0|0:0,0:0:0:0:
185,73,46758,5,6,0:0:0:0:
378,346,57730,6,0,P|392:302|379:245,1,100,4|0,0:0|0:0,0:0:0:0:
302,240,58244,2,0,L|196:263,1,100,0|0,0:0|0:0,0:0:0:0:
124,255,58758,1,0,0:0:0:0:
131,95,59101,6,0,B|158:135|158:135|168:186,1,100,0|0,0:0|0:0,0:0:0:0:
246,170,59615,2,0,P|290:156|346:166,1,100,0|0,0:0|0:0,0:0:0:0:
417,193,60130,2,0,L|413:247,1,50,0|0,0:0|0:0,0:0:0:0:
343,281,60472,6,0,L|244:264,1,100,0|0,0:0|0:0,0:0:0:0:
238,344,60987,2,0,L|140:360,1,100,0|0,0:0|0:0,0:0:0:0:
93,294,61501,2,0,P|81:260|79:242,1,50,0|0,0:0|0:0,0:0:0:0:
83,166,61844,6,0,P|120:173|157:229,1,100,0|0,0:0|0:0,0:0:0:0:
234,234,62358,2,0,L|238:133,1,100,0|0,0:0|0:0,0:0:0:0:
284,68,62872,1,0,0:0:0:0:
421,149,63215,6,0,L|425:201,1,50,4|0,0:0|0:0,0:0:0:0:
347,219,63558,2,0,L|338:271,1,50,0|0,0:0|0:0,0:0:0:0:
259,283,63901,2,0,L|230:334,1,50,0|0,0:0|0:0,0:0:0:0:
155,311,64244,2,0,L|104:342,1,50,0|0,0:0|0:0,0:0:0:0:
57,278,64587,6,0,B|50:230|50:230|59:179,1,100,4|0,0:0|0:0,0:0:0:0:
113,120,65101,1,0,0:0:0:0:
174,170,65272,2,0,B|226:191,1,50,0|0,0:0|0:0,0:0:0:0:
291,151,65615,2,0,L|341:140,1,50,0|0,0:0|0:0,0:0:0:0:
419,147,65958,6,0,L|416:248,1,100,4|0,0:0|0:0,0:0:0:0:
370,312,66472,1,0,0:0:0:0:
290,325,66644,2,0,P|267:330|242:326,1,50,0|0,0:0|0:0,0:0:0:0:
168,291,66987,2,0,P|146:279|129:258,1,50,0|0,0:0|0:0,0:0:0:0:
196,215,67330,6,0,L|220:112,1,100,4|0,0:0|0:0,0:0:0:0:
289,80,67844,2,0,B|301:121|301:121|290:161|290:161|312:225|273:279,1,200,0|0,0:0|0:0,0:0:0:0:
183,290,68701,6,0,L|119:285,1,59.9999981689454,6|0,0:0|0:0,0:0:0:0:
88,195,69044,2,0,L|30:174,1,59.9999981689454,8|0,0:0|0:0,0:0:0:0:
42,78,69387,1,0,0:0:0:0:
134,53,69558,1,2,0:0:0:0:
193,128,69730,2,0,P|230:135|250:129,1,59.9999981689454,8|0,0:0|0:0,0:0:0:0:
322,64,70072,6,0,P|348:59|385:65,1,59.9999981689454,2|0,0:0|0:0,0:0:0:0:
413,154,70415,2,0,L|414:221,1,59.9999981689454,8|0,0:0|0:0,0:0:0:0:
320,235,70758,2,0,L|320:172,1,59.9999981689454,0|2,0:0|0:0,0:0:0:0:
229,206,71101,2,0,L|228:278,1,59.9999981689454,8|0,0:0|0:0,0:0:0:0:
144,217,71444,6,0,P|146:179|206:124,1,119.999996337891,2|8,0:0|0:0,0:0:0:0:
392,95,72130,2,0,L|410:160,1,59.9999981689454,0|2,0:0|0:0,0:0:0:0:
469,226,72472,2,0,L|448:284,1,59.9999981689454,8|0,0:0|0:0,0:0:0:0:
353,297,72815,6,0,B|319:288|319:288|287:299|287:299|268:290|237:290,1,119.999996337891,2|8,0:0|0:0,0:0:0:0:
50,242,73501,2,0,P|44:210|47:178,1,59.9999981689454,0|2,0:0|0:0,0:0:0:0:
97,101,73844,1,8,0:0:0:0:
215,252,74187,6,0,L|285:267,1,59.9999981689454,6|0,0:0|0:0,0:0:0:0:
340,333,74530,2,0,L|405:317,1,59.9999981689454,8|0,0:0|0:0,0:0:0:0:
488,286,74872,1,0,0:0:0:0:
501,190,75044,1,2,0:0:0:0:
417,142,75215,2,0,L|359:124,1,59.9999981689454,8|0,0:0|0:0,0:0:0:0:
339,30,75558,6,0,L|269:39,1,59.9999981689454,2|0,0:0|0:0,0:0:0:0:
216,110,75901,1,8,0:0:0:0:
121,125,76072,1,0,0:0:0:0:
41,70,76244,2,0,P|27:101|21:136,1,59.9999981689454,0|2,0:0|0:0,0:0:0:0:
103,181,76587,2,0,P|117:150|121:123,1,59.9999981689454,8|0,0:0|0:0,0:0:0:0:
216,109,76930,6,0,L|236:231,1,119.999996337891,2|8,0:0|0:0,0:0:0:0:
427,217,77615,2,0,L|486:212,1,59.9999981689454,0|2,0:0|0:0,0:0:0:0:
465,306,77958,2,0,L|406:311,1,59.9999981689454,8|0,0:0|0:0,0:0:0:0:
312,337,78301,6,0,B|253:351|253:351|191:329,1,119.999996337891,2|8,0:0|0:0,0:0:0:0:
17,260,78987,2,0,L|13:320,1,59.9999981689454,0|2,0:0|0:0,0:0:0:0:
95,270,79330,2,0,L|99:210,1,59.9999981689454,8|0,0:0|0:0,0:0:0:0:
178,156,79672,6,0,P|223:134|280:167,1,119.999996337891,6|8,0:0|0:0,0:0:0:0:
257,357,80358,2,0,P|290:368|333:361,1,59.9999981689454,0|2,0:0|0:0,0:0:0:0:
408,341,80701,1,8,0:0:0:0:
443,252,80872,1,0,0:0:0:0:
399,167,81044,6,0,L|274:166,1,119.999996337891,2|8,0:0|0:0,0:0:0:0:
187,134,81558,1,0,0:0:0:0:
100,176,81730,2,0,P|84:210|80:235,1,59.9999981689454,0|2,0:0|0:0,0:0:0:0:
157,288,82072,2,0,P|173:254|177:229,1,59.9999981689454,8|0,0:0|0:0,0:0:0:0:
272,244,82415,6,0,B|275:290|275:290|261:316|261:316|264:361,1,119.999996337891,2|8,0:0|0:0,0:0:0:0:
433,269,83101,2,0,L|495:302,2,59.9999981689454,0|2|8,0:0|0:0|0:0,0:0:0:0:
398,179,83615,1,0,0:0:0:0:
402,82,83787,6,0,P|452:97|487:155,1,119.999996337891,2|8,0:0|0:0,0:0:0:0:
308,119,84472,2,0,L|247:107,1,59.9999981689454,0|2,0:0|0:0,0:0:0:0:
196,27,84815,2,0,L|117:46,1,59.9999981689454,8|0,0:0|0:0,0:0:0:0:
93,107,85158,5,2,0:0:0:0:
80,186,85330,1,0,0:0:0:0:
119,255,85501,2,0,P|159:271|212:252,1,100,12|0,0:0|0:0,0:0:0:0:
257,187,86015,2,0,P|217:171|164:190,1,100,0|0,0:0|0:0,0:0:0:0:
80,186,86530,6,0,P|50:217|44:275,1,100,0|0,0:0|0:0,0:0:0:0:
91,335,87044,2,0,B|139:354|139:354|197:342,1,100,0|0,0:0|0:0,0:0:0:0:
265,354,87558,2,0,L|320:359,1,50,0|0,0:0|0:0,0:0:0:0:
343,283,87901,6,0,L|280:280,1,50,2|0,0:0|0:0,0:0:0:0:
213,272,88244,2,0,L|161:179,1,100,8|0,0:0|0:0,0:0:0:0:
243,170,88758,2,0,L|239:55,1,100,0|0,0:0|0:0,0:0:0:0:
316,92,89272,6,0,L|354:-1,1,100,0|0,0:0|0:0,0:0:0:0:
420,45,89787,1,0,0:0:0:0:
426,124,89958,2,0,L|442:176,1,50,8|0,0:0|0:0,0:0:0:0:
374,217,90301,2,0,L|360:267,1,50,8|0,0:0|0:0,0:0:0:0:
395,354,90644,6,0,P|346:363|289:326,1,119.999996337891,0|8,0:0|0:0,0:0:0:0:
122,230,91330,1,0,0:0:0:0:
50,293,91501,1,2,0:0:0:0:
136,333,91672,2,0,L|192:313,1,59.9999981689454,12|0,0:0|0:0,0:0:0:0:
238,227,92015,6,0,L|245:107,1,119.999996337891,2|8,0:0|0:0,0:0:0:0:
328,58,92530,1,0,0:0:0:0:
406,113,92701,2,0,L|403:178,1,59.9999981689454,0|2,0:0|0:0,0:0:0:0:
461,249,93044,2,0,P|460:310|460:311,1,59.9999981689454,8|0,0:0|0:0,0:0:0:0:
375,354,93387,6,0,P|332:367|253:336,1,119.999996337891,2|8,0:0|0:0,0:0:0:0:
121,213,94072,2,0,P|119:179|128:142,1,59.9999981689454,0|2,0:0|0:0,0:0:0:0:
217,129,94415,2,0,P|222:100|236:71,1,59.9999981689454,8|0,0:0|0:0,0:0:0:0:
331,71,94758,6,0,L|322:195,1,119.999996337891,2|8,0:0|0:0,0:0:0:0:
374,271,95272,1,0,0:0:0:0:
463,236,95444,2,0,B|476:206|470:177,1,59.9999981689454,0|2,0:0|0:0,0:0:0:0:
416,97,95787,2,0,B|413:65|424:31,1,59.9999981689454,8|0,0:0|0:0,0:0:0:0:
331,71,96130,6,0,P|286:93|212:77,1,119.999996337891,6|8,0:0|0:0,0:0:0:0:
34,28,96815,2,0,P|32:57|41:91,1,59.9999981689454,0|2,0:0|0:0,0:0:0:0:
79,174,97158,2,0,P|101:195|138:204,1,59.9999981689454,12|0,0:0|0:0,0:0:0:0:
225,201,97501,6,0,L|218:74,1,119.999996337891,2|8,0:0|0:0,0:0:0:0:
304,28,98015,1,0,0:0:0:0:
396,54,98187,2,0,P|405:82|406:117,1,59.9999981689454,0|2,0:0|0:0,0:0:0:0:
338,180,98530,2,0,P|339:209|348:238,1,59.9999981689454,8|0,0:0|0:0,0:0:0:0:
290,314,98872,6,0,B|260:328|236:322|236:322|207:337|207:337|176:329,1,119.999996337891,2|8,0:0|0:0,0:0:0:0:
37,198,99558,2,0,L|35:138,1,59.9999981689454,0|2,0:0|0:0,0:0:0:0:
89,58,99901,2,0,P|124:35|197:51,1,119.999996337891,8|2,0:0|0:0,0:0:0:0:
137,234,100587,5,8,0:0:0:0:
311,154,100930,2,0,P|344:144|372:141,1,59.9999981689454,0|2,0:0|0:0,0:0:0:0:
419,222,101272,2,0,P|386:232|358:235,1,59.9999981689454,8|0,0:0|0:0,0:0:0:0:
265,249,101615,6,0,B|238:302|238:302|175:320,1,119.999996337891,6|8,0:0|0:0,0:0:0:0:
21,208,102301,2,0,L|52:150,1,59.9999981689454,0|2,0:0|0:0,0:0:0:0:
143,134,102644,2,0,L|175:75,1,59.9999981689454,8|0,0:0|0:0,0:0:0:0:
262,44,102987,5,2,0:0:0:0:
439,118,103330,2,0,P|442:153|437:186,1,59.9999981689454,8|0,0:0|0:0,0:0:0:0:
366,240,103672,2,0,P|357:274|342:299,1,59.9999981689454,0|2,0:0|0:0,0:0:0:0:
262,345,104015,1,8,0:0:0:0:
167,361,104187,1,0,0:0:0:0:
74,336,104358,6,0,P|64:304|59:275,1,59.9999981689454,2|0,0:0|0:0,0:0:0:0:
141,227,104701,2,0,P|147:197|147:163,1,59.9999981689454,8|0,0:0|0:0,0:0:0:0:
52,150,105044,2,0,P|46:119|46:90,1,59.9999981689454,0|2,0:0|0:0,0:0:0:0:
129,42,105387,1,8,0:0:0:0:
317,78,105730,6,0,P|349:81|380:92,1,59.9999981689454,2|0,0:0|0:0,0:0:0:0:
424,172,106072,1,8,0:0:0:0:
300,318,106415,2,0,L|239:301,1,59.9999981689454,0|2,0:0|0:0,0:0:0:0:
163,246,106758,2,0,L|102:264,1,59.9999981689454,8|0,0:0|0:0,0:0:0:0:
43,211,107101,6,0,L|32:153,1,50,2|0,0:0|0:0,0:0:0:0:
102,121,107444,2,0,L|91:63,1,50,0|0,0:0|0:0,0:0:0:0:
163,33,107787,2,0,B|213:14|213:14|263:28,1,100,12|0,0:0|0:0,0:0:0:0:
272,105,108301,1,0,0:0:0:0:
351,111,108472,6,0,L|400:116,1,50,2|0,0:0|0:0,0:0:0:0:
450,178,108815,2,0,L|403:193,1,50,0|2,0:0|0:0,0:0:0:0:
359,261,109158,2,0,L|407:271,1,50,8|0,0:0|0:0,0:0:0:0:
451,338,109501,2,0,L|400:348,1,50,2|0,0:0|0:0,0:0:0:0:
322,335,109844,6,0,B|282:319|282:319|237:329|237:329|184:295|121:300,1,200,2|8,0:0|0:0,0:0:0:0:
9,195,110872,1,0,0:0:0:0:
157,134,111215,5,6,0:0:0:0:
256,192,111301,12,6,112587,0:0:0:0:
290,127,112930,6,0,P|316:124|350:135,1,52.4999983978272,0|0,0:0|0:0,0:0:0:0:
308,203,113272,2,0,L|241:221,2,52.4999983978272,8|0|0,0:0|0:0|0:0,0:0:0:0:
348,277,113787,1,0,0:0:0:0:
315,354,113958,6,0,L|257:361,1,52.4999983978272,2|0,0:0|0:0,0:0:0:0:
183,332,114301,1,0,0:0:0:0:
121,274,114472,1,2,0:0:0:0:
125,189,114644,2,0,L|129:120,1,52.4999983978272,8|0,0:0|0:0,0:0:0:0:
211,149,114987,2,0,L|207:218,1,52.4999983978272,2|0,0:0|0:0,0:0:0:0:
269,258,115330,5,2,0:0:0:0:
436,246,115672,1,0,0:0:0:0:
309,135,116015,2,0,L|318:194,2,52.4999983978272,8|0|0,0:0|0:0|0:0,0:0:0:0:
231,100,116530,1,0,0:0:0:0:
158,141,116701,6,0,L|93:151,1,52.4999983978272,2|0,0:0|0:0,0:0:0:0:
112,233,117044,2,0,L|67:264,1,52.4999983978272,0|2,0:0|0:0,0:0:0:0:
75,346,117387,1,8,0:0:0:0:
241,367,117730,1,2,0:0:0:0:
343,234,118072,5,6,0:0:0:0:
304,159,118244,1,0,0:0:0:0:
220,163,118415,2,0,L|164:167,1,52.4999983978272,0|0,0:0|0:0,0:0:0:0:
99,117,118758,1,8,0:0:0:0:
255,54,119101,1,0,0:0:0:0:
395,145,119444,5,2,0:0:0:0:
413,226,119615,2,0,L|473:229,2,52.4999983978272,0|0|2,0:0|0:0|0:0,0:0:0:0:
366,296,120130,2,0,P|335:316|267:313,1,104.999996795654,8|2,0:0|0:0,0:0:0:0:
218,245,120644,1,0,0:0:0:0:
250,167,120815,5,2,0:0:0:0:
405,103,121158,1,0,0:0:0:0:
467,259,121501,1,8,0:0:0:0:
311,323,121844,2,0,P|280:323|260:315,1,52.4999983978272,0|0,0:0|0:0,0:0:0:0:
201,255,122187,5,2,0:0:0:0:
287,111,122530,2,0,P|315:108|339:115,1,52.4999983978272,0|2,0:0|0:0,0:0:0:0:
306,192,122872,1,8,0:0:0:0:
139,169,123215,2,0,P|111:166|87:173,1,52.4999983978272,2|0,0:0|0:0,0:0:0:0:
53,249,123558,6,0,P|71:295|119:329,1,104.999996795654,6|0,0:0|0:0,0:0:0:0:
196,310,124072,1,0,0:0:0:0:
276,335,124244,1,8,0:0:0:0:
417,246,124587,2,0,L|413:185,1,52.4999983978272,0|0,0:0|0:0,0:0:0:0:
394,111,124930,6,0,P|347:137|327:184,1,104.999996795654,2|0,0:0|0:0,0:0:0:0:
272,245,125444,1,2,0:0:0:0:
189,229,125615,2,0,B|139:214|139:214|82:224,1,104.999996795654,8|0,0:0|0:0,0:0:0:0:
245,165,126301,6,0,L|250:61,1,104.999996795654,2|0,0:0|0:0,0:0:0:0:
331,38,126815,1,0,0:0:0:0:
410,65,126987,2,0,L|405:169,1,104.999996795654,8|0,0:0|0:0,0:0:0:0:
325,197,127501,1,0,0:0:0:0:
260,250,127672,6,0,L|255:354,1,104.999996795654,2|0,0:0|0:0,0:0:0:0:
171,369,128187,1,2,0:0:0:0:
101,322,128358,2,0,L|78:268,1,52.4999983978272,8|0,0:0|0:0,0:0:0:0:
148,223,128701,2,0,L|145:165,1,52.4999983978272,2|0,0:0|0:0,0:0:0:0:
208,114,129044,5,4,0:0:0:0:
374,139,129387,2,0,P|401:148|427:149,1,52.4999983978272,0|0,0:0|0:0,0:0:0:0:
506,129,129730,2,0,L|496:238,1,104.999996795654,8|0,0:0|0:0,0:0:0:0:
423,275,130244,1,0,0:0:0:0:
351,230,130415,6,0,P|310:212|249:227,1,104.999996795654,2|0,0:0|0:0,0:0:0:0:
187,278,130930,1,2,0:0:0:0:
247,338,131101,2,0,P|288:356|349:341,1,104.999996795654,8|2,0:0|0:0,0:0:0:0:
372,177,131787,6,0,B|323:160|323:160|266:171,1,104.999996795654,2|0,0:0|0:0,0:0:0:0:
188,188,132301,1,0,0:0:0:0:
106,205,132472,2,0,B|55:213|55:213|4:193,1,104.999996795654,8|0,0:0|0:0,0:0:0:0:
132,82,133158,6,0,L|185:88,1,52.4999983978272,2|0,0:0|0:0,0:0:0:0:
261,121,133501,2,0,L|315:115,1,52.4999983978272,0|2,0:0|0:0,0:0:0:0:
385,71,133844,2,0,P|396:102|363:183,1,104.999996795654,8|2,0:0|0:0,0:0:0:0:
269,308,134530,5,6,0:0:0:0:
97,274,134872,2,0,P|88:239|88:221,1,55.0000016784668,0|0,0:0|0:0,0:0:0:0:
122,139,135215,2,0,L|234:129,1,110.000003356934,8|0,0:0|0:0,0:0:0:0:
384,40,135901,5,2,0:0:0:0:
413,213,136244,2,0,P|407:248|398:264,1,55.0000016784668,0|2,0:0|0:0,0:0:0:0:
325,315,136587,2,0,P|312:289|327:212,1,110.000003356934,8|2,0:0|0:0,0:0:0:0:
259,154,137101,1,0,0:0:0:0:
177,185,137272,6,0,L|120:184,1,55.0000016784668,2|0,0:0|0:0,0:0:0:0:
102,97,137615,2,0,L|159:98,1,55.0000016784668,0|0,0:0|0:0,0:0:0:0:
240,68,137958,2,0,P|264:63|336:108,1,110.000003356934,8|0,0:0|0:0,0:0:0:0:
385,175,138472,1,0,0:0:0:0:
457,124,138644,6,0,L|513:120,1,55.0000016784668,2|0,0:0|0:0,0:0:0:0:
511,208,138987,2,0,L|455:212,1,55.0000016784668,0|2,0:0|0:0,0:0:0:0:
382,261,139330,2,0,P|354:287|367:367,1,110.000003356934,8|2,0:0|0:0,0:0:0:0:
270,375,139844,1,0,0:0:0:0:
191,336,140015,6,0,L|132:326,1,55.0000016784668,6|0,0:0|0:0,0:0:0:0:
88,252,140358,2,0,L|155:238,1,55.0000016784668,0|0,0:0|0:0,0:0:0:0:
162,154,140701,2,0,L|159:39,1,110.000003356934,8|0,0:0|0:0,0:0:0:0:
244,21,141215,1,0,0:0:0:0:
330,38,141387,6,0,L|386:54,1,55.0000016784668,2|0,0:0|0:0,0:0:0:0:
391,140,141730,2,0,L|441:175,1,55.0000016784668,0|2,0:0|0:0,0:0:0:0:
479,247,142072,2,0,P|435:260|371:229,1,110.000003356934,8|2,0:0|0:0,0:0:0:0:
242,350,142758,6,0,B|191:368|191:368|127:355,1,110.000003356934,2|0,0:0|0:0,0:0:0:0:
109,182,143444,2,0,P|161:167|212:192,1,110.000003356934,8|0,0:0|0:0,0:0:0:0:
154,258,143958,1,0,0:0:0:0:
66,265,144130,6,0,P|44:251|26:226,1,55.0000016784668,2|0,0:0|0:0,0:0:0:0:
35,140,144472,2,0,P|28:115|29:83,1,55.0000016784668,0|2,0:0|0:0,0:0:0:0:
110,53,144815,2,0,B|161:65|161:65|217:54,1,110.000003356934,8|2,0:0|0:0,0:0:0:0:
304,37,145330,1,0,0:0:0:0:
388,61,145501,6,0,L|387:120,1,55.0000016784668,6|0,0:0|0:0,0:0:0:0:
321,174,145844,1,0,0:0:0:0:
163,270,146187,2,0,L|156:157,1,110.000003356934,0|0,0:0|0:0,0:0:0:0:
258,303,146872,5,0,0:0:0:0:
342,328,147044,2,0,L|343:383,2,55.0000016784668,0|0|0,0:0|0:0|0:0,0:0:0:0:
418,284,147558,2,0,P|430:248|430:211,1,55.0000016784668,0|2,0:0|0:0,0:0:0:0:
422,143,147901,1,0,0:0:0:0:
289,26,148244,6,0,P|277:62|296:134,1,110.000003356934,2|0,0:0|0:0,0:0:0:0:
266,214,148758,1,0,0:0:0:0:
184,181,148930,2,0,P|181:152|172:126,1,55.0000016784668,0|0,0:0|0:0,0:0:0:0:
92,93,149272,2,0,P|75:65|56:47,1,55.0000016784668,0|0,0:0|0:0,0:0:0:0:
9,122,149615,6,0,L|22:237,1,110.000003356934,0|0,0:0|0:0,0:0:0:0:
86,292,150130,1,0,0:0:0:0:
163,249,150301,2,0,P|195:253|227:267,1,55.0000016784668,0|2,0:0|0:0,0:0:0:0:
269,331,150644,1,0,0:0:0:0:
443,350,150987,6,0,L|450:238,1,110.000003356934,6|0,0:0|0:0,0:0:0:0:
369,203,151501,1,0,0:0:0:0:
295,154,151672,2,0,L|301:40,1,110.000003356934,0|0,0:0|0:0,0:0:0:0:
380,5,152187,1,0,0:0:0:0:
455,49,152358,6,0,L|447:108,1,55.0000016784668,0|0,0:0|0:0,0:0:0:0:
429,189,152701,2,0,L|389:234,1,55.0000016784668,0|0,0:0|0:0,0:0:0:0:
377,317,153044,2,0,B|350:337|310:339,1,55.0000016784668,0|2,0:0|0:0,0:0:0:0:
241,360,153387,1,0,0:0:0:0:
191,191,153730,6,0,L|190:80,1,110.000003356934,2|0,0:0|0:0,0:0:0:0:
121,25,154244,1,0,0:0:0:0:
50,77,154415,2,0,L|47:189,1,110.000003356934,0|0,0:0|0:0,0:0:0:0:
88,265,154930,1,0,0:0:0:0:
175,271,155101,6,0,P|202:262|232:261,1,55.0000016784668,0|0,0:0|0:0,0:0:0:0:
305,303,155444,2,0,P|333:310|362:309,1,55.0000016784668,0|0,0:0|0:0,0:0:0:0:
439,274,155787,1,0,0:0:0:0:
357,117,156130,1,0,0:0:0:0:
190,173,156472,5,6,0:0:0:0:
