osu file format v14

[General]
AudioFilename: audio.mp3
AudioLeadIn: 0
PreviewTime: 67844
Countdown: 0
SampleSet: None
StackLeniency: 0.6
Mode: 0
LetterboxInBreaks: 0
WidescreenStoryboard: 1

[Editor]
Bookmarks: 815,91330
DistanceSpacing: 1.2
BeatDivisor: 4
GridSize: 4
TimelineZoom: 1.2

[Metadata]
Title:Never Hold Us Back
TitleUnicode:Never Hold Us Back
Artist:Major Look
ArtistUnicode:Major Look
Creator:vanucik
Version:Easy
Source:
Tags:electronic cut drum and bass dubstep short cut version male vocal trap
BeatmapID:993608
BeatmapSetID:438577

[Difficulty]
HPDrainRate:2
CircleSize:2.5
OverallDifficulty:2
ApproachRate:3
SliderMultiplier:0.7
SliderTickRate:1

[Events]
//Background and Video events
0,0,"maxresdefaultmajorlook.jpg",0,0
//Break Periods
2,46957,56170
//Storyboard Layer 0 (Background)
//Storyboard Layer 1 (Fail)
//Storyboard Layer 2 (Pass)
//Storyboard Layer 3 (Foreground)
//Storyboard Sound Samples

[TimingPoints]
130,342.857142857143,4,3,1,70,1,0
36472,-100,4,3,1,50,0,0
43930,-100,4,3,1,70,0,0
68015,-100,4,3,1,50,0,0
68701,-100,4,3,1,80,0,1
85158,-100,4,3,1,70,0,0
90987,-100,4,3,1,80,0,1
107101,-100,4,3,1,70,0,0
145501,-100,4,3,1,50,0,0
153730,-100,4,3,1,70,0,0

[Colours]
Combo1 : 255,128,0
Combo2 : 215,0,0
Combo3 : 255,140,140

[HitObjects]
241,355,130,6,0,L|389:340,1,140,0|0,0:0|0:0,0:0:0:0:
441,184,1501,2,0,L|293:199,1,140,0|0,0:0|0:0,0:0:0:0:
134,219,2872,6,0,P|100:194|80:89,1,140,6|8,0:0|0:0,0:0:0:0:
241,72,4244,1,2,0:0:0:0:
362,188,4930,2,0,L|367:265,1,70,8|2,0:0|0:0,0:0:0:0:
315,324,5615,6,0,P|287:341|169:332,1,140,2|8,0:0|0:0,0:0:0:0:
52,233,6987,2,0,B|46:183|46:183|65:149|65:149|60:95,1,140,2|8,0:0|0:0,0:0:0:0:
128,48,8015,1,2,0:0:0:0:
207,74,8358,6,0,L|357:84,1,140,6|8,0:0|0:0,0:0:0:0:
208,179,9730,2,0,L|58:169,1,140,2|8,0:0|0:0,0:0:0:0:
56,252,10758,1,2,0:0:0:0:
100,323,11101,6,0,P|139:337|238:295,1,140,2|8,0:0|0:0,0:0:0:0:
314,161,12472,2,0,B|371:121|371:121|443:128,1,140,2|8,0:0|0:0,0:0:0:0:
493,194,13501,1,2,0:0:0:0:
448,265,13844,6,0,P|416:284|305:271,1,140,6|8,0:0|0:0,0:0:0:0:
159,218,15215,2,0,L|16:229,1,140,2|8,0:0|0:0,0:0:0:0:
38,146,16244,1,2,0:0:0:0:
57,64,16587,6,0,L|200:53,1,140,2|8,0:0|0:0,0:0:0:0:
349,122,17958,1,2,0:0:0:0:
223,232,18644,2,0,L|150:232,1,70,8|2,0:0|0:0,0:0:0:0:
133,314,19330,6,0,P|155:338|264:353,1,140,6|8,0:0|0:0,0:0:0:0:
350,216,20701,2,0,L|490:226,1,140,2|8,0:0|0:0,0:0:0:0:
473,308,21730,1,2,0:0:0:0:
397,343,22072,6,0,P|334:355|264:318,1,140,2|8,0:0|0:0,0:0:0:0:
241,156,23444,2,0,B|317:152|317:152|344:165|344:165|385:134|385:134|433:184|407:254,1,280,2|6,0:0|0:0,0:0:0:0:
244,281,25501,5,8,0:0:0:0:
104,188,26187,2,0,P|88:156|99:51,1,140,2|8,0:0|0:0,0:0:0:0:
177,31,27215,1,2,0:0:0:0:
258,50,27558,6,0,P|274:82|263:187,2,140,2|8|2,0:0|0:0|0:0,0:0:0:0:
353,188,29615,2,0,P|385:192|424:183,1,70,8|2,0:0|0:0,0:0:0:0:
457,107,30301,6,0,B|392:82|392:82|314:104,1,140,6|8,0:0|0:0,0:0:0:0:
225,237,31672,2,0,B|157:256|157:256|92:231,1,140,2|8,0:0|0:0,0:0:0:0:
117,150,32701,1,2,0:0:0:0:
178,92,33044,6,0,L|259:102,1,70,2|0,0:0|0:0,0:0:0:0:
319,144,33730,2,0,L|400:154,1,70,8|0,0:0|0:0,0:0:0:0:
439,219,34415,2,0,P|442:248|251:297,1,280,2|6,0:0|0:0,0:0:0:0:
152,176,36472,5,0,0:0:0:0:
35,295,37158,2,0,P|72:322|166:315,1,140,0|0,0:0|0:0,0:0:0:0:
294,212,38530,6,0,P|361:200|421:234,1,140,2|0,0:0|0:0,0:0:0:0:
305,356,39901,1,0,0:0:0:0:
138,333,40587,1,0,0:0:0:0:
72,178,41272,6,0,B|68:125|68:125|83:95|83:95|79:35,1,140,6|0,0:0|0:0,0:0:0:0:
200,159,42644,2,0,P|198:207|139:288,1,140,0|0,0:0|0:0,0:0:0:0:
29,163,44015,5,2,0:0:0:0:
149,45,44701,1,8,0:0:0:0:
291,133,45387,1,2,0:0:0:0:
168,248,46072,2,0,B|128:255|128:255|91:243|91:243|56:255|29:243,1,140,2|6,0:0|0:0,0:0:0:0:
269,357,57730,6,0,P|359:293|345:201,1,210,4|0,0:0|0:0,0:0:0:0:
275,159,59101,1,0,0:0:0:0:
122,230,59787,2,0,L|45:217,1,70,0|0,0:0|0:0,0:0:0:0:
76,137,60472,5,0,0:0:0:0:
205,29,61158,2,0,L|282:41,1,70,0|0,0:0|0:0,0:0:0:0:
356,57,61844,1,0,0:0:0:0:
381,223,62530,2,0,L|304:207,1,70,0|0,0:0|0:0,0:0:0:0:
230,188,63215,5,4,0:0:0:0:
339,315,63901,1,0,0:0:0:0:
426,164,64587,2,0,L|421:20,1,140,4|0,0:0|0:0,0:0:0:0:
273,104,65958,6,0,P|212:134|132:115,1,140,4|0,0:0|0:0,0:0:0:0:
86,280,67330,2,0,B|129:328|190:308|190:308|224:327|224:327,1,140,4|0,0:0|0:0,0:0:0:0:
370,265,68701,6,0,L|368:123,1,140,6|0,0:0|0:0,0:0:0:0:
298,76,69730,1,8,0:0:0:0:
222,113,70072,2,0,P|176:118|142:107,1,70,2|8,0:0|0:0,0:0:0:0:
69,106,70758,1,0,0:0:0:0:
35,182,71101,1,8,0:0:0:0:
77,254,71444,6,0,B|141:283|141:283|209:264,1,140,2|0,0:0|0:0,0:0:0:0:
325,144,72815,2,0,B|261:115|261:115|194:135,1,140,2|0,0:0|0:0,0:0:0:0:
114,163,73844,1,8,0:0:0:0:
34,191,74187,6,0,P|26:138|77:66,1,140,6|0,0:0|0:0,0:0:0:0:
153,48,75215,1,8,0:0:0:0:
223,93,75558,2,0,P|234:138|231:168,1,70,2|8,0:0|0:0,0:0:0:0:
163,209,76244,1,0,0:0:0:0:
158,292,76587,1,8,0:0:0:0:
216,352,76930,6,0,P|317:364|350:348,1,140,2|0,0:0|0:0,0:0:0:0:
447,213,78301,2,0,B|383:185|383:185|310:201,1,140,2|0,0:0|0:0,0:0:0:0:
235,228,79330,1,8,0:0:0:0:
154,251,79672,6,0,L|12:237,1,140,6|0,0:0|0:0,0:0:0:0:
10,68,81044,2,0,P|54:62|85:68,1,70,2|8,0:0|0:0,0:0:0:0:
152,106,81730,1,0,0:0:0:0:
228,138,82072,1,8,0:0:0:0:
307,166,82415,6,0,L|446:158,1,140,2|0,0:0|0:0,0:0:0:0:
387,315,83787,2,0,L|247:322,1,140,2|0,0:0|0:0,0:0:0:0:
163,328,84815,1,8,0:0:0:0:
89,286,85158,5,2,0:0:0:0:
69,204,85501,2,0,P|82:153|164:115,1,140,12|0,0:0|0:0,0:0:0:0:
237,117,86530,2,0,P|306:141|417:66,1,210,0|0,0:0|0:0,0:0:0:0:
489,108,87901,5,2,0:0:0:0:
471,190,88244,2,0,P|431:223|337:213,1,140,8|0,0:0|0:0,0:0:0:0:
265,201,89272,2,0,L|120:213,1,140,0|8,0:0|0:0,0:0:0:0:
120,128,90301,1,8,0:0:0:0:
180,69,90644,5,0,0:0:0:0:
262,82,90987,2,0,L|415:76,1,140,8|12,0:0|0:0,0:0:0:0:
416,159,92015,2,0,P|411:208|398:235,1,70,2|8,0:0|0:0,0:0:0:0:
348,290,92701,1,0,0:0:0:0:
264,302,93044,1,8,0:0:0:0:
196,251,93387,6,0,L|43:265,1,140,2|0,0:0|0:0,0:0:0:0:
33,97,94758,2,0,L|186:83,1,140,2|0,0:0|0:0,0:0:0:0:
234,141,95787,1,8,0:0:0:0:
314,115,96130,6,0,P|349:108|445:149,1,140,6|0,0:0|0:0,0:0:0:0:
452,313,97501,2,0,P|420:317|369:302,1,70,2|8,0:0|0:0,0:0:0:0:
303,281,98187,1,0,0:0:0:0:
233,327,98530,1,8,0:0:0:0:
165,277,98872,6,0,L|24:289,1,140,2|0,0:0|0:0,0:0:0:0:
36,205,99901,2,0,L|187:193,1,140,8|8,0:0|0:0,0:0:0:0:
338,235,101272,1,8,0:0:0:0:
411,194,101615,6,0,P|419:124|397:57,1,140,6|0,0:0|0:0,0:0:0:0:
254,145,102987,2,0,P|207:165|188:168,1,70,2|8,0:0|0:0,0:0:0:0:
106,188,103672,1,0,0:0:0:0:
45,129,104015,1,8,0:0:0:0:
117,87,104358,6,0,P|158:55|246:67,1,140,2|0,0:0|0:0,0:0:0:0:
364,178,105730,2,0,P|431:191|489:154,1,140,2|0,0:0|0:0,0:0:0:0:
482,69,106758,1,8,0:0:0:0:
400,47,107101,5,2,0:0:0:0:
243,108,107787,1,12,0:0:0:0:
280,271,108472,2,0,L|431:257,1,140,2|8,0:0|0:0,0:0:0:0:
454,181,109501,1,2,0:0:0:0:
386,130,109844,6,0,P|342:121|249:167,1,140,2|8,0:0|0:0,0:0:0:0:
187,204,110872,1,0,0:0:0:0:
106,181,111215,2,0,P|115:138|321:46,1,280,6|6,0:0|0:0,0:0:0:0:
421,163,113272,5,8,0:0:0:0:
297,274,113958,1,2,0:0:0:0:
129,258,114644,2,0,P|111:224|102:182,1,70,8|2,0:0|0:0,0:0:0:0:
131,114,115330,6,0,L|274:109,1,140,2|8,0:0|0:0,0:0:0:0:
362,250,116701,2,0,L|219:255,1,140,2|8,0:0|0:0,0:0:0:0:
152,303,117730,1,2,0:0:0:0:
81,257,118072,5,6,0:0:0:0:
183,123,118758,1,8,0:0:0:0:
296,246,119444,2,0,P|338:257|422:201,1,140,2|8,0:0|0:0,0:0:0:0:
417,126,120472,1,2,0:0:0:0:
352,72,120815,6,0,L|210:121,1,140,2|8,0:0|0:0,0:0:0:0:
79,210,122187,2,0,L|208:263,1,140,2|8,0:0|0:0,0:0:0:0:
277,311,123215,1,2,0:0:0:0:
348,267,123558,6,0,B|356:212|356:212|343:184|343:184|351:126,1,140,6|8,0:0|0:0,0:0:0:0:
188,85,124930,2,0,L|165:234,1,140,2|8,0:0|0:0,0:0:0:0:
191,303,125958,1,0,0:0:0:0:
270,331,126301,6,0,P|333:318|376:254,1,140,2|8,0:0|0:0,0:0:0:0:
303,106,127672,2,0,L|153:108,1,140,2|8,0:0|0:0,0:0:0:0:
78,102,128701,1,2,0:0:0:0:
31,172,129044,5,4,0:0:0:0:
166,271,129730,1,8,0:0:0:0:
324,206,130415,2,0,B|389:181|389:181|459:207,1,140,2|8,0:0|0:0,0:0:0:0:
441,288,131444,1,2,0:0:0:0:
363,319,131787,6,0,P|300:328|232:280,1,140,2|8,0:0|0:0,0:0:0:0:
275,125,133158,1,2,0:0:0:0:
441,151,133844,2,0,P|438:188|422:229,1,70,8|2,0:0|0:0,0:0:0:0:
356,265,134530,6,0,L|202:277,1,140,6|8,0:0|0:0,0:0:0:0:
109,145,135901,2,0,L|259:137,1,140,2|8,0:0|0:0,0:0:0:0:
312,193,136930,1,2,0:0:0:0:
356,265,137272,6,0,P|405:308|485:295,1,140,2|8,0:0|0:0,0:0:0:0:
449,134,138644,1,2,0:0:0:0:
286,151,139330,2,0,P|273:194|269:220,1,70,8|2,0:0|0:0,0:0:0:0:
260,302,140015,6,0,P|223:325|127:306,1,140,6|8,0:0|0:0,0:0:0:0:
46,165,141387,2,0,P|83:142|179:161,1,140,2|8,0:0|0:0,0:0:0:0:
212,231,142415,1,2,0:0:0:0:
295,242,142758,5,2,0:0:0:0:
447,170,143444,1,8,0:0:0:0:
307,75,144130,1,2,0:0:0:0:
295,242,144815,2,0,P|289:278|273:307,1,70,8|2,0:0|0:0,0:0:0:0:
196,343,145501,6,0,L|52:319,1,140,6|0,0:0|0:0,0:0:0:0:
196,225,146872,2,0,L|344:194,1,140,0|0,0:0|0:0,0:0:0:0:
412,223,147901,1,0,0:0:0:0:
489,190,148244,5,2,0:0:0:0:
422,38,148930,1,0,0:0:0:0:
284,134,149615,2,0,P|232:166|152:146,1,140,0|0,0:0|0:0,0:0:0:0:
104,85,150644,1,0,0:0:0:0:
177,44,150987,6,0,L|321:38,1,140,6|0,0:0|0:0,0:0:0:0:
383,192,152358,2,0,L|239:198,1,140,0|0,0:0|0:0,0:0:0:0:
160,215,153387,1,0,0:0:0:0:
143,297,153730,5,2,0:0:0:0:
297,362,154415,1,0,0:0:0:0:
439,273,155101,1,0,0:0:0:0:
446,105,155787,2,0,L|439:34,1,70,0|0,0:0|0:0,0:0:0:0:
355,25,156472,5,6,0:0:0:0:
