osu file format v14

[General]
AudioFilename: Come_On_To_Me.mp3
AudioLeadIn: 0
PreviewTime: -1
Countdown: 1
SampleSet: Normal
StackLeniency: 0.7
Mode: 0
LetterboxInBreaks: 1
WidescreenStoryboard: 1

[Editor]
Bookmarks: 61567
DistanceSpacing: 2.2
BeatDivisor: 4
GridSize: 16
TimelineZoom: 2

[Metadata]
Title:Come On To Me (Tomsize Remix)
TitleUnicode:Come On To Me (Tomsize Remix)
Artist:Major Lazer ft. Sean Paul
ArtistUnicode:Major Lazer ft. Sean Paul
Creator:Grundle
Version:Ain (streams)
Source:
Tags:
BeatmapID:669304
BeatmapSetID:277499

[Difficulty]
HPDrainRate:5
CircleSize:4
OverallDifficulty:7
ApproachRate:10
SliderMultiplier:1.9
SliderTickRate:1

[Events]
//Background and Video events
//Break Periods
2,29304,42982
2,100945,114623
//Storyboard Layer 0 (Background)
//Storyboard Layer 1 (Fail)
//Storyboard Layer 2 (Pass)
//Storyboard Layer 3 (Foreground)
//Storyboard Sound Samples

[TimingPoints]
0,223.880597014925,4,1,0,100,1,0
14761,-133.333333333333,4,1,0,100,0,0
43432,-153.846153846154,4,1,0,100,0,0
50597,-133.333333333333,4,1,0,100,0,0
54179,-125,4,1,0,100,0,0
55522,-117.647058823529,4,1,0,100,0,0
55970,-111.111111111111,4,1,0,100,0,0

[HitObjects]
128,72,14776,5,0,0:0:0:0:
128,72,14888,1,0,0:0:0:0:
128,72,15111,2,0,L|128:285,1,213.750008153916
284,192,15671,5,0,0:0:0:0:
284,192,15783,1,0,0:0:0:0:
284,192,16007,2,0,L|504:192,1,213.750008153916
128,140,16567,6,0,L|128:220,1,71.2500027179719
84,76,16902,2,0,P|124:140|244:76,1,213.750008153916
367,163,17462,6,0,L|423:243,1,71.2500027179719
296,311,17798,2,0,P|326:214|443:221,1,213.750008153916
233,112,18358,5,0,0:0:0:0:
301,131,18470,2,0,P|255:216|286:270,1,142.500005435944
90,134,19029,1,0,0:0:0:0:
125,321,19253,5,0,0:0:0:0:
195,332,19365,2,0,P|169:259|211:208,1,142.500005435944
396,116,19925,1,0,0:0:0:0:
378,257,20149,6,0,L|379:178,1,71.2500027179719
249,123,20485,1,0,0:0:0:0:
366,301,20820,1,0,0:0:0:0:
145,233,21044,6,0,L|83:273,1,71.2500027179719
214,332,21380,1,0,0:0:0:0:
191,119,21716,1,0,0:0:0:0:
275,157,21828,1,0,0:0:0:0:
276,64,21940,5,0,0:0:0:0:
299,153,22052,1,0,0:0:0:0:
395,48,22276,1,0,0:0:0:0:
395,48,22611,2,0,L|396:215,1,142.500005435944
324,184,22947,1,0,0:0:0:0:
181,184,23171,1,0,0:0:0:0:
359,66,23507,6,0,P|392:131|381:225,1,142.500005435944
346,256,23843,1,0,0:0:0:0:
204,256,24067,1,0,0:0:0:0:
103,67,24402,2,0,P|167:44|255:70,1,142.500005435944
281,116,24738,1,0,0:0:0:0:
256,192,24850,12,0,27257,0:0:0:0:
255,193,29104,5,4,0:0:0:0:
96,64,43432,5,0,0:0:0:0:
288,64,43880,1,0,0:0:0:0:
192,224,44328,1,0,0:0:0:0:
366,305,44776,1,0,0:0:0:0:
199,123,45223,6,0,B|310:75|310:75|455:91,1,246.999988693238
280,282,46119,2,0,B|169:330|169:330|43:316,1,246.999988693238
37,69,47014,6,0,L|173:20,1,123.499994346619
154,151,47462,2,0,L|290:200,1,123.499994346619
368,112,47910,1,0,0:0:0:0:
384,272,48134,1,0,0:0:0:0:
336,64,48358,1,0,0:0:0:0:
400,320,48582,1,0,0:0:0:0:
381,58,48805,6,0,B|316:48|316:48|250:75,1,123.499994346619
151,125,49253,2,0,B|216:135|216:135|282:108,1,123.499994346619
369,38,49701,1,0,0:0:0:0:
368,192,49925,1,0,0:0:0:0:
397,0,50149,1,0,0:0:0:0:
345,267,50373,1,0,0:0:0:0:
440,165,50597,6,0,B|450:206|450:206|488:237,3,71.2500027179719
417,269,51044,2,0,B|394:287|394:287|384:328,3,71.2500027179719
324,289,51492,6,0,L|227:268,1,71.2500027179719
186,297,51716,2,0,L|260:251,1,71.2500027179719
313,232,51940,2,0,L|240:218,1,71.2500027179719
172,231,52164,2,0,L|258:198,1,71.2500027179719
346,113,52388,5,0,0:0:0:0:
413,134,52499,1,0,0:0:0:0:
462,184,52611,1,0,0:0:0:0:
465,255,52723,1,0,0:0:0:0:
383,324,52835,5,0,0:0:0:0:
312,312,52947,1,0,0:0:0:0:
271,253,53059,1,0,0:0:0:0:
289,184,53171,1,0,0:0:0:0:
378,119,53283,6,0,L|388:194,1,71.2500027179719
337,241,53507,2,0,L|347:316,1,71.2500027179719
234,185,53731,6,0,L|224:114,1,71.2500027179719
309,224,53955,2,0,L|299:153,1,71.2500027179719
367,55,54179,6,0,L|376:123,7,38
359,128,54626,2,0,L|333:189,7,38
368,193,55074,2,0,L|386:247,7,38
356,262,55522,6,0,B|341:278|341:278|336:327,7,40.375000770092
321,333,55970,2,0,B|292:334|292:334|255:303,7,42.7499986953736
268,322,56417,1,0,0:0:0:0:
256,316,56473,1,0,0:0:0:0:
244,310,56529,1,0,0:0:0:0:
232,303,56585,1,0,0:0:0:0:
220,297,56641,1,0,0:0:0:0:
208,290,56697,1,0,0:0:0:0:
196,284,56753,1,0,0:0:0:0:
184,278,56809,1,0,0:0:0:0:
76,87,57761,5,0,0:0:0:0:
279,60,58208,1,0,0:0:0:0:
279,60,58264,1,0,0:0:0:0:
279,60,58320,1,0,0:0:0:0:
329,102,58432,2,0,L|328:202,1,85.4999973907472
328,273,58656,2,0,P|232:192|259:131,1,170.999994781494
352,32,59104,1,0,0:0:0:0:
285,279,59328,1,0,0:0:0:0:
235,27,59552,1,0,0:0:0:0:
240,32,59776,5,0,0:0:0:0:
240,128,59888,1,0,0:0:0:0:
240,224,59999,2,0,B|240:320,2,85.4999973907472
224,32,60447,5,0,0:0:0:0:
320,304,60671,1,0,0:0:0:0:
199,183,60895,1,0,0:0:0:0:
259,122,61007,1,0,0:0:0:0:
344,122,61119,1,0,0:0:0:0:
336,288,61343,5,0,0:0:0:0:
136,304,61790,5,0,0:0:0:0:
136,304,61846,1,0,0:0:0:0:
136,304,61902,1,0,0:0:0:0:
128,224,62014,2,0,B|120:192|120:160|136:128|152:104,1,95
176,64,62238,1,0,0:0:0:0:
360,320,62462,2,0,P|392:264|336:136,1,190
152,64,62909,2,0,B|64:64|56:80|48:136|48:160|72:200,1,190
112,288,63357,5,0,0:0:0:0:
280,72,63469,1,0,0:0:0:0:
440,312,63581,1,0,0:0:0:0:
96,152,63693,1,0,0:0:0:0:
400,168,63805,1,0,0:0:0:0:
208,320,64029,1,0,0:0:0:0:
336,264,64253,1,0,0:0:0:0:
400,184,64476,6,0,P|416:128|384:64,1,95
312,32,64700,2,0,P|208:48|144:120,1,190
280,224,65372,5,0,0:0:0:0:
280,224,65428,1,0,0:0:0:0:
280,224,65484,1,0,0:0:0:0:
400,144,65596,2,0,L|400:24,1,95
216,56,65820,2,0,B|160:80|128:128|120:240,1,190
232,328,66267,1,0,0:0:0:0:
424,312,66491,1,0,0:0:0:0:
440,104,66715,1,0,0:0:0:0:
248,48,66939,5,0,0:0:0:0:
64,264,67051,1,0,0:0:0:0:
392,136,67163,1,0,0:0:0:0:
232,352,67275,1,0,0:0:0:0:
80,72,67387,1,0,0:0:0:0:
80,72,67611,1,0,0:0:0:0:
80,72,67835,1,0,0:0:0:0:
112,288,68059,5,0,0:0:0:0:
424,336,68170,1,0,0:0:0:0:
248,64,68282,2,0,B|184:88|184:40|120:64|104:136|168:216|176:104|176:152,1,190
272,208,68954,5,0,0:0:0:0:
272,208,69010,1,0,0:0:0:0:
272,208,69066,1,0,0:0:0:0:
432,256,69178,1,0,0:0:0:0:
376,64,69290,1,0,0:0:0:0:
144,144,69402,1,0,0:0:0:0:
352,152,69626,2,0,L|176:248,1,190
232,96,70073,1,0,0:0:0:0:
216,120,70129,1,0,0:0:0:0:
192,144,70185,1,0,0:0:0:0:
168,152,70241,1,0,0:0:0:0:
136,144,70297,1,0,0:0:0:0:
88,296,70521,5,0,0:0:0:0:
248,320,70633,1,0,0:0:0:0:
344,232,70745,2,0,P|352:192|336:128,1,95
208,208,70969,1,0,0:0:0:0:
208,208,71193,1,0,0:0:0:0:
88,296,71417,5,0,0:0:0:0:
344,232,71641,2,0,P|352:192|336:128,1,95
224,88,71809,1,0,0:0:0:0:
208,112,71864,1,0,0:0:0:0:
184,136,71920,1,0,0:0:0:0:
160,152,71976,1,0,0:0:0:0:
128,160,72032,1,0,0:0:0:0:
88,152,72088,1,4,0:0:0:0:
328,280,72536,5,0,0:0:0:0:
328,280,72592,1,0,0:0:0:0:
328,280,72648,1,0,0:0:0:0:
144,160,72760,1,0,0:0:0:0:
144,160,72816,1,0,0:0:0:0:
144,160,72872,1,0,0:0:0:0:
224,344,72984,1,0,0:0:0:0:
416,160,73208,1,0,0:0:0:0:
80,64,73432,1,0,0:0:0:0:
416,160,73656,1,0,0:0:0:0:
80,64,73879,1,0,0:0:0:0:
224,192,74103,6,0,L|184:304,1,95
40,304,74327,1,0,0:0:0:0:
368,200,74439,1,0,0:0:0:0:
232,48,74551,1,0,0:0:0:0:
320,304,74775,1,0,0:0:0:0:
64,192,74999,1,0,0:0:0:0:
208,312,75223,5,0,0:0:0:0:
440,168,75335,1,0,0:0:0:0:
136,64,75447,1,0,0:0:0:0:
320,256,75670,1,0,0:0:0:0:
80,184,76118,5,0,0:0:0:0:
80,184,76174,1,0,0:0:0:0:
80,184,76230,1,0,0:0:0:0:
208,136,76342,1,0,0:0:0:0:
208,136,76398,1,0,0:0:0:0:
208,136,76454,1,0,0:0:0:0:
304,312,76566,2,0,P|336:232|416:152,1,190
160,56,77014,2,0,P|123:143|56:210,1,190
128,320,77462,5,0,0:0:0:0:
216,144,77685,1,0,0:0:0:0:
392,304,77797,1,0,0:0:0:0:
384,32,77909,1,0,0:0:0:0:
48,88,78021,1,0,0:0:0:0:
224,264,78133,1,0,0:0:0:0:
424,128,78357,5,0,0:0:0:0:
424,128,78413,1,0,0:0:0:0:
424,128,78469,1,0,0:0:0:0:
304,184,78581,1,0,0:0:0:0:
304,184,78637,1,0,0:0:0:0:
304,184,78693,1,0,0:0:0:0:
208,104,78805,5,0,0:0:0:0:
208,104,78861,1,0,0:0:0:0:
208,104,78917,1,0,0:0:0:0:
136,208,79029,1,0,0:0:0:0:
136,208,79085,1,0,0:0:0:0:
136,208,79141,1,0,0:0:0:0:
112,320,79253,5,0,0:0:0:0:
392,96,79700,5,0,0:0:0:0:
392,96,79756,1,0,0:0:0:0:
392,96,79812,1,0,0:0:0:0:
192,160,79924,2,0,L|264:96,1,95
360,264,80148,1,0,0:0:0:0:
144,336,80372,1,0,0:0:0:0:
296,152,80596,1,0,0:0:0:0:
88,224,80820,1,0,0:0:0:0:
232,72,81044,1,0,0:0:0:0:
400,160,81267,6,0,L|392:272,1,95
256,152,81491,1,0,0:0:0:0:
128,336,81603,1,0,0:0:0:0:
64,96,81715,1,0,0:0:0:0:
288,288,81939,2,0,P|256:208|176:120,1,190
120,264,82387,5,0,0:0:0:0:
336,64,82499,1,0,0:0:0:0:
352,336,82611,1,0,0:0:0:0:
256,192,82835,1,0,0:0:0:0:
88,304,83282,5,0,0:0:0:0:
88,304,83338,1,0,0:0:0:0:
88,304,83394,1,0,0:0:0:0:
112,128,83506,2,0,L|184:216,1,95
216,320,83730,1,0,0:0:0:0:
456,152,83954,1,0,0:0:0:0:
184,48,84178,1,0,0:0:0:0:
104,264,84402,1,0,0:0:0:0:
320,48,84626,5,0,0:0:0:0:
400,160,84738,1,0,0:0:0:0:
200,272,84962,1,0,0:0:0:0:
248,48,85297,5,0,0:0:0:0:
256,88,85353,1,0,0:0:0:0:
288,112,85409,1,0,0:0:0:0:
328,120,85465,1,0,0:0:0:0:
368,112,85521,1,0,0:0:0:0:
408,104,85577,1,0,0:0:0:0:
440,120,85633,1,0,0:0:0:0:
456,152,85689,1,0,0:0:0:0:
464,192,85745,1,0,0:0:0:0:
464,232,85801,1,0,0:0:0:0:
448,264,85857,1,0,0:0:0:0:
424,296,85913,1,0,0:0:0:0:
384,304,85969,1,0,0:0:0:0:
344,304,86025,1,0,0:0:0:0:
312,280,86081,1,0,0:0:0:0:
296,248,86137,1,0,0:0:0:0:
280,216,86193,1,0,0:0:0:0:
256,184,86249,1,0,0:0:0:0:
216,176,86305,1,0,0:0:0:0:
176,168,86361,1,0,0:0:0:0:
136,168,86417,1,0,0:0:0:0:
312,192,87984,1,0,0:0:0:0:
312,192,88040,1,0,0:0:0:0:
312,192,88096,1,0,0:0:0:0:
168,160,88208,1,0,0:0:0:0:
168,160,88264,1,0,0:0:0:0:
168,160,88319,1,0,0:0:0:0:
240,240,89999,5,0,0:0:0:0:
240,240,90055,1,0,0:0:0:0:
240,240,90111,1,0,0:0:0:0:
376,160,91566,5,0,0:0:0:0:
376,160,91622,1,0,0:0:0:0:
376,160,91678,1,0,0:0:0:0:
288,96,91790,1,0,0:0:0:0:
288,96,91846,1,0,0:0:0:0:
288,96,91902,1,0,0:0:0:0:
232,304,93581,5,0,0:0:0:0:
232,304,93637,1,0,0:0:0:0:
232,304,93693,1,0,0:0:0:0:
128,120,95148,5,0,0:0:0:0:
128,120,95204,1,0,0:0:0:0:
128,120,95260,1,0,0:0:0:0:
256,192,95372,1,0,0:0:0:0:
256,192,95428,1,0,0:0:0:0:
256,192,95484,1,0,0:0:0:0:
352,280,97163,5,0,0:0:0:0:
352,280,97219,1,0,0:0:0:0:
352,280,97275,1,0,0:0:0:0:
144,176,98730,5,0,0:0:0:0:
144,176,98786,1,0,0:0:0:0:
144,176,98842,1,0,0:0:0:0:
304,96,98954,1,0,0:0:0:0:
304,96,99010,1,0,0:0:0:0:
304,96,99066,1,0,0:0:0:0:
256,192,99402,12,0,100745,0:0:0:0:
200,144,115073,6,0,L|272:304,1,142.5
352,304,115409,5,0,0:0:0:0:
376,160,115521,1,0,0:0:0:0:
176,64,115745,1,0,0:0:0:0:
56,176,115969,2,0,P|64:240|128:320,1,142.500005435944
176,328,116305,2,0,B|264:320|328:304|328:208,1,213.750008153916
232,64,116864,5,0,0:0:0:0:
120,144,116976,1,0,0:0:0:0:
240,184,117200,2,0,L|224:264,1,71.2500027179719
104,312,117536,1,0,0:0:0:0:
72,144,117760,1,0,0:0:0:0:
192,64,117984,1,0,0:0:0:0:
192,64,118040,1,0,0:0:0:0:
192,64,118096,1,0,0:0:0:0:
248,168,118208,2,0,B|328:144|400:176|400:192,1,142.500005435944
216,312,118655,5,0,0:0:0:0:
96,208,118879,2,0,L|136:120,1,71.2500027179719
200,48,119103,1,0,0:0:0:0:
416,72,119327,1,0,0:0:0:0:
384,280,119551,1,0,0:0:0:0:
232,200,119775,2,0,L|152:264,1,71.2500027179719
80,304,119999,1,0,0:0:0:0:
216,48,120222,1,0,0:0:0:0:
368,160,120446,5,0,0:0:0:0:
368,160,120558,1,0,0:0:0:0:
184,160,120782,2,0,P|216:224|224:232,1,71.2500027179719
408,272,121118,1,0,0:0:0:0:
272,72,121342,1,0,0:0:0:0:
80,208,121566,2,0,L|160:272,1,71.2500027179719
240,304,121790,1,0,0:0:0:0:
360,104,122014,1,0,0:0:0:0:
168,72,122237,5,0,0:0:0:0:
80,176,122461,2,0,L|64:264,1,71.2500027179719
120,304,122685,1,0,0:0:0:0:
176,96,122909,1,0,0:0:0:0:
288,312,123133,1,0,0:0:0:0:
400,120,123357,1,0,0:0:0:0:
416,208,123469,2,0,P|424:288|424:296,1,71.2500027179719
248,248,123805,1,0,0:0:0:0:
64,192,124028,6,0,L|128:128,1,71.2500027179719
360,256,124364,2,0,L|352:184,1,71.2500027179719
248,64,124700,1,0,0:0:0:0:
72,144,124924,1,0,0:0:0:0:
72,280,125148,1,0,0:0:0:0:
72,280,125204,1,0,0:0:0:0:
72,280,125260,1,0,0:0:0:0:
256,320,125372,1,0,0:0:0:0:
392,208,125596,1,0,0:0:0:0:
248,136,125819,5,0,0:0:0:0:
80,168,126043,2,0,L|72:248,1,71.2500027179719
168,320,126267,1,0,0:0:0:0:
368,272,126491,2,0,L|384:120,1,142.500005435944
232,80,126939,1,0,0:0:0:0:
136,112,127051,2,0,P|72:136|64:152,1,71.2500027179719
96,248,127387,1,0,0:0:0:0:
376,272,127611,5,0,0:0:0:0:
416,176,127722,2,0,L|424:16,1,142.500005435944
256,64,128058,2,0,L|128:184,1,142.500005435944
160,288,128506,1,0,0:0:0:0:
304,280,128730,2,0,L|384:240,1,71.2500027179719
368,160,128954,1,0,0:0:0:0:
200,48,129178,1,0,0:0:0:0:
192,200,129402,5,0,0:0:0:0:
240,256,129514,1,0,0:0:0:0:
312,272,129625,2,0,L|320:352,1,71.2500027179719
392,216,129849,2,0,L|432:128,1,71.2500027179719
272,136,130073,2,0,L|208:208,1,71.2500027179719
416,240,130297,2,0,L|456:152,1,71.2500027179719
232,120,130521,2,0,L|168:192,1,71.2500027179719
144,240,130745,1,0,0:0:0:0:
216,272,130857,2,0,L|216:352,1,71.2500027179719
264,344,131025,1,0,0:0:0:0:
304,336,131081,1,0,0:0:0:0:
344,312,131137,1,0,0:0:0:0:
368,280,131193,1,0,0:0:0:0:
384,160,131305,5,0,0:0:0:0:
336,80,131416,1,0,0:0:0:0:
240,128,131528,2,0,L|240:208,1,71.2500027179719
144,176,131752,1,0,0:0:0:0:
48,104,131864,1,0,0:0:0:0:
24,208,131976,2,0,L|40:288,1,71.2500027179719
112,336,132200,1,0,0:0:0:0:
216,328,132312,5,0,0:0:0:0:
216,328,132368,1,0,0:0:0:0:
216,328,132424,1,0,0:0:0:0:
304,264,132536,2,0,L|376:208,1,71.2500027179719
264,192,132760,2,0,L|280:96,1,71.2500027179719
184,136,132984,6,0,L|160:40,1,71.2500027179719
72,104,133208,1,0,0:0:0:0:
48,208,133319,1,0,0:0:0:0:
120,272,133431,2,0,L|80:344,1,71.2500027179719
208,288,133655,1,0,0:0:0:0:
296,248,133767,1,0,0:0:0:0:
280,144,133879,2,0,L|360:80,1,71.2500027179719
208,112,134103,1,0,0:0:0:0:
120,72,134215,1,0,0:0:0:0:
40,144,134327,2,0,L|40:232,1,71.2500027179719
128,264,134551,1,0,0:0:0:0:
128,264,134607,1,0,0:0:0:0:
128,264,134663,1,0,0:0:0:0:
128,264,134719,1,0,0:0:0:0:
128,264,134775,5,0,0:0:0:0:
232,248,134887,1,0,0:0:0:0:
280,168,134999,2,0,L|280:72,1,71.2500027179719
200,48,135222,1,0,0:0:0:0:
120,80,135334,2,0,L|112:176,1,71.2500027179719
152,224,135558,1,0,0:0:0:0:
248,232,135670,2,0,L|320:288,1,71.2500027179719
376,216,135894,1,0,0:0:0:0:
416,128,136006,2,0,L|336:80,1,71.2500027179719
264,64,136230,1,0,0:0:0:0:
168,72,136342,2,0,L|112:136,1,71.2500027179719
128,216,136566,5,0,0:0:0:0:
200,272,136678,1,0,0:0:0:0:
296,288,136790,1,0,0:0:0:0:
384,256,136902,1,0,0:0:0:0:
440,168,137014,1,0,0:0:0:0:
408,80,137125,2,0,L|352:16,1,71.2500027179719
296,136,137349,2,0,L|232:208,1,71.2500027179719
208,80,137573,2,0,L|152:24,1,71.2500027179719
104,128,137797,2,0,L|88:208,1,71.2500027179719
112,280,138021,1,0,0:0:0:0:
192,312,138133,1,0,0:0:0:0:
272,312,138245,1,0,0:0:0:0:
352,248,138357,6,0,L|448:264,1,71.2500027179719
304,160,138581,2,0,L|224:152,1,71.2500027179719
184,264,138805,2,0,L|272:256,1,71.2500027179719
128,168,139028,2,0,L|40:184,1,71.2500027179719
48,80,139252,1,0,0:0:0:0:
120,32,139364,1,0,0:0:0:0:
208,40,139476,1,0,0:0:0:0:
280,80,139588,1,0,0:0:0:0:
360,112,139700,2,0,L|368:208,1,71.2500027179719
280,200,139924,2,0,L|280:280,1,71.2500027179719
200,184,140148,5,0,0:0:0:0:
200,184,140203,1,0,0:0:0:0:
200,184,140259,1,0,0:0:0:0:
200,184,140315,1,0,0:0:0:0:
200,184,140371,1,0,0:0:0:0:
200,184,140427,1,0,0:0:0:0:
200,184,140483,1,0,0:0:0:0:
200,184,140539,1,0,0:0:0:0:
176,96,140651,5,0,0:0:0:0:
176,96,140707,1,0,0:0:0:0:
176,96,140763,1,0,0:0:0:0:
176,96,140819,1,0,0:0:0:0:
176,96,140875,1,0,0:0:0:0:
176,96,140931,1,0,0:0:0:0:
176,96,140987,1,0,0:0:0:0:
96,56,141099,5,0,0:0:0:0:
96,56,141155,1,0,0:0:0:0:
96,56,141211,1,0,0:0:0:0:
96,56,141267,1,0,0:0:0:0:
96,56,141323,1,0,0:0:0:0:
96,56,141379,1,0,0:0:0:0:
96,56,141435,1,0,0:0:0:0:
56,136,141547,5,0,0:0:0:0:
56,136,141603,1,0,0:0:0:0:
56,136,141659,1,0,0:0:0:0:
56,136,141715,1,0,0:0:0:0:
56,136,141771,1,0,0:0:0:0:
56,136,141827,1,0,0:0:0:0:
56,136,141883,1,0,0:0:0:0:
96,208,141995,5,0,0:0:0:0:
112,256,142050,1,0,0:0:0:0:
152,280,142106,1,0,0:0:0:0:
200,280,142162,1,0,0:0:0:0:
248,272,142218,1,0,0:0:0:0:
296,256,142274,1,0,0:0:0:0:
336,232,142330,1,0,0:0:0:0:
360,192,142386,1,0,0:0:0:0:
360,144,142442,1,0,0:0:0:0:
336,104,142498,1,0,0:0:0:0:
304,72,142554,1,0,0:0:0:0:
264,56,142610,1,0,0:0:0:0:
224,72,142666,1,0,0:0:0:0:
184,88,142722,1,0,0:0:0:0:
152,120,142778,1,0,0:0:0:0:
336,56,143282,6,0,B|368:40|360:80|352:96|288:96|280:64|312:-40|376:0|400:24|408:160|328:200|336:208|352:304|352:304|352:304,1,380
200,304,143953,2,0,B|112:264|64:184|64:64,1,246.999988693238
256,48,144401,1,0,0:0:0:0:
416,144,144625,2,0,B|400:248|296:320|224:320,1,246.999988693238
256,176,145073,2,0,P|160:104|32:160,1,246.999988693238
144,296,145521,2,0,P|272:320|392:344,1,246.999988693238
392,176,145968,2,0,P|320:80|160:16,1,246.999988693238
80,88,146416,2,0,P|64:256|136:304,1,246.999988693238
384,248,146864,2,0,B|392:136|272:112|224:48,1,246.999988693238
72,128,147312,1,0,0:0:0:0:
120,240,147535,6,0,B|192:224|160:216|216:224|128:280|288:336|320:352|360:352,1,246.999988693238
392,176,147983,2,0,B|288:152|312:104|208:112|264:56|368:48,1,246.999988693238
64,96,148431,2,0,B|136:128|80:184|56:136|32:232|136:248|168:176|176:304,1,246.999988693238
416,216,148879,2,0,B|424:136|336:136|176:40|208:96,1,246.999988693238
208,320,149327,2,0,B|136:232|240:176|64:136,1,246.999988693238
384,136,149774,2,0,P|264:56|136:80,1,246.999988693238
232,224,150222,1,0,0:0:0:0:
424,352,150446,1,0,0:0:0:0:
464,120,150670,1,0,0:0:0:0:
320,144,150894,6,0,B|264:64|224:112|88:64,1,246.999988693238
152,336,151341,2,0,B|256:320|184:256|216:192|392:200|360:224,1,246.999988693238
392,88,151789,1,0,0:0:0:0:
64,56,152013,1,0,0:0:0:0:
184,336,152237,1,0,0:0:0:0:
448,208,152461,1,0,0:0:0:0:
344,96,152685,2,0,P|216:64|96:128,1,246.999988693238
128,352,153132,1,0,0:0:0:0:
400,88,153356,1,0,0:0:0:0:
32,96,153580,1,0,0:0:0:0:
416,264,153804,1,0,0:0:0:0:
168,56,154028,1,0,0:0:0:0:
40,320,154252,1,0,0:0:0:0:
264,296,154476,6,0,P|392:208|384:128,1,246.999988693238
256,56,154924,1,0,0:0:0:0:
48,288,155147,1,0,0:0:0:0:
48,48,155371,1,0,0:0:0:0:
376,312,155595,1,0,0:0:0:0:
448,80,155819,1,0,0:0:0:0:
80,80,156043,1,0,0:0:0:0:
216,304,156267,6,0,L|224:208,1,95
304,136,156491,1,0,0:0:0:0:
240,40,156603,1,0,0:0:0:0:
144,56,156715,2,0,L|96:168,1,95
200,272,156938,2,0,L|272:160,1,95
352,112,157162,1,0,0:0:0:0:
432,168,157274,1,0,0:0:0:0:
416,256,157386,1,0,0:0:0:0:
352,320,157498,1,0,0:0:0:0:
248,320,157610,5,0,0:0:0:0:
248,320,157666,1,0,0:0:0:0:
248,320,157722,1,0,0:0:0:0:
136,280,157834,2,0,L|16:112,1,190
304,176,158506,5,0,0:0:0:0:
248,72,158618,1,0,0:0:0:0:
136,112,158729,1,0,0:0:0:0:
208,312,158953,5,0,0:0:0:0:
368,264,159177,2,0,B|424:200|320:160|400:64|280:64,1,246.999988693238
184,136,159625,2,0,B|75:135|155:231|51:271|107:335,1,246.999988693238
328,224,160073,2,0,B|456:192|352:128|488:8,1,246.999988693238
160,144,160521,2,0,B|269:238|165:302|291:333,1,246.999988693238
328,224,160968,2,0,B|320:120|184:200|96:248,1,246.999988693238
80,232,161248,1,0,0:0:0:0:
48,200,161304,1,0,0:0:0:0:
32,160,161360,1,0,0:0:0:0:
32,112,161416,1,0,0:0:0:0:
40,72,161472,1,0,0:0:0:0:
72,48,161528,1,0,0:0:0:0:
112,40,161584,1,0,0:0:0:0:
160,48,161640,1,0,0:0:0:0:
392,152,161864,6,0,B|288:128|288:128|264:152|192:160|192:160|168:208,1,246.999988693238
328,336,162312,2,0,B|344:264|344:264|288:248|288:176|288:176|360:80,1,246.999988693238
104,120,162759,2,0,B|192:120|192:120|168:176|224:208|224:208|328:208,1,246.999988693238
120,344,163207,2,0,B|216:304|216:304|184:248|224:216|224:216|248:152,1,246.999988693238
384,128,163655,2,0,B|328:192|328:192|272:216|216:216|216:216|152:264,1,246.999988693238
208,72,164103,2,0,B|296:48|296:48|304:104|376:104|344:184|344:184,1,246.999988693238
216,304,164550,2,0,B|272:224|272:224|248:184|304:152|304:152|400:152,1,246.999988693238
392,176,164830,1,0,0:0:0:0:
416,208,164886,1,0,0:0:0:0:
416,256,164942,1,0,0:0:0:0:
400,296,164998,1,0,0:0:0:0:
368,320,165054,1,0,0:0:0:0:
320,312,165110,1,0,0:0:0:0:
280,304,165166,1,0,0:0:0:0:
240,280,165222,1,0,0:0:0:0:
96,192,165446,6,0,B|48:136|56:56|104:32|160:48|184:72|216:104|224:120|224:120|224:136,1,246.999988693238
256,328,165894,2,0,B|368:328|392:288|400:224|344:192|264:176,1,246.999988693238
104,152,166341,2,0,B|112:72|160:40|224:32|272:64|296:112,1,246.999988693238
384,256,166789,2,0,B|336:320|264:320|208:304|176:280|176:216,1,246.999988693238
256,152,167237,2,0,B|288:64|336:48|400:48|448:136,1,246.999988693238
336,256,167685,2,0,B|312:312|208:320|168:312|128:208,1,246.999988693238
200,136,168132,2,0,B|232:40|288:40|368:104|384:192,1,246.999988693238
360,192,168412,1,0,0:0:0:0:
344,240,168468,1,0,0:0:0:0:
320,272,168524,1,0,0:0:0:0:
280,296,168580,1,0,0:0:0:0:
240,312,168636,1,0,0:0:0:0:
200,296,168692,1,0,0:0:0:0:
160,272,168748,1,0,0:0:0:0:
128,248,168804,1,0,0:0:0:0:
144,128,169028,6,0,B|232:32|232:32|240:168|240:168,1,246.999988693238
192,288,169476,2,0,B|320:352|320:352|368:240|368:240,1,246.999988693238
296,128,169924,2,0,B|160:64|160:64|96:160,1,246.999988693238
224,256,170371,2,0,B|360:328|360:328|424:208,1,246.999988693238
408,112,170706,1,0,0:0:0:0:
192,72,170930,1,0,0:0:0:0:
80,160,171266,1,0,0:0:0:0:
80,208,171322,1,0,0:0:0:0:
88,256,171378,1,0,0:0:0:0:
112,304,171434,1,0,0:0:0:0:
160,328,171490,1,0,0:0:0:0:
208,328,171546,1,0,0:0:0:0:
256,304,171602,1,0,0:0:0:0:
296,264,171658,1,0,0:0:0:0:
312,224,171714,1,0,0:0:0:0:
304,176,171770,1,0,0:0:0:0:
264,144,171826,1,0,0:0:0:0:
224,120,171882,1,0,0:0:0:0:
208,72,171938,1,0,0:0:0:0:
240,32,171994,1,0,0:0:0:0:
288,16,172050,1,0,0:0:0:0:
336,24,172106,1,0,0:0:0:0:
384,40,172162,1,0,0:0:0:0:
424,64,172218,1,0,0:0:0:0:
456,104,172274,1,0,0:0:0:0:
448,152,172330,1,0,0:0:0:0:
432,200,172386,1,0,0:0:0:0:
256,192,173281,5,0,0:0:0:0:
256,192,175072,1,0,0:0:0:0:
256,192,176863,5,0,0:0:0:0:
256,192,178654,1,0,0:0:0:0:
112,112,179550,6,0,L|64:176,1,71.2500027179719
144,304,179886,1,0,0:0:0:0:
416,200,180221,5,0,0:0:0:0:
392,208,180277,1,0,0:0:0:0:
368,224,180333,1,0,0:0:0:0:
344,232,180389,1,0,0:0:0:0:
320,240,180445,1,0,0:0:0:0:
296,248,180501,1,0,0:0:0:0:
272,264,180557,1,0,0:0:0:0:
240,264,180613,1,0,0:0:0:0:
216,272,180669,1,0,0:0:0:0:
184,272,180725,1,0,0:0:0:0:
160,264,180781,1,0,0:0:0:0:
136,248,180837,1,0,0:0:0:0:
112,232,180893,1,0,0:0:0:0:
352,304,181341,6,0,L|272:288,1,71.2500027179719
216,192,181677,1,0,0:0:0:0:
118,299,182012,1,0,0:0:0:0:
117,300,182068,1,0,0:0:0:0:
117,300,182124,1,0,0:0:0:0:
117,300,182180,1,0,0:0:0:0:
117,300,182236,1,0,0:0:0:0:
117,300,182292,1,0,0:0:0:0:
117,300,182348,1,0,0:0:0:0:
117,300,182404,1,0,0:0:0:0:
117,300,182460,1,0,0:0:0:0:
117,300,182516,1,0,0:0:0:0:
117,300,182572,1,0,0:0:0:0:
117,300,182628,1,0,0:0:0:0:
117,300,182684,1,0,0:0:0:0:
256,320,183132,6,0,L|256:224,1,71.2500027179719
256,168,183468,1,0,0:0:0:0:
121,216,183803,1,0,0:0:0:0:
121,216,183859,1,0,0:0:0:0:
121,216,183915,1,0,0:0:0:0:
121,216,183971,1,0,0:0:0:0:
121,216,184027,1,0,0:0:0:0:
121,216,184083,1,0,0:0:0:0:
121,216,184139,1,0,0:0:0:0:
121,216,184195,1,0,0:0:0:0:
121,216,184251,1,0,0:0:0:0:
121,216,184307,1,0,0:0:0:0:
121,216,184363,1,0,0:0:0:0:
121,216,184419,1,0,0:0:0:0:
121,216,184475,1,0,0:0:0:0:
256,32,184923,2,0,L|256:128,1,71.2500027179719
256,184,185259,1,0,0:0:0:0:
208,40,185594,1,0,0:0:0:0:
192,64,185650,1,0,0:0:0:0:
184,88,185706,1,0,0:0:0:0:
168,112,185762,1,0,0:0:0:0:
152,136,185818,1,0,0:0:0:0:
136,160,185874,1,0,0:0:0:0:
120,184,185930,1,0,0:0:0:0:
104,208,185986,1,0,0:0:0:0:
96,232,186042,1,0,0:0:0:0:
96,264,186098,1,0,0:0:0:0:
112,288,186154,1,0,0:0:0:0:
136,296,186210,1,0,0:0:0:0:
168,296,186266,1,0,0:0:0:0:
200,296,186322,1,0,0:0:0:0:
232,288,186378,1,0,0:0:0:0:
264,288,186434,1,0,0:0:0:0:
