osu file format v14

[General]
AudioFilename: Major Lazer DJ Snake feat M vs Blasterjaxx - Forever Lean On Oguzhan Yalaz Mashup [DemoDrop].mp3
AudioLeadIn: 0
PreviewTime: 111609
Countdown: 1
SampleSet: Normal
StackLeniency: 0.7
Mode: 0
LetterboxInBreaks: 0
WidescreenStoryboard: 0

[Editor]
DistanceSpacing: 0.8
BeatDivisor: 4
GridSize: 32
TimelineZoom: 1

[Metadata]
Title:Forever Lean On Oguzhan Yalaz Mashup
TitleUnicode:Forever Lean On Oguzhan Yalaz Mashup
Artist:Major Lazer Dj Snake feat. M vs. Blasterjaxx
ArtistUnicode:Major Lazer Dj Snake feat. M vs. Blasterjaxx
Creator:Mateeee0719
Version:Berserker
Source:
Tags:
BeatmapID:900130
BeatmapSetID:415392

[Difficulty]
HPDrainRate:5
CircleSize:4
OverallDifficulty:5
ApproachRate:9
SliderMultiplier:2.2
SliderTickRate:1

[Events]
//Background and Video events
0,0,"berserker.jpg",0,0
//Break Periods
2,52990,68016
2,81572,90339
//Storyboard Layer 0 (Background)
//Storyboard Layer 1 (Fail)
//Storyboard Layer 2 (Pass)
//Storyboard Layer 3 (Foreground)
//Storyboard Sound Samples

[TimingPoints]
1294.06661393377,472.44094488189,4,1,0,100,1,0

[HitObjects]
160,64,30585,6,0,P|96:192|224:224,1,220
256,64,31530,1,0,0:0:0:0:
416,64,32002,2,0,P|480:192|416:224,1,220
352,288,32947,1,0,0:0:0:0:
128,288,33419,1,0,0:0:0:0:
448,64,33892,2,0,P|480:192|416:224,1,220
320,288,34600,1,0,0:0:0:0:
192,256,34837,1,0,0:0:0:0:
128,160,35073,1,0,0:0:0:0:
160,32,35309,1,0,0:0:0:0:
128,160,35545,1,0,0:0:0:0:
192,256,35782,1,0,0:0:0:0:
320,288,36018,5,0,0:0:0:0:
416,64,36254,2,0,L|288:64,1,110
96,224,36726,2,0,P|96:288|128:288,1,110
320,32,37199,2,0,L|448:96,1,110
416,256,37671,2,0,P|352:352|320:320,1,110
128,64,38144,2,0,P|64:160|96:192,1,110
448,64,38616,1,0,0:0:0:0:
288,32,38853,1,0,0:0:0:0:
448,192,39089,1,0,0:0:0:0:
256,128,39325,1,0,0:0:0:0:
224,320,39561,1,0,0:0:0:0:
416,288,39798,1,0,0:0:0:0:
416,64,40034,1,0,0:0:0:0:
256,192,40270,1,0,0:0:0:0:
64,64,40506,5,0,0:0:0:0:
64,256,40742,1,0,0:0:0:0:
352,64,40978,1,0,0:0:0:0:
352,224,41215,1,0,0:0:0:0:
96,64,41451,1,0,0:0:0:0:
96,288,41687,1,0,0:0:0:0:
320,192,41923,1,0,0:0:0:0:
288,32,42160,1,0,0:0:0:0:
96,64,42396,1,0,0:0:0:0:
256,128,42632,1,0,0:0:0:0:
160,288,42868,1,0,0:0:0:0:
384,288,43105,1,0,0:0:0:0:
384,64,43341,2,0,L|384:192,1,110
96,64,43813,2,0,L|96:192,1,110
288,64,44285,2,0,P|160:64|192:64,1,110
448,224,44758,2,0,L|352:320,1,110
64,128,45230,2,0,L|160:64,1,110
256,192,45703,12,0,52790,0:0:0:0:
288,32,68616,6,0,L|416:32,1,110
160,320,69089,2,0,L|32:320,1,110
160,160,69679,1,0,0:0:0:0:
256,96,69798,1,0,0:0:0:0:
352,160,69916,1,0,0:0:0:0:
256,224,70034,1,0,0:0:0:0:
256,64,70270,2,0,P|448:32|480:64,1,220
416,192,70860,1,0,0:0:0:0:
256,192,70979,1,0,0:0:0:0:
64,32,71215,1,0,0:0:0:0:
160,128,71333,1,0,0:0:0:0:
64,224,71451,1,0,0:0:0:0:
160,320,71569,1,0,0:0:0:0:
288,192,71687,2,0,L|384:192,2,55
128,64,72632,5,0,0:0:0:0:
384,64,72750,1,0,0:0:0:0:
96,64,73577,1,0,0:0:0:0:
96,64,73695,1,0,0:0:0:0:
96,64,73813,1,0,0:0:0:0:
96,64,73931,1,0,0:0:0:0:
352,64,74286,5,0,0:0:0:0:
352,96,74404,1,0,0:0:0:0:
352,128,74522,1,0,0:0:0:0:
352,160,74640,1,0,0:0:0:0:
192,64,74876,1,0,0:0:0:0:
192,320,74994,1,0,0:0:0:0:
256,192,75231,1,0,0:0:0:0:
160,96,75467,2,0,P|96:192|128:224,1,165
352,64,76412,2,0,L|416:160,2,110
192,256,77357,1,0,0:0:0:0:
96,160,77475,1,0,0:0:0:0:
192,64,77593,1,0,0:0:0:0:
416,64,78065,5,0,0:0:0:0:
416,64,78183,1,0,0:0:0:0:
416,160,78538,1,0,0:0:0:0:
384,192,78656,1,0,0:0:0:0:
384,224,78774,1,0,0:0:0:0:
416,256,78892,1,0,0:0:0:0:
448,256,79010,1,0,0:0:0:0:
160,288,79246,2,0,L|64:224,2,110
352,64,80191,2,0,P|416:128|384:160,2,110
160,64,81136,5,0,0:0:0:0:
160,64,81254,1,0,0:0:0:0:
160,64,81372,1,0,0:0:0:0:
96,64,90939,5,0,0:0:0:0:
448,64,91412,1,0,0:0:0:0:
96,320,91884,1,0,0:0:0:0:
256,64,92357,1,0,0:0:0:0:
416,320,92829,1,0,0:0:0:0:
96,192,93301,1,0,0:0:0:0:
448,192,93774,1,0,0:0:0:0:
160,320,94246,1,0,0:0:0:0:
256,64,94719,1,0,0:0:0:0:
416,320,95191,1,0,0:0:0:0:
416,64,95664,5,0,0:0:0:0:
320,160,96136,1,0,0:0:0:0:
448,64,96609,1,0,0:0:0:0:
224,224,97081,1,0,0:0:0:0:
448,64,97553,1,0,0:0:0:0:
96,320,98026,1,0,0:0:0:0:
256,160,98380,5,0,0:0:0:0:
96,64,98853,5,0,0:0:0:0:
96,192,98971,1,0,0:0:0:0:
320,64,99207,2,0,L|416:64,1,55
192,64,99561,2,0,L|96:64,1,55
256,288,99916,2,0,L|256:192,8,55
256,64,100979,2,0,L|256:160,9,55
192,192,102160,2,0,L|96:192,8,55
320,192,103105,2,0,L|384:192,10,55
192,96,104404,2,0,L|128:32,10,55
352,64,109837,1,0,0:0:0:0:
320,96,109955,1,0,0:0:0:0:
288,128,110073,1,0,0:0:0:0:
256,160,110191,1,0,0:0:0:0:
224,192,110309,1,0,0:0:0:0:
192,192,110427,1,0,0:0:0:0:
160,192,110546,1,0,0:0:0:0:
128,160,110664,1,0,0:0:0:0:
160,128,110782,1,0,0:0:0:0:
192,96,110900,1,0,0:0:0:0:
224,96,111018,1,0,0:0:0:0:
256,96,111136,1,0,0:0:0:0:
288,128,111254,1,0,0:0:0:0:
320,160,111372,1,0,0:0:0:0:
96,64,111609,5,0,0:0:0:0:
320,64,111845,1,0,0:0:0:0:
320,256,112081,1,0,0:0:0:0:
96,256,112317,1,0,0:0:0:0:
320,64,113380,6,0,L|384:96,1,55
384,96,113616,1,0,0:0:0:0:
384,96,113735,1,0,0:0:0:0:
352,192,113853,2,0,P|256:256|224:256,1,110
192,64,114325,1,0,0:0:0:0:
128,320,114443,1,0,0:0:0:0:
128,64,114561,1,0,0:0:0:0:
192,320,114679,1,0,0:0:0:0:
320,96,114798,2,0,L|384:192,1,110
96,256,115270,5,0,0:0:0:0:
96,256,115388,2,0,L|96:192,1,55
416,64,115742,2,0,P|480:160|480:192,1,110
96,64,116215,2,0,P|32:160|32:192,1,110
96,256,116569,1,0,0:0:0:0:
256,288,116687,1,0,0:0:0:0:
416,256,116805,1,0,0:0:0:0:
128,32,117042,5,2,0:0:0:0:
128,32,117160,1,2,0:0:0:0:
128,32,117278,2,2,L|64:128,1,110
448,64,117750,2,2,L|416:224,1,110
426,171,118105,1,2,0:0:0:0:
320,64,118341,1,2,0:0:0:0:
192,32,118459,1,2,0:0:0:0:
64,96,118577,1,2,0:0:0:0:
64,224,118695,2,0,L|96:288,2,55
320,32,119168,5,0,0:0:0:0:
480,192,119286,1,0,0:0:0:0:
320,32,119404,1,0,0:0:0:0:
160,192,119522,1,0,0:0:0:0:
448,128,119758,2,0,L|352:64,1,110
128,64,120231,2,0,L|64:160,2,110
416,224,120939,6,0,L|416:288,1,55
416,128,121294,2,0,B|320:32|288:32|256:32,1,165
128,64,121766,1,0,0:0:0:0:
416,128,122002,1,0,0:0:0:0:
416,128,122120,1,0,0:0:0:0:
416,128,122238,1,0,0:0:0:0:
416,128,122357,2,0,L|448:224,1,55
224,224,122593,2,0,L|192:160,1,55
256,96,122829,1,0,0:0:0:0:
224,224,122947,1,0,0:0:0:0:
128,256,123065,1,0,0:0:0:0:
96,224,123301,1,0,0:0:0:0:
64,192,123538,1,0,0:0:0:0:
32,160,123774,1,0,0:0:0:0:
96,96,124010,1,0,0:0:0:0:
160,32,124128,1,0,0:0:0:0:
96,96,124246,1,0,0:0:0:0:
416,64,124601,5,0,0:0:0:0:
384,64,124719,1,0,0:0:0:0:
352,64,124837,1,0,0:0:0:0:
160,32,125073,2,0,L|64:96,1,110
256,288,125546,1,0,0:0:0:0:
416,96,125782,1,0,0:0:0:0:
128,96,126018,1,0,0:0:0:0:
128,96,126136,2,0,L|96:160,1,55
384,320,126490,2,2,L|384:256,1,55
384,256,126727,1,2,0:0:0:0:
320,32,126963,1,0,0:0:0:0:
96,256,127199,1,0,0:0:0:0:
224,128,127553,2,0,L|288:128,1,55
288,128,127790,1,0,0:0:0:0:
320,128,127908,1,0,0:0:0:0:
352,128,128026,1,0,0:0:0:0:
96,64,128380,5,0,0:0:0:0:
96,160,128498,1,0,0:0:0:0:
96,160,128616,1,0,0:0:0:0:
96,160,128735,1,0,0:0:0:0:
288,96,128971,2,0,L|384:192,1,110
288,288,129443,1,0,0:0:0:0:
288,288,129561,2,0,P|192:224|192:192,1,110
96,64,130270,5,0,0:0:0:0:
96,64,130388,1,0,0:0:0:0:
96,64,130506,1,0,0:0:0:0:
416,64,130742,2,0,P|480:160|480:192,1,110
416,64,131215,1,0,0:0:0:0:
416,64,131333,1,0,0:0:0:0:
416,64,131451,1,0,0:0:0:0:
416,64,131569,1,0,0:0:0:0:
288,192,131805,2,0,L|128:192,2,110
288,192,132396,1,0,0:0:0:0:
288,192,132514,1,0,0:0:0:0:
160,64,132750,1,0,0:0:0:0:
192,320,132986,1,0,0:0:0:0:
160,192,133105,1,0,0:0:0:0:
160,192,133223,1,0,0:0:0:0:
160,192,133341,1,0,0:0:0:0:
160,192,133459,1,0,0:0:0:0:
256,64,133577,6,0,P|384:32|384:128,1,220
416,128,134168,1,0,0:0:0:0:
416,160,134286,1,0,0:0:0:0:
416,192,134404,1,0,0:0:0:0:
320,288,134640,1,0,0:0:0:0:
224,288,134758,1,0,0:0:0:0:
128,128,134994,2,0,L|192:96,4,55
96,96,135939,2,0,L|96:32,1,55
160,32,136175,2,0,L|160:96,1,55
160,192,136530,1,0,0:0:0:0:
160,96,136648,1,0,0:0:0:0:
352,64,136884,5,0,0:0:0:0:
352,96,137002,1,0,0:0:0:0:
352,128,137120,1,0,0:0:0:0:
352,128,137238,2,0,L|352:192,2,55
64,64,137829,1,0,0:0:0:0:
64,64,137947,1,0,0:0:0:0:
64,64,138065,1,0,0:0:0:0:
192,64,138301,1,0,0:0:0:0:
64,192,138538,1,0,0:0:0:0:
352,320,138774,1,0,0:0:0:0:
352,320,138892,1,0,0:0:0:0:
352,320,139010,1,0,0:0:0:0:
352,320,139128,1,0,0:0:0:0:
352,320,139246,1,0,0:0:0:0:
352,320,139364,2,0,L|288:320,2,55
352,160,139837,1,0,0:0:0:0:
320,160,139955,1,0,0:0:0:0:
288,160,140073,1,0,0:0:0:0:
192,64,140191,1,0,0:0:0:0:
96,160,140309,1,0,0:0:0:0:
288,160,140427,1,0,0:0:0:0:
128,320,140664,5,0,0:0:0:0:
288,320,140900,1,0,0:0:0:0:
320,320,141018,1,0,0:0:0:0:
352,320,141136,2,0,L|448:320,2,55
352,64,141609,1,0,0:0:0:0:
288,64,141727,1,0,0:0:0:0:
224,64,141845,1,0,0:0:0:0:
96,64,142081,2,0,L|96:192,4,110
256,192,143498,12,0,154364,0:0:0:0:
384,64,158616,5,0,0:0:0:0:
384,64,158735,1,0,0:0:0:0:
384,160,158853,2,0,L|320:160,1,55
224,160,159561,2,0,L|224:96,2,55
128,64,160506,5,0,0:0:0:0:
128,224,160742,1,0,0:0:0:0:
352,224,160979,1,0,0:0:0:0:
352,64,161215,1,0,0:0:0:0:
128,64,161451,2,0,P|96:192|160:256,1,220
288,192,162396,1,0,0:0:0:0:
384,96,162514,1,0,0:0:0:0:
448,224,162632,1,0,0:0:0:0:
192,192,163105,1,0,0:0:0:0:
64,192,163341,2,0,P|128:64|160:64,1,165
288,64,164286,6,0,P|416:96|448:64,1,165
430,84,164758,2,0,P|448:224|416:256,1,165
352,256,165231,1,0,0:0:0:0:
256,256,165349,1,0,0:0:0:0:
224,256,165467,1,0,0:0:0:0:
192,256,165585,1,0,0:0:0:0:
64,64,166412,1,0,0:0:0:0:
64,224,166648,1,0,0:0:0:0:
256,224,166884,1,0,0:0:0:0:
256,64,167120,1,0,0:0:0:0:
416,32,167357,2,0,P|480:224|480:256,1,220
480,224,167947,2,0,L|416:256,1,55
288,320,168301,6,0,P|192:320|192:288,1,110
192,224,168656,2,0,P|288:192|320:224,1,110
96,96,169719,2,0,L|96:160,3,55
416,32,170664,1,0,0:0:0:0:
256,224,170900,1,0,0:0:0:0:
128,96,171254,5,0,0:0:0:0:
96,192,171372,2,0,P|160:256|224:256,1,110
320,32,171845,2,0,P|384:64|416:128,2,110
352,192,172553,1,0,0:0:0:0:
128,96,172790,1,0,0:0:0:0:
128,288,173262,5,0,0:0:0:0:
128,64,173498,1,0,0:0:0:0:
128,224,174207,2,0,P|192:192|256:224,2,110
352,64,175034,1,0,0:0:0:0:
352,96,175152,1,0,0:0:0:0:
352,128,175270,2,0,P|320:192|256:224,1,110
224,224,175624,1,0,0:0:0:0:
128,160,175860,1,0,0:0:0:0:
192,64,176097,1,0,0:0:0:0:
288,64,176333,2,0,P|384:96|416:128,2,110
416,256,177042,5,0,0:0:0:0:
128,256,177278,1,0,0:0:0:0:
160,64,177986,1,0,0:0:0:0:
192,64,178105,1,0,0:0:0:0:
224,64,178223,1,0,0:0:0:0:
256,64,178341,1,0,0:0:0:0:
384,160,178695,1,0,0:0:0:0:
384,192,178813,1,0,0:0:0:0:
352,224,178931,1,0,0:0:0:0:
320,256,179049,1,0,0:0:0:0:
288,256,179168,1,0,0:0:0:0:
288,256,179286,2,0,L|128:224,2,110
384,64,179994,1,0,0:0:0:0:
192,160,180231,1,0,0:0:0:0:
448,288,180821,5,0,0:0:0:0:
448,64,181057,1,0,0:0:0:0:
160,128,181766,1,0,0:0:0:0:
128,160,181884,1,0,0:0:0:0:
160,192,182002,1,0,0:0:0:0:
192,160,182120,1,0,0:0:0:0:
320,320,182475,1,0,0:0:0:0:
320,320,182593,2,0,P|384:288|384:224,1,110
384,160,182947,2,0,P|288:192|288:224,2,110
384,160,183538,2,0,P|384:256|352:288,1,110
352,256,184128,5,0,0:0:0:0:
224,288,184364,1,0,0:0:0:0:
96,256,184601,1,0,0:0:0:0:
32,160,184837,1,0,0:0:0:0:
96,64,185073,1,0,0:0:0:0:
128,64,185191,1,0,0:0:0:0:
160,64,185309,1,0,0:0:0:0:
192,64,185427,1,0,0:0:0:0:
224,64,185546,1,0,0:0:0:0:
256,64,185664,1,0,0:0:0:0:
288,64,185782,1,0,0:0:0:0:
