osu file format v14

[General]
AudioFilename: Lean On .mp3
AudioLeadIn: 0
PreviewTime: 105490
Countdown: 0
SampleSet: Soft
StackLeniency: 0.4
Mode: 0
LetterboxInBreaks: 0
EpilepsyWarning: 1
WidescreenStoryboard: 1

[Editor]
Bookmarks: 45533,127571,132469,171347
DistanceSpacing: 1
BeatDivisor: 8
GridSize: 32
TimelineZoom: 3.100005

[Metadata]
Title:Lean On (feat. MO & DJ Snake)
TitleUnicode:Lean On (feat. MØ & DJ Snake)
Artist:Major Lazer
ArtistUnicode:Major Lazer
Creator:Beige
Version:Normal
Source:
Tags:Peace Is The Mission Diplo Jillionaire Walshy Fire electronic electro edm house trap moombahton dance mix pop club indian w_h_i_t_e Down english
BeatmapID:1043364
BeatmapSetID:487544

[Difficulty]
HPDrainRate:3.5
CircleSize:3.5
OverallDifficulty:4
ApproachRate:5
SliderMultiplier:1.99999990463257
SliderTickRate:2

[Events]
//Background and Video events
0,0,"bg.jpg",0,0
//Break Periods
2,127731,131228
//Storyboard Layer 0 (Background)
//Storyboard Layer 1 (Fail)
//Storyboard Layer 2 (Pass)
//Storyboard Layer 3 (Foreground)
//Storyboard Layer 4 (Overlay)
//Storyboard Sound Samples

[TimingPoints]
184,612.244897959184,4,2,1,70,1,0
46714,-100,4,2,1,60,0,0
49163,-100,4,2,1,85,0,1
57811,-100,4,2,1,85,0,1
58347,-100,4,2,1,85,0,1
58423,-100,4,2,1,85,0,1
58959,-100,4,2,1,85,0,1
67607,-100,4,2,1,85,0,1
68066,-100,4,2,1,85,0,1
68219,-100,4,2,1,85,0,1
68449,-100,4,2,1,85,0,1
68755,-100,4,2,2,70,0,0
86510,-100,4,2,2,60,0,0
88347,-100,4,2,2,75,0,0
98143,-100,4,2,1,75,0,0
98755,-100,4,2,2,75,0,0
98831,-100,4,2,1,75,0,0
99979,-100,4,2,2,75,0,0
100056,-100,4,2,1,75,0,0
101204,-100,4,2,2,75,0,0
101280,-100,4,2,1,75,0,0
102428,-100,4,2,2,75,0,0
102505,-100,4,2,1,75,0,0
103653,-100,4,2,2,75,0,0
103729,-100,4,2,1,75,0,0
104877,-100,4,2,2,75,0,0
104954,-100,4,2,1,75,0,0
105490,-100,4,2,1,60,0,0
107939,-100,4,2,1,85,0,1
126382,-100,4,2,1,60,0,1
126842,-100,4,2,1,85,0,1
126995,-100,4,2,1,60,0,1
127224,-100,4,2,1,60,0,1
127530,-100,4,2,1,60,0,0
132428,-100,4,2,1,80,0,0
133041,-100,4,2,20,80,0,0
133194,-100,4,2,1,80,0,0
133652,-100,4,2,1,80,0,0
135490,-100,4,2,20,80,0,0
135566,-100,4,2,1,80,0,0
136101,-100,4,2,1,80,0,0
140081,-100,4,2,1,60,0,0
140158,-100,4,2,20,80,0,0
140694,-100,4,2,1,60,0,0
140770,-100,4,2,1,80,0,0
141306,-100,4,2,1,60,0,0
141382,-100,4,2,20,80,0,0
141765,-100,4,2,10,80,0,0
141918,-100,4,2,1,60,0,0
141995,-100,4,2,1,80,0,0
142837,-100,4,2,20,80,0,0
143143,-100,4,2,10,80,0,0
143449,-100,4,2,1,80,0,0
145286,-100,4,2,20,80,0,0
145591,-100,4,2,1,80,0,0
146816,-100,4,2,1,60,0,0
147122,-100,4,2,1,80,0,0
149571,-100,4,2,1,60,0,0
152020,-100,4,2,2,80,0,0
169316,-100,4,2,1,60,0,0

[Colours]
Combo1 : 210,165,248
Combo2 : 255,132,132
Combo3 : 255,247,142
Combo4 : 125,233,255
SliderBorder : 240,240,255
SliderTrackOverride : 40,50,70

[HitObjects]
175,344,10439,6,0,L|249:344|307:296,1,149.999992847443,2|2,0:0|0:0,0:0:0:0:
416,192,11357,1,2,0:0:0:0:
307,88,11816,2,0,L|228:23|129:23,1,199.999990463257,2|2,0:0|0:0,0:0:0:0:
66,213,13041,6,0,L|145:278|245:278,1,199.999990463257
344,280,13959,1,0,0:0:0:0:
296,192,14265,2,0,L|300:92,1,99.9999952316285,2|2,0:0|0:0,0:0:0:0:
212,136,14877,6,0,P|145:129|88:71,2,149.999992847443,2|2|2,0:0|0:0|0:0,0:0:0:0:
327,31,16255,1,2,0:0:0:0:
360,184,16714,2,0,L|461:189,1,99.9999952316285,2|0,0:0|0:0,0:0:0:0:
480,288,17326,6,0,L|330:279,1,149.999992847443,2|2,0:0|0:0,0:0:0:0:
204,360,18245,2,0,L|54:351,1,149.999992847443,2|2,0:0|0:0,0:0:0:0:
84,206,19163,1,2,0:0:0:0:
106,108,19469,1,2,0:0:0:0:
179,177,19775,6,0,B|248:167|248:167|328:182,1,149.999992847443,2|2,0:0|0:0,0:0:0:0:
434,75,20694,2,0,B|366:86|366:86|286:70,1,149.999992847443,2|2,0:0|0:0,0:0:0:0:
143,31,21612,1,2,0:0:0:0:
63,213,22224,6,0,B|163:260|266:222|257:213|250:205|349:168|452:213,1,399.999980926514,2|0,0:0|0:0,0:0:0:0:
470,312,23755,1,0,0:0:0:0:
375,280,24061,2,0,P|326:280|279:298,1,99.9999952316285,2|2,0:0|0:0,0:0:0:0:
197,352,24673,6,0,L|48:333,1,149.999992847443,2|2,0:0|0:0,0:0:0:0:
84,188,25592,2,0,L|234:206,2,149.999992847443,2|2|2,0:0|0:0|0:0,0:0:0:0:
80,88,26816,1,0,0:0:0:0:
168,40,27122,6,0,P|240:24|312:44,1,149.999992847443,2|2,0:0|0:0,0:0:0:0:
420,148,28041,2,0,L|438:297,2,149.999992847443,2|2|2,0:0|0:0|0:0,0:0:0:0:
324,172,29265,1,2,0:0:0:0:
240,120,29571,6,0,P|164:132|100:100,1,149.999992847443,2|2,1:2|0:0,0:0:0:0:
64,64,30184,2,0,L|68:164,1,99.9999952316285,0|2,1:0|0:0,0:0:0:0:
76,264,30796,1,0,1:0:0:0:
120,240,30949,2,0,P|196:228|260:260,1,149.999992847443,2|2,0:0|1:2,0:0:0:0:
424,372,32020,6,0,L|436:220,1,149.999992847443,2|2,1:2|0:0,0:0:0:0:
476,192,32632,2,0,P|424:192|384:168,1,99.9999952316285,0|2,1:0|0:0,0:0:0:0:
316,96,33245,2,0,P|220:88|144:152,1,199.999990463257,0|2,1:0|1:2,0:0:0:0:
128,252,34163,1,2,0:0:0:0:
112,352,34469,6,0,L|264:344,1,149.999992847443,2|2,1:2|0:0,0:0:0:0:
308,360,35081,2,0,L|432:353,1,99.9999952316285,0|2,1:0|0:0,0:0:0:0:
432,256,35694,1,0,1:0:0:0:
384,260,35847,2,0,B|309:264|309:264|249:219,1,149.999992847443,2|2,0:0|1:2,0:0:0:0:
96,92,36918,6,0,B|170:96|170:96|230:51,1,149.999992847443,2|2,1:2|0:0,0:0:0:0:
272,20,37530,2,0,L|260:120,1,99.9999952316285,0|2,1:0|0:0,0:0:0:0:
249,219,38143,1,0,1:0:0:0:
340,176,38449,1,0,0:0:0:0:
431,133,38755,2,0,P|440:188|424:236,1,99.9999952316285,2|2,1:2|0:0,0:0:0:0:
368,308,39367,6,0,P|444:324|508:284,2,149.999992847443,10|10|10,3:2|3:2|3:2,0:0:0:0:
276,348,40592,2,0,P|211:312|140:329,1,149.999992847443,8|8,3:2|3:2,0:0:0:0:
100,360,41204,2,0,L|108:260,1,99.9999952316285,10|8,0:0|3:2,0:0:0:0:
112,212,41663,1,8,3:2:0:0:
116,164,41816,5,10,3:2:0:0:
148,68,42122,2,0,P|124:64|72:72,2,49.9999976158143,0|10|0,0:0|3:2|0:0,0:0:0:0:
220,136,42735,2,0,P|285:138|320:128,1,99.9999952316285,10|8,3:2|3:2,0:0:0:0:
364,112,43194,2,0,L|352:212,1,99.9999952316285,2|8,0:0|3:2,0:0:0:0:
344,260,43653,2,0,P|400:252|444:268,1,99.9999952316285,2|10,0:0|3:2,0:0:0:0:
386,350,44265,6,0,P|315:355|253:307,2,149.999992847443,10|10|10,3:2|3:2|3:2,0:1:0:0:
440,265,45490,2,0,L|448:69,1,149.999992847443,8|8,3:2|3:2,0:0:0:0:
448,65,46102,1,2,0:0:0:0:
352,89,46408,1,8,3:2:0:0:
264,45,46714,5,0,0:0:0:0:
256,192,46867,12,0,48551,0:0:0:0:
256,360,49163,5,0,1:0:0:0:
204,276,49469,2,0,P|192:228|204:180,1,99.9999952316285,2|0,0:0|1:0,0:0:0:0:
308,180,50081,2,0,P|320:228|308:276,2,99.9999952316285,2|0|2,0:0|1:0|0:0,0:0:0:0:
256,96,51000,1,0,1:0:0:0:
204,179,51306,1,2,0:0:0:0:
108,144,51612,6,0,L|100:44,1,99.9999952316285,0|2,1:0|0:0,0:0:0:0:
8,88,52224,2,0,L|16:188,1,99.9999952316285,0|2,1:0|0:0,0:0:0:0:
40,232,52684,1,0,0:0:0:0:
64,276,52837,2,0,P|54:324|74:380,1,99.9999952316285,2|2,1:2|0:0,0:0:0:0:
156,320,53449,1,2,1:2:0:0:
256,340,53755,1,2,0:0:0:0:
356,320,54061,5,0,1:0:0:0:
443,371,54367,2,0,P|457:324|448:276,1,99.9999952316285,2|0,0:0|1:0,0:0:0:0:
392,192,54979,1,2,0:0:0:0:
448,107,55286,2,0,P|457:59|443:12,2,99.9999952316285,0|2|0,1:0|0:0|1:0,0:0:0:0:
356,64,56204,1,2,0:0:0:0:
256,84,56510,5,0,1:0:0:0:
200,168,56816,2,0,P|185:215|195:263,1,99.9999952316285,2|0,0:0|1:0,0:0:0:0:
246,349,57428,2,0,P|198:363|150:353,1,99.9999952316285,2|8,0:0|1:2,0:0:0:0:
104,332,57888,1,8,0:0:0:0:
60,308,58041,2,0,L|56:208,1,99.9999952316285,10|10,0:0|1:2,0:0:0:0:
52,108,58653,1,10,0:0:0:0:
132,48,58959,5,0,1:0:0:0:
232,60,59265,2,0,B|284:64|284:64|332:48,1,99.9999952316285,2|0,0:0|1:0,0:0:0:0:
356,144,59877,2,0,B|401:128|401:128|453:132,2,99.9999952316285,2|0|2,0:0|1:0|0:0,0:0:0:0:
268,192,60796,1,0,1:0:0:0:
356,240,61102,1,2,0:0:0:0:
272,292,61408,5,0,1:0:0:0:
188,344,61714,2,0,B|142:359|142:359|90:355,1,99.9999952316285,2|0,0:0|1:0,0:0:0:0:
36,272,62326,2,0,B|81:256|81:256|133:260,1,99.9999952316285,2|0,0:0|1:0,0:0:0:0:
112,216,62786,1,0,0:0:0:0:
88,172,62939,2,0,P|76:120|84:72,1,99.9999952316285,2|2,0:0|1:2,0:0:0:0:
169,21,63551,1,2,0:0:0:0:
172,120,63857,5,0,1:0:0:0:
256,68,64163,2,0,L|356:64,1,99.9999952316285,2|0,0:0|1:0,0:0:0:0:
440,119,64775,2,0,P|452:67|444:19,2,99.9999952316285,2|0|2,0:0|1:0|0:0,0:0:0:0:
380,200,65694,1,0,1:0:0:0:
320,281,66000,1,2,0:0:0:0:
260,362,66306,6,0,L|160:358,1,99.9999952316285,0|2,1:0|0:0,0:0:0:0:
212,272,66918,2,0,L|112:268,1,99.9999952316285,0|2,1:0|0:0,0:0:0:0:
76,232,67377,1,0,0:0:0:0:
40,196,67530,2,0,P|28:144|36:96,1,99.9999952316285,10|10,1:2|0:0,0:0:0:0:
120,44,68143,2,0,P|132:96|124:144,2,99.9999952316285,10|10|2,1:2|0:0|0:0,0:0:0:0:
264,80,69214,5,2,0:0:0:0:
312,96,69367,2,0,L|412:92,1,99.9999952316285,8|2,0:0|0:0,0:0:0:0:
444,240,70132,2,0,L|279:246,1,149.999992847443,2|10,0:0|0:0,0:0:0:0:
108,320,71204,6,0,P|92:252|112:176,1,149.999992847443,2|2,0:0|0:0,0:0:0:0:
140,136,71816,1,8,0:0:0:0:
212,64,72122,2,0,L|361:58,2,149.999992847443,2|2|10,0:0|0:0|0:0,0:0:0:0:
116,40,73347,1,2,0:0:0:0:
140,136,73653,6,0,P|101:194|94:272,1,149.999992847443,2|2,0:0|0:0,0:0:0:0:
108,320,74265,1,8,0:0:0:0:
196,364,74571,2,0,L|348:356,1,149.999992847443,2|2,0:0|0:0,0:0:0:0:
496,360,75490,1,10,0:0:0:0:
448,272,75796,1,0,0:0:0:0:
400,184,76102,6,0,P|384:132|420:48,1,149.999992847443,2|2,0:0|0:0,0:0:0:0:
460,16,76714,2,0,L|346:17,1,99.9999952316285,8|2,0:0|0:0,0:0:0:0:
212,12,77479,2,0,L|228:164,1,149.999992847443,2|10,0:0|0:0,0:0:0:0:
216,268,78245,1,2,0:0:0:0:
243,366,78551,6,0,P|163:349|115:247,2,199.999990463257,0|8|0,1:0|0:0|0:0,0:0:0:0:
314,293,80081,1,2,1:2:0:0:
387,364,80388,1,10,0:0:0:0:
493,200,81000,6,0,P|514:129|496:57,1,149.999992847443,2|2,1:2|0:0,0:0:0:0:
456,28,81612,2,0,L|348:20,1,99.9999952316285,8|2,0:0|1:2,0:0:0:0:
380,120,82224,2,0,L|272:112,1,99.9999952316285,2|2,0:0|1:2,0:0:0:0:
304,212,82837,2,0,L|196:204,1,99.9999952316285,10|2,0:0|0:0,0:0:0:0:
103,189,83449,6,0,P|135:279|228:304,2,199.999990463257,2|8|0,1:2|0:0|0:0,0:0:0:0:
136,96,84979,1,0,1:0:0:0:
36,116,85286,1,10,0:0:0:0:
236,76,85898,5,2,1:2:0:0:
84,204,86510,2,0,P|36:116|48:12,2,199.999990463257,8|0|2,0:0|0:0|0:0,0:0:0:0:
272,264,88347,6,0,P|348:252|412:284,1,149.999992847443,2|2,1:2|0:0,0:0:0:0:
448,320,88960,2,0,L|444:220,1,99.9999952316285,8|2,1:2|0:0,0:0:0:0:
436,120,89572,1,0,1:0:0:0:
392,144,89725,2,0,P|316:156|252:124,1,149.999992847443,2|10,0:0|1:2,0:0:0:0:
88,12,90796,6,0,L|76:164,1,149.999992847443,2|2,1:2|0:0,0:0:0:0:
36,192,91408,2,0,P|88:192|128:216,1,99.9999952316285,8|2,1:2|0:0,0:0:0:0:
196,288,92021,2,0,P|292:296|368:232,1,199.999990463257,0|10,1:0|1:2,0:0:0:0:
384,132,92939,1,2,0:0:0:0:
400,32,93245,6,0,L|248:40,1,149.999992847443,2|2,1:2|0:0,0:0:0:0:
204,24,93857,2,0,L|80:31,1,99.9999952316285,8|2,1:2|0:0,0:0:0:0:
80,128,94470,1,0,1:0:0:0:
128,124,94623,2,0,B|203:120|203:120|263:165,1,149.999992847443,2|10,0:0|1:2,0:0:0:0:
416,292,95694,6,0,B|342:288|342:288|282:333,1,149.999992847443,2|2,1:2|0:0,0:0:0:0:
240,364,96306,2,0,L|252:264,1,99.9999952316285,8|2,1:2|0:0,0:0:0:0:
263,165,96919,1,0,1:0:0:0:
172,208,97225,1,0,0:0:0:0:
81,251,97531,2,0,P|72:196|88:148,1,99.9999952316285,10|2,1:2|0:0,0:0:0:0:
124,64,98143,6,0,L|313:65,1,149.999992847443,10|10,3:2|3:2,0:0:0:0:
316,36,98755,2,0,P|364:24|416:28,1,99.9999952316285,8|10,0:0|3:2,0:0:0:0:
508,68,99367,2,0,B|484:108|484:108|492:212,1,149.999992847443,8|8,3:2|3:2,0:0:0:0:
500,260,99979,1,10,0:0:0:0:
420,320,100286,2,0,L|417:369,2,49.9999976158143,8|8|10,3:2|3:2|3:2,0:0:0:0:
412,220,100898,6,0,L|407:126,1,49.9999976158143,0|10,0:0|3:2,0:0:0:0:
406,120,101204,1,8,0:0:0:0:
312,156,101510,2,0,P|264:160|216:144,1,99.9999952316285,10|8,3:2|3:2,0:0:0:0:
176,116,101969,2,0,L|188:216,1,99.9999952316285,2|8,0:0|3:2,0:0:0:0:
200,264,102428,2,0,P|150:260|103:276,1,99.9999952316285,2|10,0:0|3:2,0:0:0:0:
20,336,103041,5,10,3:2:0:0:
8,236,103347,2,0,L|4:184,1,49.9999976158143,0|10,0:0|3:2,0:0:0:0:
24,140,103653,2,0,L|32:26,1,99.9999952316285,8|10,0:0|3:2,0:0:0:0:
124,84,104265,2,0,P|196:92|260:52,1,149.999992847443,8|8,3:2|3:2,0:0:0:0:
284,8,104877,1,10,0:0:0:0:
360,72,105184,1,8,3:2:0:0:
324,164,105490,5,0,0:0:0:0:
256,192,105643,12,0,107327,0:0:0:0:
256,24,107939,5,0,1:0:0:0:
308,108,108245,2,0,P|320:156|308:204,1,99.9999952316285,2|0,0:0|1:0,0:0:0:0:
204,204,108857,2,0,P|192:156|204:108,2,99.9999952316285,2|0|2,0:0|1:0|0:0,0:0:0:0:
256,288,109776,1,0,1:0:0:0:
308,205,110082,1,2,0:0:0:0:
404,240,110388,6,0,L|412:340,1,99.9999952316285,0|2,1:0|0:0,0:0:0:0:
504,296,111000,2,0,L|496:196,1,99.9999952316285,0|2,1:0|0:0,0:0:0:0:
472,152,111460,1,0,0:0:0:0:
448,108,111613,2,0,P|458:60|438:4,1,99.9999952316285,0|2,1:0|0:0,0:0:0:0:
356,64,112225,1,2,1:2:0:0:
256,76,112531,1,2,0:0:0:0:
156,64,112837,5,0,1:0:0:0:
69,13,113143,2,0,P|55:60|64:108,1,99.9999952316285,2|0,0:0|1:0,0:0:0:0:
120,192,113755,1,2,0:0:0:0:
64,277,114062,2,0,P|55:325|69:372,2,99.9999952316285,0|2|0,1:0|0:0|1:0,0:0:0:0:
156,320,114980,1,2,0:0:0:0:
256,300,115286,5,0,1:0:0:0:
312,216,115592,2,0,P|327:169|317:121,1,99.9999952316285,2|0,0:0|1:0,0:0:0:0:
266,35,116204,2,0,P|314:21|362:31,1,99.9999952316285,2|0,0:0|1:0,0:0:0:0:
408,52,116664,1,0,0:0:0:0:
452,76,116817,2,0,L|456:176,1,99.9999952316285,2|2,0:0|1:2,0:0:0:0:
460,276,117429,1,2,0:0:0:0:
380,336,117735,5,0,1:0:0:0:
280,324,118041,2,0,B|228:320|228:320|180:336,1,99.9999952316285,2|0,0:0|1:0,0:0:0:0:
156,240,118653,2,0,B|111:256|111:256|59:252,2,99.9999952316285,2|0|2,0:0|1:0|0:0,0:0:0:0:
244,192,119572,1,0,1:0:0:0:
156,144,119878,1,2,0:0:0:0:
240,92,120184,5,0,1:0:0:0:
324,40,120490,2,0,B|370:25|370:25|422:29,1,99.9999952316285,2|0,0:0|1:0,0:0:0:0:
476,112,121102,2,0,B|431:128|431:128|379:124,1,99.9999952316285,2|0,0:0|1:0,0:0:0:0:
400,168,121562,1,0,0:0:0:0:
424,212,121715,2,0,P|436:264|428:312,1,99.9999952316285,2|2,0:0|1:2,0:0:0:0:
343,363,122327,1,2,0:0:0:0:
340,264,122633,5,0,1:0:0:0:
256,316,122939,2,0,L|156:320,1,99.9999952316285,2|0,0:0|1:0,0:0:0:0:
72,265,123551,2,0,P|60:317|68:365,2,99.9999952316285,2|0|2,0:0|1:0|0:0,0:0:0:0:
132,184,124470,1,0,1:0:0:0:
192,103,124776,1,2,0:0:0:0:
252,22,125082,6,0,L|352:26,1,99.9999952316285,0|2,1:0|0:0,0:0:0:0:
300,112,125694,2,0,L|400:116,1,99.9999952316285,0|2,1:0|0:0,0:0:0:0:
436,152,126153,1,0,0:0:0:0:
472,188,126306,2,0,P|484:240|476:288,1,99.9999952316285,10|10,1:2|0:0,0:0:0:0:
392,340,126919,2,0,P|380:288|388:240,2,99.9999952316285,10|10|0,1:2|0:0|0:0,0:0:0:0:
312,300,132428,6,0,P|418:336|428:128,1,399.999980926514,0|2,1:0|0:0,0:0:0:0:
330,106,133959,1,2,1:2:0:0:
354,203,134265,2,0,L|396:230,1,49.9999976158143,10|0,3:2|1:0,0:0:0:0:
248,216,134877,6,0,P|141:252|131:44,1,399.999980926514,2|2,1:2|0:0,0:0:0:0:
230,22,136408,1,2,1:2:0:0:
206,119,136714,2,0,L|163:146,1,49.9999976158143,10|0,3:2|1:0,0:0:0:0:
304,88,137326,5,2,1:2:0:0:
380,276,137939,2,0,B|305:311|228:282|234:276|240:270|166:242|88:276,1,299.999985694885,10|0,3:2|1:0,0:0:0:0:
36,192,139163,2,0,P|71:156|96:113,1,99.9999952316285,10|2,3:2|0:0,0:0:0:0:
112,16,139775,1,2,1:2:0:0:
192,72,140081,6,0,B|242:95|293:76|289:72|285:67|335:49|386:72,1,199.999990463257,4|4,0:0|0:0,0:0:0:0:
336,264,141306,2,0,B|286:241|235:260|239:264|243:269|193:287|142:264,1,199.999990463257,6|4,0:0|0:0,0:0:0:0:
187,175,142224,6,0,P|42:260|182:354,1,399.999980926514,2|10,3:2|3:2,0:0:0:0:
364,276,144061,1,2,0:0:0:0:
344,176,144367,1,10,3:2:0:0:
404,93,144673,6,0,B|355:67|300:76|268:114|268:114|244:71|191:50|138:70,1,299.999985694885,2|2,1:2|1:2,0:0:0:0:
75,150,145898,2,0,P|121:168|170:164,1,99.9999952316285,10|10,3:2|1:2,0:0:0:0:
239,243,146510,2,0,P|198:264|145:266,2,99.9999952316285,2|10|10,0:0|0:0|1:2,0:0:0:0:
392,112,147735,5,10,3:2:0:0:
476,292,148347,2,0,L|368:284,1,99.9999952316285,10|0,3:2|1:0,0:0:0:0:
284,324,148959,2,0,L|176:316,1,99.9999952316285,10|10,3:2|3:2,0:0:0:0:
256,192,149571,12,0,151408,0:0:0:0:
472,80,152020,6,0,L|320:68,1,149.999992847443,0|2,1:0|0:0,0:0:0:0:
272,64,152632,2,0,P|292:108|288:160,1,99.9999952316285,8|2,1:2|0:0,0:0:0:0:
248,252,153245,1,0,1:0:0:0:
200,236,153398,2,0,P|131:229|62:268,1,149.999992847443,2|10,0:0|1:2,0:0:0:0:
200,124,154469,6,0,L|349:135,1,149.999992847443,2|2,1:2|0:0,0:0:0:0:
400,140,155081,2,0,P|384:96|392:40,1,99.9999952316285,8|2,1:2|0:0,0:0:0:0:
480,84,155694,2,0,P|496:156|372:236,1,199.999990463257,0|10,1:0|1:2,0:0:0:0:
316,212,156612,1,2,0:0:0:0:
264,296,156918,6,0,L|114:284,1,149.999992847443,2|2,1:2|0:0,0:0:0:0:
64,292,157530,2,0,B|76:244|76:244|68:192,1,99.9999952316285,8|2,1:2|0:0,0:0:0:0:
52,96,158143,1,0,1:0:0:0:
100,108,158296,2,0,B|174:119|174:119|240:84,1,149.999992847443,2|10,0:0|1:2,0:0:0:0:
424,4,159367,6,0,B|441:41|427:79|424:76|420:73|406:111|424:149,1,149.999992847443,2|2,1:2|0:0,0:0:0:0:
448,192,159979,2,0,L|348:184,1,99.9999952316285,8|2,1:2|0:0,0:0:0:0:
388,276,160592,2,0,L|488:284,2,99.9999952316285,0|0|10,0:0|0:0|1:2,0:0:0:0:
288,268,161510,1,2,0:0:0:0:
212,332,161816,6,0,P|188:272|216:196,1,149.999992847443,2|2,1:2|0:0,0:0:0:0:
248,156,162428,2,0,L|148:164,1,99.9999952316285,8|2,1:2|0:0,0:0:0:0:
92,80,163041,1,0,1:0:0:0:
140,76,163194,2,0,L|289:64,1,149.999992847443,2|10,0:0|1:2,0:0:0:0:
448,192,164265,6,0,B|431:229|445:267|448:264|452:261|466:299|448:337,1,149.999992847443,2|2,1:2|0:0,0:0:0:0:
408,368,164877,2,0,L|308:360,1,99.9999952316285,8|2,1:2|0:0,0:0:0:0:
252,276,165490,2,0,P|308:260|352:268,2,99.9999952316285,0|0|10,1:0|0:0|1:2,0:0:0:0:
176,340,166408,1,2,0:0:0:0:
156,240,166714,6,0,L|132:92,1,149.999992847443,2|2,1:2|0:0,0:0:0:0:
124,44,167326,2,0,P|180:60|224:52,1,99.9999952316285,8|2,1:2|0:0,0:0:0:0:
316,24,167939,1,0,1:2:0:0:
364,32,168092,2,0,P|427:63|457:135,1,149.999992847443,2|10,0:0|1:2,0:0:0:0:
440,232,168857,1,0,0:0:0:0:
424,332,169163,5,2,1:2:0:0:
256,192,169316,12,0,171306,0:0:0:0:
