osu file format v14

[General]
AudioFilename: Lean On .mp3
AudioLeadIn: 0
PreviewTime: 105490
Countdown: 0
SampleSet: Soft
StackLeniency: 0.4
Mode: 0
LetterboxInBreaks: 0
EpilepsyWarning: 1
WidescreenStoryboard: 1

[Editor]
Bookmarks: 127571,132469,171347
DistanceSpacing: 1.2
BeatDivisor: 8
GridSize: 32
TimelineZoom: 3.100005

[Metadata]
Title:Lean On (feat. MO & DJ Snake)
TitleUnicode:Lean On (feat. MØ & DJ Snake)
Artist:Major Lazer
ArtistUnicode:Major Lazer
Creator:Beige
Version:Insane
Source:
Tags:Peace Is The Mission Diplo Jillionaire Walshy Fire electronic electro edm house trap moombahton dance mix pop club indian w_h_i_t_e Down english
BeatmapID:1062321
BeatmapSetID:487544

[Difficulty]
HPDrainRate:6
CircleSize:3.8
OverallDifficulty:8
ApproachRate:8.7
SliderMultiplier:3.19999990463257
SliderTickRate:4

[Events]
//Background and Video events
0,0,"bg.jpg",0,0
//Break Periods
2,127730,131783
//Storyboard Layer 0 (Background)
//Storyboard Layer 1 (Fail)
//Storyboard Layer 2 (Pass)
//Storyboard Layer 3 (Foreground)
//Storyboard Layer 4 (Overlay)
//Storyboard Sound Samples

[TimingPoints]
184,612.244897959184,4,2,1,70,1,0
9979,-125,4,2,1,70,0,0
38143,-125,4,2,10,70,0,0
38219,-125,4,2,1,70,0,0
46714,-125,4,2,1,60,0,0
49163,-100,4,2,1,85,0,1
57786,-100,4,2,1,60,0,1
58347,-100,4,2,1,85,0,1
58653,-100,4,2,1,60,0,1
58959,-100,4,2,1,85,0,1
67581,-100,4,2,1,60,0,1
68296,-100,4,2,1,85,0,1
68449,-100,4,2,1,60,0,1
68755,-125,4,2,2,70,0,0
84979,-125,4,2,10,70,0,0
85056,-125,4,2,2,70,0,0
86204,-125,4,2,2,60,0,0
88347,-125,4,2,2,75,0,0
96918,-125,4,2,10,75,0,0
96995,-125,4,2,2,75,0,0
98143,-125,4,2,1,75,0,0
98755,-125,4,2,2,75,0,0
98831,-125,4,2,1,75,0,0
99979,-125,4,2,2,75,0,0
100056,-125,4,2,1,75,0,0
101204,-125,4,2,2,75,0,0
101280,-125,4,2,1,75,0,0
102428,-125,4,2,2,75,0,0
102505,-125,4,2,1,75,0,0
103653,-125,4,2,2,75,0,0
103729,-125,4,2,1,75,0,0
104877,-125,4,2,2,75,0,0
104954,-125,4,2,1,75,0,0
105490,-125,4,2,1,60,0,0
107939,-100,4,2,1,85,0,1
116510,-100,4,2,10,85,0,1
116663,-100,4,2,1,85,0,1
126357,-100,4,2,1,60,0,1
126918,-100,4,2,1,85,0,1
127071,-100,4,2,1,85,0,1
127224,-100,4,2,1,60,0,1
127530,-100,4,2,1,60,0,0
132428,-100,4,2,1,80,0,0
136867,-100,4,2,10,80,0,0
136944,-100,4,2,1,80,0,0
140081,-100,4,2,1,60,0,0
140158,-100,4,2,1,80,0,0
140235,-100,4,2,1,60,0,0
140388,-100,4,2,1,80,0,0
140694,-100,4,2,1,60,0,0
140770,-100,4,2,1,80,0,0
141306,-100,4,2,1,60,0,0
141382,-100,4,2,1,80,0,0
141765,-100,4,2,10,80,0,0
141918,-100,4,2,5,60,0,0
141995,-100,4,2,1,80,0,0
146816,-100,4,2,1,60,0,0
147122,-100,4,2,1,80,0,0
149648,-200,4,2,1,60,0,0
152020,-100,4,2,2,80,0,0
160592,-100,4,2,10,80,0,0
160668,-100,4,2,2,80,0,0
169240,-125,4,2,1,60,0,0

[Colours]
Combo1 : 210,165,248
Combo2 : 255,132,132
Combo3 : 255,247,142
Combo4 : 125,233,255
SliderBorder : 240,240,255
SliderTrackOverride : 40,50,70

[HitObjects]
385,185,10439,5,2,0:0:0:0:
393,277,10592,2,0,L|402:369,1,63.9999980926514
467,221,10898,2,0,P|469:159|411:100,1,127.999996185303,2|0,0:0|0:0,0:0:0:0:
344,74,11357,1,2,0:0:0:0:
344,74,11663,5,0,0:0:0:0:
417,19,11816,2,0,L|490:9,1,63.9999980926514,2|0,0:0|0:0,0:0:0:0:
261,128,12122,2,0,L|113:109,1,127.999996185303,0|2,0:0|0:0,0:0:0:0:
133,112,12888,5,2,0:0:0:0:
157,208,13041,2,0,P|101:208|45:160,1,127.999996185303,0|2,0:0|0:0,0:0:0:0:
45,65,13500,1,0,0:0:0:0:
176,296,13806,1,2,0:0:0:0:
45,65,14112,1,0,0:0:0:0:
47,164,14265,2,0,L|48:230,1,63.9999980926514,2|0,0:0|0:0,0:0:0:0:
184,328,14571,2,0,L|189:264,1,63.9999980926514,2|0,0:0|0:0,0:0:0:0:
328,224,14877,6,0,L|340:360,1,127.999996185303,2|0,0:0|0:0,0:0:0:0:
352,128,15337,2,0,P|296:128|240:176,1,127.999996185303,2|0,0:0|0:0,0:0:0:0:
424,192,15796,1,2,0:0:0:0:
424,192,16255,6,0,P|447:141|427:70,1,127.999996185303,2|0,0:0|0:0,0:0:0:0:
344,32,16714,2,0,L|280:24,1,63.9999980926514,2|0,0:0|0:0,0:0:0:0:
128,8,17020,2,0,L|136:72,1,63.9999980926514
360,48,17326,6,0,B|232:32|232:32|280:72,1,191.999994277954,2|2,0:0|0:0,0:0:0:0:
344,128,17939,1,0,0:0:0:0:
344,128,18245,1,2,0:0:0:0:
320,232,18398,2,0,P|376:232|432:184,1,127.999996185303,0|2,0:0|0:0,0:0:0:0:
248,160,18857,2,0,P|224:200|232:272,1,63.9999980926514
296,360,19163,2,0,P|273:319|207:290,1,63.9999980926514,2|0,0:0|0:0,0:0:0:0:
96,304,19469,2,0,P|142:304|200:261,1,63.9999980926514,2|0,0:0|0:0,0:0:0:0:
264,160,19775,6,0,B|216:152|216:152|184:160|184:160|136:152,1,127.999996185303,2|0,0:0|0:0,0:0:0:0:
104,40,20235,2,0,L|120:184,1,127.999996185303,2|0,0:0|0:0,0:0:0:0:
184,288,20694,1,2,0:0:0:0:
96,182,20847,1,0,0:0:0:0:
264,248,21000,6,0,P|288:240|328:240,1,63.9999980926514,0|2,0:0|0:0,0:0:0:0:
320,328,21306,2,0,P|296:336|256:336,1,63.9999980926514
216,176,21612,2,0,P|264:160|344:160,1,127.999996185303,2|0,0:0|0:0,0:0:0:0:
340,159,22224,6,0,P|432:176|496:112,1,191.999994277954,2|2,0:0|0:0,0:0:0:0:
444,0,22837,2,0,P|374:-4|328:32,1,127.999996185303,0|2,0:0|0:0,0:0:0:0:
404,84,23296,1,0,0:0:0:0:
228,115,23449,6,0,P|226:83|232:52,1,63.9999980926514,0|2,0:0|0:0,0:0:0:0:
340,159,23755,2,0,P|346:190|344:222,1,63.9999980926514
152,336,24061,2,0,P|139:273|143:209,1,127.999996185303,2|2,0:0|0:0,0:0:0:0:
416,120,24673,6,0,P|428:182|424:246,1,127.999996185303,2|0,0:0|0:0,0:0:0:0:
360,304,25132,1,2,0:0:0:0:
248,192,25286,1,0,0:0:0:0:
248,192,25439,2,0,L|312:184,1,63.9999980926514,0|2,0:0|0:0,0:0:0:0:
176,256,25745,6,0,P|153:205|173:134,1,127.999996185303,0|2,0:0|0:0,0:0:0:0:
296,360,26204,2,0,L|232:352,1,63.9999980926514
344,222,26510,2,0,B|392:214|392:214|424:222|424:222|472:214,1,127.999996185303,2|0,0:0|0:0,0:0:0:0:
440,136,26969,1,0,0:0:0:0:
384,304,27122,5,2,0:0:0:0:
384,304,27428,2,0,B|408:312|408:312|480:304,1,63.9999980926514,0|2,0:0|0:0,0:0:0:0:
281,279,27735,2,0,B|249:268|249:268|154:279,1,127.999996185303,0|2,0:0|0:0,0:0:0:0:
64,308,28194,2,0,P|105:260|108:188,2,127.999996185303,0|2|0,0:0|0:0|0:0,0:0:0:0:
12,220,28959,1,2,0:0:0:0:
256,192,29265,1,2,0:0:0:0:
500,164,29571,5,2,1:2:0:0:
500,164,30030,1,2,0:0:0:0:
444,236,30184,2,0,P|436:268|436:300,1,63.9999980926514,0|0,1:0|0:0,0:0:0:0:
408,152,30490,2,0,P|407:88|391:26,1,127.999996185303,2|0,0:0|1:0,0:0:0:0:
288,104,30949,1,2,0:0:0:0:
288,104,31408,2,0,L|296:168,1,63.9999980926514,2|0,1:2|0:0,0:0:0:0:
356,312,31714,2,0,L|364:248,1,63.9999980926514
408,152,32020,5,2,1:2:0:0:
256,272,32326,2,0,P|224:280|192:280,1,63.9999980926514,0|2,0:0|0:0,0:0:0:0:
144,104,32632,2,0,P|200:136|216:200,1,127.999996185303,0|2,1:0|0:0,0:0:0:0:
64,328,33092,2,0,P|56:296|56:264,1,63.9999980926514,0|0,0:0|1:0,0:0:0:0:
292,292,33398,2,0,L|164:284,1,127.999996185303,2|0,0:0|0:0,0:0:0:0:
60,124,33857,2,0,P|60:92|68:61,1,63.9999980926514,2|0,1:2|0:0,0:0:0:0:
280,88,34163,2,0,P|252:103|221:112,1,63.9999980926514,2|0,0:0|0:0,0:0:0:0:
328,200,34469,6,0,P|420:181|484:247,1,191.999994277954,2|2,1:2|0:0,0:0:0:0:
392,272,35081,1,0,1:0:0:0:
168,204,35388,2,0,P|172:172|168:140,1,63.9999980926514,2|0,0:0|0:0,0:0:0:0:
36,176,35694,1,0,1:0:0:0:
128,277,35847,2,0,P|192:285|240:245,1,127.999996185303,2|0,0:0|0:0,0:0:0:0:
312,292,36306,2,0,L|308:356,1,63.9999980926514,2|0,1:2|0:0,0:0:0:0:
464,376,36612,2,0,L|460:312,1,63.9999980926514
392,248,36918,5,2,1:2:0:0:
392,248,37224,1,0,0:0:0:0:
483,221,37377,1,2,0:0:0:0:
344,160,37530,2,0,P|322:155|248:152,1,63.9999980926514,0|0,1:0|0:0,0:0:0:0:
195,159,37837,1,2,0:0:0:0:
400,80,37990,2,0,P|464:88|512:48,1,127.999996185303,0|2,0:0|0:0,0:0:0:0:
296,56,38449,2,0,P|274:62|208:97,1,63.9999980926514
232,292,38755,2,0,P|237:269|240:195,1,63.9999980926514,2|0,1:2|0:0,0:0:0:0:
60,127,39061,2,0,P|76:143|139:182,1,63.9999980926514,2|0,0:0|0:0,0:0:0:0:
195,159,39367,5,10,3:2:0:0:
195,159,39673,1,0,0:0:0:0:
144,76,39826,1,10,3:2:0:0:
156,236,39979,2,0,P|150:299|138:362,1,127.999996185303,8|10,3:2|3:2,0:0:0:0:
138,362,40592,5,8,3:2:0:0:
224,344,40745,2,0,P|256:336|288:336,1,63.9999980926514,10|0,3:2|0:0,0:0:0:0:
432,224,41051,1,8,3:2:0:0:
432,224,41204,2,0,P|368:232|320:192,1,127.999996185303,10|8,0:0|3:2,0:0:0:0:
320,108,41663,1,8,3:2:0:0:
396,148,41816,5,10,3:2:0:0:
148,20,42122,2,0,L|152:84,1,63.9999980926514,0|10,0:0|3:2,0:0:0:0:
108,152,42428,2,0,P|157:113|218:122,1,127.999996185303,0|10,0:0|3:2,0:0:0:0:
323,267,42888,1,0,0:0:0:0:
323,267,43041,2,0,L|328:204,1,63.9999980926514,8|2,3:2|0:0,0:0:0:0:
180,192,43347,2,0,L|188:312,1,63.9999980926514,0|8,0:0|3:2,0:0:0:0:
296,352,43653,2,0,B|340:348|340:348|377:355|377:355|422:352,1,127.999996185303,2|10,0:0|3:2,0:0:0:0:
422,351,44036,1,8,3:2:0:0:
422,351,44112,1,8,3:2:0:0:
488,272,44265,5,10,3:2:0:0:
488,272,44571,2,0,P|448:256|398:253,1,63.9999980926514,0|10,0:0|3:2,0:0:0:0:
336,120,44877,2,0,P|400:128|448:88,1,127.999996185303,0|10,0:0|3:2,0:0:0:0:
446,90,45490,5,8,3:2:0:0:
376,40,45643,2,0,P|344:32|296:40,1,63.9999980926514,2|0,0:0|0:0,0:0:0:0:
248,96,45949,1,8,3:2:0:0:
163,110,46102,2,0,P|134:126|106:166,1,63.9999980926514,2|0,0:0|0:0,0:0:0:0:
144,232,46408,1,8,3:2:0:0:
94,302,46561,2,0,P|86:334|94:382,1,63.9999980926514,8|0,3:2|0:0,0:0:0:0:
256,192,46791,12,0,48857,0:0:0:0:
375,338,49163,5,0,1:0:0:0:
208,216,49469,2,0,P|136:208|64:264,1,159.999995231628,2|0,0:0|1:0,0:0:0:0:
288,304,49928,1,0,0:0:0:0:
288,304,50081,2,0,P|365:310|428:262,1,159.999995231628,2|0,0:0|1:0,0:0:0:0:
472,176,50541,1,0,0:0:0:0:
324,52,50694,2,0,L|340:244,1,159.999995231628,2|0,0:0|1:0,0:0:0:0:
180,332,51153,1,0,0:0:0:0:
180,332,51306,2,0,L|187:236,1,79.9999976158142,2|0,0:0|0:0,0:0:0:0:
224,120,51612,6,0,P|144:120|80:48,1,159.999995231628,0|2,1:0|0:0,0:0:0:0:
336,136,52071,1,0,0:0:0:0:
336,136,52224,2,0,P|395:83|473:84,1,159.999995231628,0|2,1:0|0:0,0:0:0:0:
432,184,52684,1,0,0:0:0:0:
410,290,52837,6,0,P|374:274|344:248,1,79.9999976158142,2|0,1:2|0:0,0:0:0:0:
160,192,53143,2,0,P|199:188|238:195,1,79.9999976158142,2|0,0:0|0:0,0:0:0:0:
192,304,53449,2,0,P|113:304|55:251,1,159.999995231628,2|2,1:2|0:0,0:0:0:0:
64,128,53908,1,0,0:0:0:0:
55,252,54061,5,0,1:0:0:0:
314,174,54367,2,0,B|308:118|308:118|317:72|317:72|314:15,1,159.999995231628,2|0,0:0|1:0,0:0:0:0:
408,80,54826,1,0,0:0:0:0:
408,80,54979,2,0,B|411:137|411:137|402:183|402:183|408:239,1,159.999995231628,2|0,0:0|1:0,0:0:0:0:
364,360,55439,1,0,0:0:0:0:
324,256,55592,2,0,P|403:256|461:309,1,159.999995231628,2|0,0:0|1:0,0:0:0:0:
256,344,56051,1,0,0:0:0:0:
216,240,56204,2,0,P|232:196|272:160,1,79.9999976158142,2|0,0:0|0:0,0:0:0:0:
144,328,56510,6,0,P|65:328|7:275,1,159.999995231628,0|2,1:0|0:0,0:0:0:0:
104,228,56969,1,0,0:0:0:0:
16,88,57122,2,0,P|24:120|24:168,1,79.9999976158142,0|0,1:0|0:0,0:0:0:0:
184,104,57428,2,0,P|183:64|192:25,1,79.9999976158142,2|0,0:0|0:0,0:0:0:0:
300,72,57735,6,0,L|338:62,3,26.6666658719381,10|8|8|8,0:0|0:0|0:0|0:0,0:0:0:0:
272,184,58041,2,0,L|246:177,3,26.6666658719381,10|8|8|8,0:0|0:0|0:0|0:0,0:0:0:0:
384,152,58347,2,0,B|496:128|496:128|468:164,1,159.999995231628,10|10,1:2|0:0,0:0:0:0:
416,232,58806,1,0,0:0:0:0:
416,40,58959,5,0,1:0:0:0:
112,248,59265,2,0,P|59:189|60:111,1,159.999995231628,2|0,0:0|1:0,0:0:0:0:
168,148,59724,1,0,0:0:0:0:
208,304,59877,2,0,P|149:356|71:355,1,159.999995231628,2|0,0:0|1:0,0:0:0:0:
112,248,60337,1,0,0:0:0:0:
264,208,60490,2,0,P|316:266|315:344,1,159.999995231628,2|0,0:0|1:0,0:0:0:0:
208,304,60949,1,0,0:0:0:0:
168,148,61102,2,0,P|192:120|304:104,1,79.9999976158142,2|0,0:0|0:0,0:0:0:0:
476,180,61408,6,0,P|396:180|332:108,1,159.999995231628,0|2,1:0|0:0,0:0:0:0:
436,80,61867,1,0,0:0:0:0:
256,48,62020,2,0,B|144:24|144:24|172:60,1,159.999995231628,0|2,1:0|0:0,0:0:0:0:
232,144,62479,1,0,0:0:0:0:
128,160,62632,5,0,1:0:0:0:
284,228,62786,1,0,0:0:0:0:
100,292,62939,1,2,0:0:0:0:
264,236,63092,1,0,0:0:0:0:
52,212,63245,2,0,P|72:288|68:368,1,159.999995231628,2|2,1:2|0:0,0:0:0:0:
172,328,63704,1,0,0:0:0:0:
280,356,63857,5,0,1:0:0:0:
464,168,64163,2,0,P|484:92|480:12,1,159.999995231628,2|0,0:0|1:0,0:0:0:0:
352,104,64622,1,0,0:0:0:0:
352,104,64775,2,0,P|347:183|367:260,1,159.999995231628,2|0,0:0|1:0,0:0:0:0:
256,240,65235,1,0,0:0:0:0:
144,260,65388,2,0,P|164:183|160:104,1,159.999995231628,2|0,0:0|1:0,0:0:0:0:
40,0,65847,1,0,0:0:0:0:
28,90,66000,2,0,P|31:130|47:167,1,79.9999976158142,2|0,0:0|0:0,0:0:0:0:
216,344,66306,6,0,B|272:338|272:338|318:347|318:347|376:340,1,159.999995231628,0|2,1:0|0:0,0:0:0:0:
448,284,66765,1,0,0:0:0:0:
360,248,66918,2,0,B|352:288|352:288|360:328,1,79.9999976158142,0|0,1:0|0:0,0:0:0:0:
440,192,67224,2,0,B|448:152|448:152|440:112,1,79.9999976158142,2|0,0:0|0:0,0:0:0:0:
296,40,67530,6,0,L|256:32,3,26.6666658719381,10|8|8|8,1:2|0:0|0:0|0:0,0:0:0:0:
333,157,67837,2,0,L|360:152,3,26.6666658719381,10|8|8|8,0:0|0:0|0:0|0:0,0:0:0:0:
240,256,68143,2,0,L|83:224,1,159.999995231628,10|10,1:2|0:0,0:0:0:0:
152,152,68602,1,8,0:0:0:0:
172,329,68755,5,2,0:0:0:0:
172,329,69214,1,2,0:0:0:0:
272,352,69367,2,0,L|360:344,1,63.9999980926514,8|0,0:0|0:0,0:0:0:0:
480,208,69673,2,0,P|424:176|352:192,1,127.999996185303,2|0,0:0|0:0,0:0:0:0:
408,272,70132,1,2,0:0:0:0:
408,272,70439,5,0,0:0:0:0:
480,112,70592,2,0,P|472:80|480:24,1,63.9999980926514,10|0,0:0|0:0,0:0:0:0:
312,104,70898,2,0,P|252:122|187:121,1,127.999996185303,0|2,0:0|0:0,0:0:0:0:
187,121,71663,5,2,0:0:0:0:
96,104,71816,2,0,L|120:232,1,127.999996185303,8|2,0:0|0:0,0:0:0:0:
224,352,72275,2,0,L|247:226,2,127.999996185303,0|2|0,0:0|0:0|0:0,0:0:0:0:
224,352,73041,2,0,P|256:344|304:352,1,63.9999980926514,10|0,0:0|0:0,0:0:0:0:
144,312,73347,2,0,P|112:314|81:306,1,63.9999980926514,2|0,0:0|0:0,0:0:0:0:
216,144,73653,6,0,P|288:136|360:248,1,191.999994277954,2|2,0:0|0:0,0:0:0:0:
324,308,74265,1,8,0:0:0:0:
264,232,74418,1,0,0:0:0:0:
464,176,74571,2,0,L|456:240,1,63.9999980926514,2|0,0:0|0:0,0:0:0:0:
352,128,74877,5,0,0:0:0:0:
352,128,75030,2,0,L|336:0,1,127.999996185303,2|0,0:0|0:0,0:0:0:0:
232,80,75490,2,0,P|169:88|115:57,1,127.999996185303,10|0,0:0|0:0,0:0:0:0:
8,248,76102,6,0,P|62:216|124:225,1,127.999996185303,2|0,0:0|0:0,0:0:0:0:
81,306,76561,1,2,0:0:0:0:
212,220,76714,2,0,P|244:274|235:336,1,127.999996185303,8|2,0:0|0:0,0:0:0:0:
300,164,77173,2,0,P|268:110|277:48,1,127.999996185303,0|2,0:0|0:0,0:0:0:0:
420,100,77632,2,0,L|356:92,1,63.9999980926514
324,260,77939,2,0,L|388:252,1,63.9999980926514,10|0,0:0|0:0,0:0:0:0:
168,144,78245,2,0,L|104:136,1,63.9999980926514,2|0,0:0|0:0,0:0:0:0:
304,248,78551,6,0,L|493:224,1,191.999994277954,0|2,1:0|1:2,0:0:0:0:
464,320,79163,1,8,0:0:0:0:
200,224,79469,1,2,0:0:0:0:
232,320,79622,1,0,0:0:0:0:
272,152,79775,6,0,P|280:104|272:64,1,63.9999980926514,0|2,0:0|0:0,0:0:0:0:
99,245,80081,2,0,P|112:274|132:300,1,63.9999980926514,0|0,1:0|0:0,0:0:0:0:
144,112,80388,2,0,L|16:96,1,127.999996185303,10|0,0:0|0:0,0:0:0:0:
304,248,81000,6,0,L|432:232,1,127.999996185303,2|0,1:2|0:0,0:0:0:0:
512,128,81459,1,2,0:0:0:0:
512,128,81612,2,0,L|384:112,1,127.999996185303,8|2,0:0|1:2,0:0:0:0:
296,96,82071,1,0,0:0:0:0:
216,56,82224,6,0,P|208:96|216:136,1,63.9999980926514,2|0,0:0|0:0,0:0:0:0:
328,216,82530,2,0,P|297:189|258:176,1,63.9999980926514,2|0,1:2|0:0,0:0:0:0:
80,272,82837,2,0,P|140:251|188:209,1,127.999996185303,10|2,0:0|0:0,0:0:0:0:
188,209,83449,6,0,L|176:344,1,127.999996185303,2|0,1:2|0:0,0:0:0:0:
288,312,83908,1,2,0:0:0:0:
192,352,84061,2,0,L|128:344,1,63.9999980926514,8|0,0:0|0:0,0:0:0:0:
308,308,84367,2,0,L|372:300,1,63.9999980926514,2|0,0:0|0:0,0:0:0:0:
412,124,84673,5,0,0:0:0:0:
456,208,84826,2,0,P|393:217|339:185,1,127.999996185303,2|0,0:0|0:0,0:0:0:0:
340,64,85286,2,0,P|394:32|456:41,1,127.999996185303,10|0,0:0|0:0,0:0:0:0:
412,124,85745,1,0,0:0:0:0:
257,163,85898,5,2,1:2:0:0:
257,163,86204,2,0,P|258:195|254:227,1,63.9999980926514,2|0,0:0|0:0,0:0:0:0:
161,299,86510,2,0,B|209:295|209:295|240:305|240:305|289:302,1,127.999996185303,8|2,0:0|0:0,0:0:0:0:
400,248,86969,2,0,P|402:312|394:376,2,127.999996185303,0|2|0,0:0|0:0|0:0,0:0:0:0:
416,136,87735,2,0,P|412:104|413:72,1,63.9999980926514,2|0,0:0|0:0,0:0:0:0:
248,168,88041,2,0,L|312:176,1,63.9999980926514,2|0,0:0|0:0,0:0:0:0:
176,24,88347,5,2,1:2:0:0:
176,24,88653,2,0,P|176:55|172:87,1,63.9999980926514,0|2,0:0|0:0,0:0:0:0:
24,224,88959,2,0,P|78:192|140:201,1,127.999996185303,8|2,1:2|0:0,0:0:0:0:
184,280,89418,1,0,0:0:0:0:
96,280,89571,1,0,1:0:0:0:
232,208,89724,2,0,P|264:200|296:200,1,63.9999980926514,2|0,0:0|0:0,0:0:0:0:
384,208,90030,1,0,0:0:0:0:
256,112,90184,2,0,L|128:104,1,127.999996185303,10|0,1:2|0:0,0:0:0:0:
56,48,90643,1,0,0:0:0:0:
280,16,90796,5,2,1:2:0:0:
280,16,91102,2,0,P|288:48|272:104,1,63.9999980926514,0|2,0:0|0:0,0:0:0:0:
300,188,91408,2,0,P|332:132|412:124,1,127.999996185303,8|2,1:2|0:0,0:0:0:0:
388,204,91867,2,0,L|384:292,1,63.9999980926514,0|0,0:0|1:0,0:0:0:0:
200,144,92173,1,2,0:0:0:0:
200,144,92326,2,0,L|196:56,1,63.9999980926514
288,200,92632,2,0,L|281:345,1,127.999996185303,10|2,1:2|0:0,0:0:0:0:
384,288,93092,1,0,0:0:0:0:
176,360,93245,5,2,1:2:0:0:
176,360,93551,2,0,P|178:319|170:271,1,63.9999980926514,0|2,0:0|0:0,0:0:0:0:
98,207,93857,2,0,P|160:216|214:184,1,127.999996185303,8|2,1:2|0:0,0:0:0:0:
238,91,94316,1,0,0:0:0:0:
136,56,94469,2,0,L|142:120,1,63.9999980926514,0|2,1:0|0:0,0:0:0:0:
308,216,94775,2,0,P|305:184|308:152,1,63.9999980926514
500,24,95081,2,0,L|484:152,1,127.999996185303,10|0,1:2|0:0,0:0:0:0:
480,320,95541,1,0,0:0:0:0:
396,184,95694,5,2,1:2:0:0:
396,184,96000,2,0,L|406:97,1,63.9999980926514,0|2,0:0|0:0,0:0:0:0:
384,280,96306,2,0,L|391:343,1,63.9999980926514,8|0,1:2|0:0,0:0:0:0:
496,200,96612,1,2,0:0:0:0:
304,224,96765,2,0,P|240:232|176:216,1,127.999996185303,0|2,0:0|0:0,0:0:0:0:
200,88,97224,2,0,P|237:84|263:86,1,63.9999980926514
64,160,97530,2,0,P|40:104|56:32,1,127.999996185303,10|2,1:2|0:0,0:0:0:0:
192,240,97990,1,0,0:0:0:0:
56,312,98143,5,10,3:2:0:0:
56,312,98449,1,0,0:0:0:0:
128,200,98602,1,10,3:2:0:0:
256,344,98755,2,0,P|318:353|372:321,1,127.999996185303,8|10,0:0|3:2,0:0:0:0:
372,320,99367,5,8,3:2:0:0:
296,208,99520,2,0,L|304:272,1,63.9999980926514,2|0,0:0|0:0,0:0:0:0:
464,216,99826,1,8,3:2:0:0:
464,216,99979,2,0,L|472:80,1,127.999996185303,10|8,0:0|3:2,0:0:0:0:
408,24,100439,1,8,3:2:0:0:
352,144,100592,5,10,3:2:0:0:
352,144,100898,2,0,P|336:136|264:124,1,63.9999980926514,0|10,0:0|3:2,0:0:0:0:
112,288,101204,2,0,B|176:316|232:272,1,127.999996185303,8|10,0:0|3:2,0:0:0:0:
296,208,101663,1,0,0:0:0:0:
320,292,101816,2,0,L|312:356,1,63.9999980926514,8|2,3:2|0:0,0:0:0:0:
164,204,102122,2,0,L|156:140,1,63.9999980926514,0|8,0:0|3:2,0:0:0:0:
376,16,102428,2,0,B|372:60|372:60|379:97|379:97|376:142,1,127.999996185303,2|10,0:0|3:2,0:0:0:0:
375,142,102811,1,8,3:2:0:0:
375,142,102887,1,8,3:2:0:0:
296,208,103040,5,10,3:2:0:0:
296,208,103346,2,0,P|280:168|277:118,1,63.9999980926514,0|10,0:0|3:2,0:0:0:0:
464,216,103653,2,0,L|448:344,1,127.999996185303,8|10,0:0|3:2,0:0:0:0:
448,344,104265,5,8,3:2:0:0:
464,216,104418,2,0,L|472:152,1,63.9999980926514,2|0,0:0|0:0,0:0:0:0:
376,264,104724,1,8,3:2:0:0:
358,136,104877,2,0,L|349:72,1,63.9999980926514,10|0,0:0|0:0,0:0:0:0:
288,208,105184,1,8,3:2:0:0:
237,89,105337,2,0,L|211:29,1,63.9999980926514,8|0,3:2|0:0,0:0:0:0:
256,192,105566,12,0,107632,0:0:0:0:
34,82,107939,5,0,1:0:0:0:
48,328,108245,2,0,P|124:334|173:274,1,159.999995231628,2|0,0:0|1:0,0:0:0:0:
108,120,108704,1,0,0:0:0:0:
108,120,108857,2,0,P|64:183|91:255,1,159.999995231628,2|0,0:0|1:0,0:0:0:0:
256,276,109316,1,0,0:0:0:0:
256,276,109469,2,0,P|223:206|147:194,1,159.999995231628,2|0,0:0|1:0,0:0:0:0:
264,368,109928,1,0,0:0:0:0:
340,316,110081,2,0,L|348:236,1,79.9999976158142,2|0,0:0|0:0,0:0:0:0:
396,60,110388,6,0,B|409:178|409:178|396:164|375:157,1,159.999995231628,0|2,1:0|0:0,0:0:0:0:
348,236,110847,1,0,0:0:0:0:
196,204,111000,2,0,B|291:132|291:132|286:152|290:173,1,159.999995231628,0|2,1:0|0:0,0:0:0:0:
375,157,111459,1,0,0:0:0:0:
260,260,111612,6,0,P|252:300|260:340,1,79.9999976158142,0|0,1:0|0:0,0:0:0:0:
500,196,111918,2,0,P|507:156|499:117,1,79.9999976158142,2|0,0:0|0:0,0:0:0:0:
320,88,112224,2,0,B|264:82|264:82|218:91|218:91|160:84,1,159.999995231628,2|2,1:2|0:0,0:0:0:0:
84,36,112684,1,0,0:0:0:0:
124,172,112837,5,0,1:0:0:0:
316,284,113143,2,0,B|348:288|376:272|376:272|380:305|400:336|438:345,1,159.999995231628,2|0,0:0|1:0,0:0:0:0:
460,264,113602,1,0,0:0:0:0:
328,196,113755,2,0,B|315:166|287:150|287:150|314:130|328:100|319:59,1,159.999995231628,2|0,0:0|1:0,0:0:0:0:
238,81,114214,1,0,0:0:0:0:
248,228,114367,2,0,B|228:253|228:285|228:285|197:272|160:276|134:303,1,159.999995231628,2|0,0:0|1:0,0:0:0:0:
193,363,114826,1,0,0:0:0:0:
76,244,114979,2,0,L|80:160,1,79.9999976158142,2|0,0:0|0:0,0:0:0:0:
176,64,115286,6,0,P|96:56|16:40,1,159.999995231628,0|2,1:0|0:0,0:0:0:0:
280,56,115745,1,0,0:0:0:0:
236,148,115898,2,0,P|240:188|248:228,1,79.9999976158142,0|0,1:0|0:0,0:0:0:0:
342,325,116204,1,2,0:0:0:0:
458,254,116357,6,0,P|472:174|480:94,1,159.999995231628
364,128,116816,1,2,0:0:0:0:
395,12,116969,1,0,0:0:0:0:
365,149,117122,2,0,L|368:228,1,79.9999976158142,2|0,1:2|0:0,0:0:0:0:
224,296,117428,2,0,P|264:300|304:308,1,79.9999976158142,2|0,0:0|0:0,0:0:0:0:
408,344,117735,5,0,1:0:0:0:
231,136,118041,2,0,P|152:136|95:84,1,159.999995231628,2|0,0:0|1:0,0:0:0:0:
195,28,118500,1,0,0:0:0:0:
248,128,118653,2,0,L|232:288,1,159.999995231628,2|0,0:0|1:0,0:0:0:0:
112,240,119112,1,0,0:0:0:0:
44,322,119265,2,0,P|8:252|28:176,1,159.999995231628,2|0,0:0|1:0,0:0:0:0:
152,336,119724,1,0,0:0:0:0:
248,296,119877,2,0,P|288:288|352:296,1,79.9999976158142,2|0,0:0|0:0,0:0:0:0:
504,192,120184,6,0,P|424:196|345:183,1,159.999995231628,0|2,1:0|0:0,0:0:0:0:
264,120,120643,1,0,0:0:0:0:
364,4,120796,2,0,L|360:84,1,79.9999976158142,0|0,1:0|0:0,0:0:0:0:
252,300,121102,2,0,L|248:220,1,79.9999976158142,2|0,0:0|0:0,0:0:0:0:
248,108,121408,5,0,1:0:0:0:
384,200,121561,1,0,0:0:0:0:
264,120,121714,1,2,0:0:0:0:
448,48,121867,1,0,0:0:0:0:
216,16,122020,2,0,B|136:8|136:8|64:40,1,159.999995231628,2|2,1:2|0:0,0:0:0:0:
16,184,122479,1,0,0:0:0:0:
160,152,122632,5,0,1:0:0:0:
376,288,122939,2,0,P|456:296|508:236,1,159.999995231628,2|0,0:0|1:0,0:0:0:0:
424,216,123398,1,0,0:0:0:0:
336,208,123551,2,0,P|289:273|315:348,1,159.999995231628,2|0,0:0|1:0,0:0:0:0:
488,160,124010,1,0,0:0:0:0:
464,80,124163,2,0,P|410:24|333:33,1,159.999995231628,2|0,0:0|1:0,0:0:0:0:
220,148,124622,1,0,0:0:0:0:
380,188,124775,2,0,B|388:148|388:148|380:108,1,79.9999976158142,2|0,0:0|0:0,0:0:0:0:
216,164,125081,6,0,B|208:202|208:202|216:242,1,79.9999976158142,0|0,1:0|0:0,0:0:0:0:
353,291,125388,1,2,0:0:0:0:
244,384,125541,1,0,0:0:0:0:
376,288,125694,2,0,L|456:280,1,79.9999976158142,0|0,1:0|0:0,0:0:0:0:
380,109,126000,2,0,L|300:101,1,79.9999976158142,2|0,0:0|0:0,0:0:0:0:
184,128,126306,6,0,L|179:82,3,26.6666658719381,10|8|8|8,1:2|0:0|0:0|0:0,0:0:0:0:
72,156,126612,2,0,L|69:182,3,26.6666658719381,10|8|8|8,0:0|0:0|0:0|0:0,0:0:0:0:
264,204,126918,2,0,L|424:188,1,159.999995231628,10|10,1:2|0:0,0:0:0:0:
380,109,127377,1,8,0:0:0:0:
309,284,127530,5,0,0:0:0:0:
432,56,132428,6,0,P|456:120|448:216,1,159.999995231628,0|2,1:0|0:0,0:0:0:0:
424,304,132888,1,0,0:0:0:0:
352,240,133041,2,0,L|272:232,1,79.9999976158142,8|0,3:2|0:0,0:0:0:0:
272,128,133347,2,0,L|352:136,1,79.9999976158142,2|0,0:0|0:0,0:0:0:0:
360,248,133653,2,0,L|200:232,1,159.999995231628,2|2,0:0|1:2,0:0:0:0:
200,232,134265,5,10,3:2:0:0:
132,300,134418,1,0,1:0:0:0:
228,328,134571,1,2,0:0:0:0:
228,328,134724,1,0,0:0:0:0:
104,208,134877,1,2,1:2:0:0:
104,208,135184,6,0,L|96:128,1,79.9999976158142,2|0,0:0|0:0,0:0:0:0:
200,248,135490,2,0,L|208:168,1,79.9999976158142,10|0,3:2|0:0,0:0:0:0:
188,52,135796,1,2,0:0:0:0:
188,52,136102,6,0,P|248:56|272:68,1,79.9999976158142,2|0,0:0|0:0,0:0:0:0:
416,128,136408,2,0,P|376:130|338:117,1,79.9999976158142,2|0,1:2|0:0,0:0:0:0:
319,208,136714,2,0,L|335:368,2,159.999995231628,10|0|2,3:2|0:0|1:2,0:0:0:0:
320,208,137632,5,2,0:0:0:0:
338,117,137786,1,0,0:0:0:0:
368,288,137939,2,0,P|312:304|225:216,1,159.999995231628,10|2,3:2|0:0,0:0:0:0:
232,250,138551,6,0,B|256:362|256:362|220:334,1,159.999995231628,2|0,0:0|1:0,0:0:0:0:
144,240,139010,1,0,0:0:0:0:
144,240,139163,2,0,P|102:235|64:232,1,79.9999976158142,10|0,3:2|1:0,0:0:0:0:
248,152,139469,2,0,P|290:147|328:144,1,79.9999976158142,2|0,0:0|0:0,0:0:0:0:
168,48,139775,6,0,P|83:45|7:46,1,159.999995231628,2|4,1:2|0:0,0:0:0:0:
256,160,140235,1,0,0:0:0:0:
256,160,140388,2,0,P|335:160|415:157,1,159.999995231628,8|4,3:2|0:0,0:0:0:0:
415,157,141000,6,0,P|456:88|432:16,1,159.999995231628,0|4,0:0|1:2,0:0:0:0:
336,216,141459,1,0,0:0:0:0:
336,216,141612,2,0,P|312:290|353:356,1,159.999995231628,8|4,3:2|0:0,0:0:0:0:
353,356,142224,5,2,3:2:0:0:
416,272,142377,1,0,0:0:0:0:
224,168,142530,2,0,L|232:248,1,79.9999976158142,2|0,0:0|1:0,0:0:0:0:
424,176,142837,2,0,L|440:16,2,159.999995231628,10|0|10,3:2|1:0|3:2,0:0:0:0:
504,232,143602,1,0,0:0:0:0:
344,120,143755,2,0,P|336:80|344:16,1,79.9999976158142,0|8,1:0|3:2,0:0:0:0:
332,220,144061,1,2,0:0:0:0:
248,160,144214,1,0,1:0:0:0:
340,244,144367,2,0,P|341:283|333:322,1,79.9999976158142,10|8,3:2|3:2,0:0:0:0:
96,296,144673,6,0,P|168:256|240:272,1,159.999995231628,2|2,1:2|0:0,0:0:0:0:
182,356,145132,1,0,1:0:0:0:
16,240,145286,2,0,L|24:160,1,79.9999976158142,8|2,3:2|0:0,0:0:0:0:
264,120,145592,2,0,P|227:134|190:153,1,79.9999976158142,2|0,1:2|0:0,0:0:0:0:
32,24,145898,2,0,P|111:37|208:40,2,159.999995231628,10|10|2,3:2|1:2|0:0,0:0:0:0:
104,168,146663,1,0,1:0:0:0:
104,168,146816,2,0,L|112:248,1,79.9999976158142,10|8,0:0|0:0,0:0:0:0:
182,356,147122,5,10,1:2:0:0:
182,356,147428,2,0,P|221:349|270:348,1,79.9999976158142,2|0,0:0|1:0,0:0:0:0:
392,236,147735,2,0,P|328:252|256:196,1,159.999995231628,10|2,3:2|1:2,0:0:0:0:
343,160,148194,1,0,0:0:0:0:
292,84,148347,6,0,P|356:68|428:124,1,159.999995231628,10|0,3:2|1:2,0:0:0:0:
216,196,148806,1,8,3:2:0:0:
216,196,148959,2,0,L|206:109,1,79.9999976158142,10|0,3:2|1:0,0:0:0:0:
29,69,149265,2,0,L|20:148,1,79.9999976158142,10|10,3:2|3:2,0:0:0:0:
224,24,149571,5,2,1:2:0:0:
256,192,149648,12,0,151714,0:0:0:0:
256,304,152020,6,0,L|96:296,1,159.999995231628,0|0,1:0|0:0,0:0:0:0:
184,184,152479,1,2,0:0:0:0:
96,296,152632,2,0,P|48:240|48:144,1,159.999995231628,8|2,1:2|0:0,0:0:0:0:
43,156,153245,5,0,1:0:0:0:
184,184,153398,2,0,B|240:176|240:176|284:192|284:192|344:184,1,159.999995231628,2|0,0:0|0:0,0:0:0:0:
431,242,153857,2,0,P|388:279|332:292,1,79.9999976158142,10|0,1:2|0:0,0:0:0:0:
375,82,154163,2,0,P|421:114|446:166,1,79.9999976158142
339,184,154469,5,2,1:2:0:0:
339,184,154775,1,0,0:0:0:0:
296,72,154928,1,2,0:0:0:0:
216,168,155081,2,0,L|232:328,1,159.999995231628,8|2,1:2|0:0,0:0:0:0:
368,288,155541,2,0,B|408:280|408:280|448:284,1,79.9999976158142,0|0,0:0|1:0,0:0:0:0:
240,336,155847,1,2,0:0:0:0:
240,336,156000,2,0,B|200:340|200:340|160:332,1,79.9999976158142
264,192,156306,2,0,B|320:184|320:184|364:200|364:200|424:192,1,159.999995231628,10|2,1:2|0:0,0:0:0:0:
488,112,156765,1,0,0:0:0:0:
376,96,156918,5,2,1:2:0:0:
376,96,157224,1,0,0:0:0:0:
448,8,157377,1,2,0:0:0:0:
256,96,157530,2,0,P|184:104|120:52,1,159.999995231628,8|2,1:2|0:0,0:0:0:0:
119,51,158143,5,0,1:0:0:0:
40,112,158296,2,0,L|48:192,1,79.9999976158142,2|0,0:0|0:0,0:0:0:0:
160,360,158602,1,0,0:0:0:0:
239,299,158755,2,0,L|247:219,1,79.9999976158142,10|0,1:2|0:0,0:0:0:0:
256,96,159061,1,0,0:0:0:0:
152,144,159214,1,0,0:0:0:0:
348,164,159367,5,2,1:2:0:0:
348,164,159673,2,0,P|396:160|452:164,1,79.9999976158142,0|2,0:0|0:0,0:0:0:0:
392,312,159979,2,0,P|356:292|324:269,1,79.9999976158142,8|0,1:2|0:0,0:0:0:0:
304,72,160286,1,2,0:0:0:0:
304,72,160439,2,0,P|383:65|476:72,1,159.999995231628,0|2,0:0|0:0,0:0:0:0:
240,200,160898,2,0,P|200:200|160:197,1,79.9999976158142
282,336,161204,2,0,P|301:301|324:269,1,79.9999976158142,10|0,1:2|0:0,0:0:0:0:
139,297,161510,2,0,P|159:331|176:367,1,79.9999976158142,2|0,0:0|0:0,0:0:0:0:
64,232,161816,5,2,1:2:0:0:
64,232,162122,1,0,0:0:0:0:
120,32,162275,1,2,0:0:0:0:
164,128,162428,2,0,P|92:136|28:84,1,159.999995231628,8|2,1:2|0:0,0:0:0:0:
224,48,162888,1,0,0:0:0:0:
272,136,163041,2,0,L|264:216,1,79.9999976158142,0|2,1:0|0:0,0:0:0:0:
396,100,163347,2,0,L|330:53,1,79.9999976158142
372,228,163653,1,10,1:2:0:0:
308,308,163806,1,0,0:0:0:0:
372,228,163959,2,0,L|445:194,1,79.9999976158142
272,136,164265,5,2,1:2:0:0:
272,136,164571,2,0,L|192:128,1,79.9999976158142,0|2,0:0|0:0,0:0:0:0:
104,100,164877,2,0,P|176:108|240:56,1,159.999995231628,8|2,1:2|0:0,0:0:0:0:
144,248,165337,2,0,L|64:240,1,79.9999976158142,0|0,0:0|1:2,0:0:0:0:
248,228,165643,1,2,0:0:0:0:
136,332,165796,2,0,L|216:324,1,79.9999976158142
340,184,166102,2,0,P|281:132|203:139,1,159.999995231628,10|2,1:2|0:0,0:0:0:0:
144,248,166561,1,0,0:0:0:0:
308,308,166714,5,2,1:2:0:0:
308,308,167020,1,0,0:0:0:0:
248,228,167173,1,2,0:0:0:0:
424,272,167326,2,0,P|462:204|440:129,1,159.999995231628,8|2,1:2|0:0,0:0:0:0:
336,16,167786,1,0,0:0:0:0:
424,112,167939,2,0,L|512:104,1,79.9999976158142,0|2,1:2|0:0,0:0:0:0:
368,192,168245,2,0,L|288:184,1,79.9999976158142
152,128,168551,2,0,P|161:103|169:47,1,79.9999976158142,10|0,1:2|0:0,0:0:0:0:
176,272,168857,2,0,L|182:352,1,79.9999976158142
181,351,169087,1,0,0:0:0:0:
181,351,169163,5,2,1:2:0:0:
80,328,169316,1,0,0:0:0:0:
272,304,169469,2,0,P|304:296|336:296,1,63.9999980926514
80,208,169775,2,0,P|48:207|17:199,2,63.9999980926514,2|0|0,0:0|0:0|0:0,0:0:0:0:
256,208,170235,2,0,P|321:197|384:203,2,127.999996185303,2|0|0,0:0|0:0|0:0,0:0:0:0:
192,136,171000,2,0,P|128:135|66:119,1,127.999996185303,2|0,0:0|0:0,0:0:0:0:
