osu file format v14

[General]
AudioFilename: Lean On .mp3
AudioLeadIn: 0
PreviewTime: 105490
Countdown: 0
SampleSet: Soft
StackLeniency: 0.4
Mode: 0
LetterboxInBreaks: 0
EpilepsyWarning: 1
WidescreenStoryboard: 1

[Editor]
Bookmarks: 18288,45533,86553,127571,132469,171347
DistanceSpacing: 1.2
BeatDivisor: 16
GridSize: 32
TimelineZoom: 3.100005

[Metadata]
Title:Lean On (feat. MO & DJ Snake)
TitleUnicode:Lean On (feat. MØ & DJ Snake)
Artist:Major Lazer
ArtistUnicode:Major Lazer
Creator:Beige
Version:Easy
Source:
Tags:Peace Is The Mission Diplo Jillionaire Walshy Fire electronic electro edm house trap moombahton dance mix pop club indian w_h_i_t_e Down english
BeatmapID:1043363
BeatmapSetID:487544

[Difficulty]
HPDrainRate:2
CircleSize:3
OverallDifficulty:2
ApproachRate:3
SliderMultiplier:1.49999990463257
SliderTickRate:2

[Events]
//Background and Video events
0,0,"bg.jpg",0,0
//Break Periods
2,127730,130988
//Storyboard Layer 0 (Background)
//Storyboard Layer 1 (Fail)
//Storyboard Layer 2 (Pass)
//Storyboard Layer 3 (Foreground)
//Storyboard Layer 4 (Overlay)
//Storyboard Sound Samples

[TimingPoints]
184,612.244897959184,4,2,1,70,1,0
9979,-100,4,2,1,70,0,0
46714,-100,4,2,1,60,0,0
49163,-100,4,2,1,85,0,1
57773,-100,4,2,1,60,0,1
58347,-100,4,2,1,85,0,1
58385,-100,4,2,1,60,0,1
58959,-100,4,2,1,85,0,1
67569,-100,4,2,1,60,0,1
68143,-100,4,2,1,85,0,1
68181,-100,4,2,1,60,0,1
68449,-100,4,2,1,60,0,1
68755,-100,4,2,2,70,0,0
81612,-100,4,2,4,70,0,0
81918,-100,4,2,10,70,0,0
82071,-100,4,2,2,70,0,0
82530,-100,4,2,10,70,0,0
82684,-100,4,2,2,70,0,0
82837,-100,4,2,4,70,0,0
82990,-100,4,2,2,70,0,0
83448,-100,4,2,2,70,0,0
86510,-100,4,2,2,60,0,0
88347,-100,4,2,2,75,0,0
98143,-100,4,2,1,75,0,0
98755,-100,4,2,2,75,0,0
98831,-100,4,2,1,75,0,0
99979,-100,4,2,2,75,0,0
100056,-100,4,2,1,75,0,0
101204,-100,4,2,2,75,0,0
101280,-100,4,2,1,75,0,0
102428,-100,4,2,2,75,0,0
102505,-100,4,2,1,75,0,0
103653,-100,4,2,2,75,0,0
103729,-100,4,2,1,75,0,0
104877,-100,4,2,2,75,0,0
104916,-100,4,2,1,75,0,0
105490,-100,4,2,1,60,0,0
107939,-100,4,2,1,85,0,1
126344,-100,4,2,1,60,0,1
126880,-100,4,2,1,85,0,1
126956,-100,4,2,1,60,0,1
127224,-100,4,2,1,60,0,1
127530,-100,4,2,1,60,0,0
132428,-100,4,2,1,80,0,0
133041,-100,4,2,20,80,0,0
133194,-100,4,2,1,80,0,0
133652,-100,4,2,1,80,0,0
134265,-100,4,2,20,80,0,0
134418,-100,4,2,1,80,0,0
134876,-100,4,2,1,80,0,0
136408,-100,4,2,10,80,0,0
136485,-100,4,2,1,80,0,0
140081,-100,4,2,1,60,0,0
140158,-100,4,2,20,80,0,0
140694,-100,4,2,1,60,0,0
140770,-100,4,2,1,80,0,0
141306,-100,4,2,1,60,0,0
141382,-100,4,2,20,80,0,0
141765,-100,4,2,10,80,0,0
141918,-100,4,2,1,60,0,0
141995,-100,4,2,1,80,0,0
142837,-100,4,2,20,80,0,0
143066,-100,4,2,10,80,0,0
143219,-100,4,2,1,80,0,0
143448,-100,4,2,1,80,0,0
146816,-100,4,2,1,60,0,0
147122,-100,4,2,1,80,0,0
149571,-100,4,2,1,60,0,0
152020,-100,4,2,2,80,0,0
160592,-100,4,2,2,80,0,0
160668,-100,4,2,2,80,0,0
169163,-100,4,2,1,60,0,0

[Colours]
Combo1 : 210,165,248
Combo2 : 255,132,132
Combo3 : 255,247,142
Combo4 : 125,233,255
SliderBorder : 240,240,255
SliderTrackOverride : 40,50,70

[HitObjects]
144,324,10439,6,0,L|32:312,1,112.499992847443,2|2,0:0|0:0,0:0:0:0:
52,180,11357,2,0,L|164:192,1,112.499992847443,2|2,0:0|0:0,0:0:0:0:
320,280,12428,2,0,L|432:268,2,112.499992847443,2|2|2,0:0|0:0|0:0,0:0:0:0:
296,148,13806,1,2,0:0:0:0:
188,232,14265,2,0,L|196:315,1,74.9999952316285,2|2,0:0|0:0,0:0:0:0:
112,336,14877,6,0,L|100:224,1,112.499992847443,2|2,0:0|0:0,0:0:0:0:
44,100,15796,2,0,B|100:74|157:95|153:99|149:103|205:125|263:100,1,224.999985694886,2|2,0:0|0:0,0:0:0:0:
432,40,17326,6,0,P|420:96|424:156,1,112.499992847443,2|2,0:0|0:0,0:0:0:0:
320,240,18245,2,0,P|332:296|328:356,2,112.499992847443,2|2|2,0:0|0:0|0:0,0:0:0:0:
284,160,19469,1,2,0:0:0:0:
212,212,19775,6,0,P|124:188|84:4,1,299.999980926514,2|0,0:0|0:0,0:0:0:0:
256,56,21612,1,2,0:0:0:0:
428,4,22224,2,0,P|427:146|300:212,1,299.999980926514,2|0,0:0|0:0,0:0:0:0:
124,176,24061,2,0,P|84:168|32:172,1,74.9999952316285,2|2,0:0|0:0,0:0:0:0:
28,256,24673,6,0,P|83:249|133:273,1,112.499992847443,2|2,0:0|0:0,0:0:0:0:
228,368,25592,2,0,L|340:360,2,112.499992847443,2|2|2,0:0|0:0|0:0,0:0:0:0:
232,280,26816,1,0,0:0:0:0:
296,216,27122,6,0,P|245:192|190:199,1,112.499992847443,2|2,0:0|0:0,0:0:0:0:
116,88,28041,2,0,P|171:95|221:71,2,112.499992847443,2|2|2,0:0|0:0|0:0,0:0:0:0:
32,56,29265,1,2,0:0:0:0:
44,144,29571,6,0,B|48:208|48:208|40:232|40:232|48:328,1,149.999990463257,2|0,1:2|1:0,0:0:0:0:
128,256,30490,1,2,0:0:0:0:
212,224,30796,2,0,P|284:224|348:264,1,149.999990463257,0|2,1:0|1:2,0:0:0:0:
320,88,32020,6,0,P|392:88|456:48,2,149.999990463257,2|0|0,1:2|1:0|1:0,0:0:0:0:
232,72,33551,1,0,0:0:0:0:
144,88,33857,2,0,P|152:128|144:176,1,74.9999952316285,2|2,1:2|0:0,0:0:0:0:
132,252,34469,6,0,P|212:252|260:332,1,149.999990463257,2|0,1:2|1:0,0:0:0:0:
172,332,35388,1,2,0:0:0:0:
82,326,35694,2,0,P|41:256|87:175,1,149.999990463257,0|2,1:0|1:2,0:0:0:0:
180,60,36918,6,0,P|100:60|52:-20,2,149.999990463257,2|0|0,1:2|1:0|1:0,0:0:0:0:
264,28,38449,1,0,0:0:0:0:
252,116,38755,2,0,L|240:208,1,74.9999952316285,2|2,1:2|0:0,0:0:0:0:
207,273,39367,6,0,B|244:290|282:276|280:273|277:270|314:256|353:273,1,149.999990463257,10|0,3:2|0:0,0:0:0:0:
422,333,40286,1,10,3:2:0:0:
452,248,40592,2,0,P|464:168|456:96,1,149.999990463257,8|10,3:2|0:0,0:0:0:0:
436,12,41510,1,8,3:2:0:0:
369,73,41816,6,0,P|294:80|220:68,2,149.999990463257,10|0|8,3:2|0:0|3:2,0:0:0:0:
456,99,43347,1,0,0:0:0:0:
388,160,43653,2,0,P|351:169|314:170,1,74.9999952316285,2|10,0:0|3:2,0:0:0:0:
224,156,44265,6,0,B|148:132|80:172,1,149.999990463257,10|0,3:2|0:0,0:1:0:0:
8,228,45184,1,10,3:2:0:0:
92,260,45490,2,0,B|168:284|236:244,1,149.999990463257,8|2,3:2|0:0,0:0:0:0:
308,188,46408,1,8,3:2:0:0:
323,275,46714,6,0,P|479:343|387:195,1,449.999971389771
224,252,49163,6,0,P|144:252|96:172,1,149.999990463257,0|0,1:0|1:0,0:0:0:0:
184,172,50082,1,2,0:0:0:0:
144,92,50388,2,0,P|224:92|272:172,1,149.999990463257,0|0,1:0|1:0,0:0:0:0:
328,312,51612,6,0,B|365:295|403:309|400:312|396:315|434:329|472:312,1,149.999990463257,0|0,1:0|1:0,0:0:0:0:
440,228,52530,1,2,0:0:0:0:
464,140,52837,2,0,P|428:140|392:152,1,74.9999952316285,2|2,1:2|0:0,0:0:0:0:
308,184,53449,2,0,P|272:184|236:172,1,74.9999952316285,2|2,1:2|0:0,0:0:0:0:
184,100,54061,6,0,L|188:252,1,149.999990463257,0|0,1:0|1:0,0:0:0:0:
101,225,54979,1,2,0:0:0:0:
13,202,55286,2,0,L|9:50,1,149.999990463257,0|0,1:0|1:0,0:0:0:0:
184,100,56510,6,0,P|252:108|320:68,1,149.999990463257,0|0,1:0|1:0,0:0:0:0:
396,116,57428,1,2,0:0:0:0:
348,192,57735,2,0,L|356:268,1,74.9999952316285,8|10,1:2|0:0,0:0:0:0:
365,356,58347,2,0,L|289:348,1,74.9999952316285,10|10,0:0|0:0,0:0:0:0:
212,304,58959,6,0,L|60:288,1,149.999990463257,0|0,1:0|1:0,0:0:0:0:
29,203,59877,1,2,0:0:0:0:
114,169,60184,2,0,L|263:153,1,149.999990463257,0|0,1:0|1:0,0:0:0:0:
440,184,61408,6,0,P|484:140|476:48,1,149.999990463257,0|0,1:0|1:0,0:0:0:0:
400,100,62326,1,2,0:0:0:0:
348,176,62632,2,0,P|352:212|376:252,2,74.9999952316285,0|2|2,1:0|0:0|1:2,0:0:0:0:
304,96,63551,1,2,0:0:0:0:
237,156,63857,6,0,B|161:180|93:140,1,149.999990463257,0|0,1:0|1:0,0:0:0:0:
33,72,64775,1,2,0:0:0:0:
0,155,65081,2,0,L|12:307,1,149.999990463257,0|0,1:0|1:0,0:0:0:0:
184,360,66306,6,0,B|221:343|259:357|256:360|252:363|290:377|328:360,1,149.999990463257,0|0,1:0|1:0,0:0:0:0:
388,292,67224,1,2,0:0:0:0:
296,276,67530,2,0,P|260:264|204:264,1,74.9999952316285,10|10,1:2|0:0,0:0:0:0:
137,287,68143,2,0,P|134:249|146:214,1,74.9999952316285,10|10,1:2|0:0,0:0:0:0:
188,136,68755,5,2,0:0:0:0:
356,76,69367,2,0,L|508:64,2,149.999990463257,8|0|10,0:0|0:0|0:0,0:0:0:0:
180,48,71204,2,0,L|30:36,2,149.999990463257,2|8|0,0:0|0:0|0:0,0:0:0:0:
108,212,73041,1,10,0:0:0:0:
112,300,73347,1,2,0:0:0:0:
188,248,73653,6,0,P|264:236|328:268,1,149.999990463257,2|8,0:0|0:0,0:0:0:0:
492,344,74877,2,0,L|488:192,1,149.999990463257,0|10,0:0|0:0,0:0:0:0:
484,104,75796,1,0,0:0:0:0:
408,152,76102,6,0,P|332:164|268:132,2,149.999990463257,2|8|0,0:0|0:0|0:0,0:0:0:0:
324,312,77939,2,0,P|288:312|252:324,1,74.9999952316285,10|2,0:0|0:0,0:0:0:0:
172,364,78551,6,0,P|60:312|140:192,1,299.999980926514,0|0,1:0|0:0,0:0:0:0:
207,243,80081,2,0,P|179:268|144:280,1,74.9999952316285,0|10,1:0|0:0,0:0:0:0:
288,172,81000,6,0,P|400:120|320:0,2,299.999980926514,2|2|2,1:2|0:0|1:2,0:0:0:0:
108,200,84061,6,0,L|96:48,1,149.999990463257,8|0,0:0|0:0,0:0:0:0:
181,20,84979,1,0,1:0:0:0:
245,84,85286,2,0,L|320:64,2,74.9999952316285,10|0|2,0:0|0:0|1:2,0:0:0:0:
352,228,86510,6,0,P|333:357|210:314,1,299.999980926514,8|2,0:0|0:0,0:0:0:0:
44,240,88347,6,0,B|48:176|48:176|40:152|40:152|48:56,1,149.999990463257,2|8,1:2|1:2,0:0:0:0:
128,128,89266,1,2,0:0:0:0:
212,160,89572,2,0,P|284:160|348:120,1,149.999990463257,0|10,1:0|1:2,0:0:0:0:
320,296,90796,6,0,P|392:296|456:336,2,149.999990463257,2|8|0,1:2|1:2|1:0,0:0:0:0:
232,312,92327,1,0,0:0:0:0:
144,296,92633,2,0,P|152:256|144:208,1,74.9999952316285,10|2,1:2|0:0,0:0:0:0:
132,132,93245,6,0,P|212:132|260:52,1,149.999990463257,2|8,1:2|1:2,0:0:0:0:
172,52,94164,1,2,0:0:0:0:
82,58,94470,2,0,P|41:128|87:209,1,149.999990463257,0|10,1:0|1:2,0:0:0:0:
180,324,95694,6,0,P|100:324|52:404,2,149.999990463257,2|8|0,1:2|1:2|1:0,0:0:0:0:
264,356,97225,1,0,0:0:0:0:
252,268,97531,2,0,L|240:176,1,74.9999952316285,10|2,1:2|0:0,0:0:0:0:
207,111,98143,6,0,B|244:93|282:107|280:110|277:113|314:127|353:111,1,149.999990463257,10|8,3:2|0:0,0:0:0:0:
422,51,99062,1,10,3:2:0:0:
452,136,99368,2,0,P|464:216|456:288,1,149.999990463257,8|10,3:2|0:0,0:0:0:0:
436,372,100286,1,8,3:2:0:0:
369,311,100592,6,0,P|294:304|220:316,2,149.999990463257,10|8|8,3:2|0:0|3:2,0:0:0:0:
456,285,102123,1,0,0:0:0:0:
388,224,102429,2,0,P|351:215|314:214,1,74.9999952316285,10|10,0:0|3:2,0:0:0:0:
224,228,103041,6,0,B|148:252|80:212,1,149.999990463257,10|8,3:2|0:0,0:0:0:0:
8,156,103960,1,10,3:2:0:0:
92,124,104266,2,0,B|168:100|236:140,1,149.999990463257,8|10,3:2|0:0,0:0:0:0:
308,196,105184,1,8,3:2:0:0:
323,109,105490,6,0,P|479:41|387:189,1,449.999971389771
224,132,107939,6,0,P|144:132|96:212,1,149.999990463257,0|0,1:0|1:0,0:0:0:0:
184,212,108858,1,2,0:0:0:0:
144,292,109164,2,0,P|224:292|272:212,1,149.999990463257,0|0,1:0|1:0,0:0:0:0:
328,72,110388,6,0,B|365:89|403:75|400:72|396:69|434:55|472:72,1,149.999990463257,0|0,1:0|1:0,0:0:0:0:
440,156,111306,1,2,0:0:0:0:
464,244,111613,2,0,P|428:244|392:232,1,74.9999952316285,0|2,1:0|0:0,0:0:0:0:
308,200,112225,2,0,P|272:200|236:212,1,74.9999952316285,2|2,1:2|0:0,0:0:0:0:
184,284,112837,6,0,L|188:132,1,149.999990463257,0|0,1:0|1:0,0:0:0:0:
101,159,113755,1,2,0:0:0:0:
13,182,114062,2,0,L|9:334,1,149.999990463257,0|0,1:0|1:0,0:0:0:0:
184,284,115286,6,0,P|252:276|320:316,1,149.999990463257,0|0,1:0|1:0,0:0:0:0:
396,268,116204,1,2,0:0:0:0:
348,192,116511,2,0,L|356:116,1,74.9999952316285,0|2,1:2|0:0,0:0:0:0:
365,28,117123,2,0,L|289:36,1,74.9999952316285,2|2,0:0|0:0,0:0:0:0:
212,80,117735,6,0,L|60:96,1,149.999990463257,0|0,1:0|1:0,0:0:0:0:
29,181,118653,1,2,0:0:0:0:
114,215,118960,2,0,L|263:230,1,149.999990463257,0|0,1:0|1:0,0:0:0:0:
440,200,120184,6,0,P|484:244|476:336,1,149.999990463257,0|0,1:0|1:0,0:0:0:0:
400,284,121102,1,2,0:0:0:0:
348,208,121408,2,0,P|352:172|376:132,2,74.9999952316285,0|2|2,1:0|0:0|1:2,0:0:0:0:
304,288,122327,1,2,0:0:0:0:
237,228,122632,6,0,B|161:204|93:244,1,149.999990463257,0|0,1:0|1:0,0:0:0:0:
33,312,123550,1,2,0:0:0:0:
0,229,123856,2,0,L|12:77,1,149.999990463257,0|0,1:0|1:0,0:0:0:0:
184,24,125081,6,0,B|221:41|259:27|256:24|252:21|290:7|328:24,1,149.999990463257,0|0,1:0|1:0,0:0:0:0:
388,92,125999,1,2,0:0:0:0:
296,108,126305,2,0,P|260:120|204:120,1,74.9999952316285,10|10,1:2|0:0,0:0:0:0:
145,169,126918,2,0,P|133:134|137:97,2,74.9999952316285,10|10|0,0:0|0:0|0:0,0:0:0:0:
296,108,132428,6,0,B|221:143|144:115|150:110|155:104|80:75|2:108,2,299.999980926514,0|2|2,1:0|0:0|1:2,0:0:0:0:
456,20,135490,1,8,0:0:0:0:
456,200,136102,2,0,L|472:352,2,149.999990463257,2|10|2,0:0|3:2|1:2,0:0:0:0:
328,328,137939,5,10,3:2:0:0:
148,324,138551,2,0,P|108:320|72:328,1,74.9999952316285,2|0,0:0|1:0,0:0:0:0:
40,244,139163,2,0,P|12:184|24:104,1,149.999990463257,10|2,3:2|1:2,0:0:0:0:
84,36,140081,6,0,L|236:24,1,149.999990463257,4|4,0:0|0:0,0:0:0:0:
116,160,141306,2,0,L|265:148,1,149.999990463257,6|4,0:0|0:0,0:0:0:0:
356,136,142224,6,0,P|432:192|496:48,1,299.999980926514,2|10,3:2|3:2,0:0:0:0:
324,12,144061,1,10,3:2:0:0:
212,152,144673,6,0,L|244:300,1,149.999990463257,2|2,1:2|3:2,0:0:0:0:
424,320,145898,2,0,B|460:324|460:324|500:316,1,74.9999952316285,10|10,3:2|1:2,0:0:0:0:
460,236,146510,2,0,B|424:232|424:232|384:240,2,74.9999952316285,2|10|10,0:0|0:0|1:2,0:0:0:0:
480,56,147735,6,0,B|406:42|406:42|326:68,1,149.999990463257,10|10,3:2|3:2,0:0:0:0:
252,100,148653,1,0,1:0:0:0:
320,160,148959,2,0,L|392:136,1,74.9999952316285,10|10,3:2|3:2,0:0:0:0:
256,192,149571,12,0,151408,0:0:0:0:
396,204,152632,5,8,1:2:0:0:
316,164,152939,1,2,0:0:0:0:
322,254,153245,2,0,P|392:295|473:249,1,149.999990463257,0|10,1:0|1:2,0:0:0:0:
316,164,154469,6,0,P|246:144|185:184,2,149.999990463257,2|8|0,1:2|1:2|1:0,0:0:0:0:
260,232,156000,1,0,0:0:0:0:
184,276,156306,2,0,L|108:268,1,74.9999952316285,10|2,1:2|0:0,0:0:0:0:
48,332,156918,6,0,P|76:268|72:188,1,149.999990463257,2|8,1:2|1:2,0:0:0:0:
44,104,157837,1,2,0:0:0:0:
132,120,158143,2,0,L|310:101,1,149.999990463257,0|10,1:0|1:2,0:0:0:0:
456,64,159367,6,0,B|461:117|461:117|452:160|452:160|456:213,2,149.999990463257,2|8|0,1:2|1:2|0:0,0:0:0:0:
380,12,160898,1,0,0:0:0:0:
372,100,161204,2,0,B|360:140|360:140|364:208,1,74.9999952316285,10|2,1:2|0:0,0:0:0:0:
380,260,161816,6,0,P|344:196|256:180,1,149.999990463257,2|8,1:2|1:2,0:0:0:0:
288,268,162735,1,2,0:0:0:0:
303,355,163041,2,0,P|232:334|196:271,1,149.999990463257,0|10,1:0|1:2,0:0:0:0:
196,92,164265,6,0,B|159:109|121:95|124:92|128:89|90:75|52:92,2,149.999990463257,2|8|0,1:2|1:2|1:0,0:0:0:0:
276,52,165796,1,0,0:0:0:0:
272,140,166102,2,0,P|268:184|276:216,1,74.9999952316285,10|2,1:2|0:0,0:0:0:0:
338,276,166714,6,0,P|274:248|194:252,1,149.999990463257,2|8,1:2|1:2,0:0:0:0:
110,280,167633,1,2,0:0:0:0:
126,192,167939,2,0,L|107:13,1,149.999990463257,0|10,1:2|1:2,0:0:0:0:
256,192,169163,12,0,171306,0:0:0:0:
