osu file format v14

[General]
AudioFilename: audio.mp3
AudioLeadIn: 0
PreviewTime: 88907
Countdown: 0
SampleSet: None
StackLeniency: 0.2
Mode: 0
LetterboxInBreaks: 0
WidescreenStoryboard: 1

[Editor]
DistanceSpacing: 0.7
BeatDivisor: 4
GridSize: 16
TimelineZoom: 1.62

[Metadata]
Title:Be Together (SAMBA Remix) | Com Grave
TitleUnicode:Be Together (SAMBA Remix) | Com Grave
Artist:Major Lazer
ArtistUnicode:Major Lazer
Creator:Akaeboshi
Version:Samba do Brasil
Source:
Tags:
BeatmapID:2155618
BeatmapSetID:1030778

[Difficulty]
HPDrainRate:5
CircleSize:4.6
OverallDifficulty:8.6
ApproachRate:9.5
SliderMultiplier:1.59999990463257
SliderTickRate:1

[Events]
//Background and Video events
0,0,"essamusicaehliteralmentekiminonawa.png",0,0
//Break Periods
2,21242,22935
2,23837,25529
2,26431,28124
2,29026,30719
2,88988,91421
2,114648,116355
2,117242,118950
2,119837,121544
2,122431,124139
2,166378,176031
//Storyboard Layer 0 (Background)
//Storyboard Layer 1 (Fail)
//Storyboard Layer 2 (Pass)
//Storyboard Layer 3 (Foreground)
//Storyboard Layer 4 (Overlay)
//Storyboard Sound Samples

[TimingPoints]
124,324.324324324324,4,3,0,60,1,0
10502,-68.9655172413793,4,3,0,60,0,0
11799,-133.333333333333,4,3,0,60,0,0
12042,-133.333333333333,4,3,0,5,0,0
12123,-133.333333333333,4,3,0,60,0,0
12367,-133.333333333333,4,3,0,5,0,0
12448,-68.9655172413793,4,3,0,60,0,0
12691,-68.9655172413793,4,3,0,5,0,0
12772,-68.9655172413793,4,3,0,60,0,0
14394,-100,4,3,0,60,0,0
14637,-100,4,3,0,5,0,0
14718,-100,4,3,0,60,0,0
14961,-100,4,3,0,5,0,0
15042,-68.9655172413793,4,3,0,60,0,0
15286,-68.9655172413793,4,3,0,5,0,0
15367,-68.9655172413793,4,3,0,60,0,0
16988,-100,4,3,0,60,0,0
17232,-100,4,3,0,5,0,0
17313,-100,4,3,0,60,0,0
17556,-100,4,3,0,5,0,0
17637,-68.9655172413793,4,3,0,60,0,0
17880,-68.9655172413793,4,3,0,5,0,0
17961,-68.9655172413793,4,3,0,60,0,0
32556,-80.6451612903226,4,3,0,60,0,0
35151,-80,4,3,0,60,0,0
41637,-60.6060606060606,4,3,0,60,0,0
41880,-60.6060606060606,4,3,0,5,0,0
41961,-68.9655172413793,4,3,0,60,0,0
43583,-57.1428571428571,4,3,0,60,0,0
45529,-80,4,3,0,60,0,0
46178,-57.1428571428571,4,3,0,60,0,0
46421,-57.1428571428571,4,3,0,5,0,0
46502,-57.1428571428571,4,3,0,60,0,0
48123,-80,4,3,0,60,0,0
48772,-57.1428571428571,4,3,0,60,0,0
49015,-57.1428571428571,4,3,0,5,0,0
49096,-57.1428571428571,4,3,0,60,0,0
53313,-80,4,3,0,60,0,0
53961,-57.1428571428571,4,3,0,60,0,0
54205,-57.1428571428571,4,3,0,5,0,0
54286,-57.1428571428571,4,3,0,60,0,0
55907,-68.9655172413793,4,3,0,60,0,0
56556,-52.6315789473684,4,3,0,60,0,0
56799,-52.6315789473684,4,3,0,5,0,0
56880,-52.6315789473684,4,3,0,60,0,0
58502,-68.9655172413793,4,3,0,60,0,0
59151,-52.6315789473684,4,3,0,60,0,0
59394,-52.6315789473684,4,3,0,5,0,0
59475,-52.6315789473684,4,3,0,60,0,0
62556,-68.9655172413793,4,3,0,60,0,0
67583,-52.6315789473684,4,3,0,60,0,0
67826,-52.6315789473684,4,3,0,5,0,0
67907,-52.6315789473684,4,3,0,60,0,0
68556,-68.9655172413793,4,3,0,60,0,0
69123,-68.9655172413793,4,3,0,5,0,0
69205,-68.9655172413793,4,3,0,60,0,0
69448,-68.9655172413793,4,3,0,5,0,0
69529,-45.8715596330275,4,3,0,60,0,0
69691,-45.8715596330275,4,3,0,5,0,0
69853,-68.9655172413793,4,3,0,60,0,0
70096,-68.9655172413793,4,3,0,5,0,0
70178,-68.9655172413793,4,3,0,60,0,0
73421,-52.6315789473684,4,3,0,60,0,0
74961,-52.6315789473684,4,3,0,5,0,0
75042,-52.6315789473684,4,3,0,60,0,0
75367,-68.9655172413793,4,3,0,60,0,0
76907,-68.9655172413793,4,3,0,5,0,0
76988,-68.9655172413793,4,3,0,60,0,0
77232,-68.9655172413793,4,3,0,5,0,0
77313,-45.8715596330275,4,3,0,60,0,0
77637,-68.9655172413793,4,3,0,60,0,0
79907,-47.6190476190476,4,3,0,60,0,0
80556,-68.9655172413793,4,3,0,60,0,0
81367,-68.9655172413793,4,3,0,60,0,0
92556,-142.857142857143,4,3,0,60,0,0
92799,-142.857142857143,4,3,0,5,0,0
92880,-68.9655172413793,4,3,0,60,0,0
93123,-68.9655172413793,4,3,0,5,0,0
93205,-50,4,3,0,60,0,0
93448,-50,4,3,0,5,0,0
93529,-100,4,3,0,60,0,1
94502,-58.8235294117647,4,3,0,60,0,1
95475,-47.6190476190476,4,3,0,60,0,1
95718,-47.6190476190476,4,3,0,5,0,1
95799,-47.6190476190476,4,3,0,60,0,1
100340,-66.6666666666667,4,3,0,60,0,1
100664,-47.6190476190476,4,3,0,60,0,1
101637,-66.6666666666667,4,3,0,60,0,1
101961,-47.6190476190476,4,3,0,60,0,1
102205,-47.6190476190476,4,3,0,5,0,1
102286,-71.4285714285714,4,3,0,60,0,1
105853,-45.8715596330275,4,3,0,60,0,1
106096,-45.8715596330275,4,3,0,5,0,1
106178,-45.8715596330275,4,3,0,60,0,1
108123,-62.5,4,3,0,60,0,1
108448,-45.8715596330275,4,3,0,60,0,1
112015,-62.5,4,3,0,60,0,1
112340,-45.8715596330275,4,3,0,60,0,1
114286,-100,4,3,0,60,0,0
124664,-55.5555555555556,4,3,0,60,0,0
127583,-71.4285714285714,4,3,0,60,0,0
129205,-55.5555555555556,4,3,0,60,0,0
129448,-55.5555555555556,4,3,0,5,0,0
129529,-55.5555555555556,4,3,0,60,0,0
131151,-83.3333333333333,4,3,0,60,0,0
131394,-83.3333333333333,4,3,0,5,0,0
131475,-83.3333333333333,4,3,0,60,0,0
131718,-83.3333333333333,4,3,0,5,0,0
131799,-55.5555555555556,4,3,0,60,0,0
133421,-76.9230769230769,4,3,0,60,0,0
135042,-55.5555555555556,4,3,0,60,0,0
141529,-71.4285714285714,4,3,0,60,0,0
141745,-71.4285714285714,4,3,0,5,0,0
141853,-71.4285714285714,4,3,0,60,0,0
142069,-71.4285714285714,4,3,0,5,0,0
142178,-50,4,3,0,60,0,0
142826,-71.4285714285714,4,3,0,60,0,0
155799,-54.054054054054,4,3,0,60,0,0
159691,-71.4285714285714,4,3,0,60,0,0
160340,-50,4,3,0,60,0,0
161961,-60.6060606060606,4,3,0,60,0,0
162934,-50,4,3,0,60,0,0
186934,-100,4,3,0,60,0,1
188232,-54.054054054054,4,3,0,60,0,1
188880,-42.5531914893617,4,3,0,60,0,1
189123,-42.5531914893617,4,3,0,5,0,1
189205,-42.5531914893617,4,3,0,60,0,1
189529,-50,4,3,0,60,0,1
190502,-54.054054054054,4,3,0,60,0,1
191475,-42.5531914893617,4,3,0,60,0,1
192123,-50,4,3,0,60,0,1
192367,-50,4,3,0,5,0,1
192448,-50,4,3,0,60,0,1
194069,-42.5531914893617,4,3,0,60,0,1
198610,-50,4,3,0,60,0,1
198853,-50,4,3,0,5,0,1
198934,-50,4,3,0,60,0,1
199178,-50,4,3,0,5,0,1
199259,-42.5531914893617,4,3,0,60,0,1
199502,-42.5531914893617,4,3,0,5,0,1
199583,-42.5531914893617,4,3,0,60,0,1
203475,-50,4,3,0,60,0,1
204448,-42.5531914893617,4,3,0,60,0,1
205421,-54.054054054054,4,3,0,60,0,1
205745,-40.8163265306122,4,3,0,60,0,1
206069,-50,4,3,0,60,0,1
209637,-40.8163265306122,4,3,0,60,0,1
214502,-54.054054054054,4,3,0,60,0,1
214826,-40.8163265306122,4,3,0,60,0,1
215151,-50,4,3,0,60,0,1
215475,-45.4545454545455,4,3,0,60,0,1
220015,-40,4,3,0,60,0,1
224232,-50,4,3,0,60,0,1
224556,-40,4,3,0,60,0,1
224880,-50,4,3,0,60,0,1
225205,-38.4615384615385,4,3,0,60,0,1
226178,-54.054054054054,4,3,0,60,0,1
226502,-44.4444444444445,4,3,0,60,0,1
226826,-60.6060606060606,4,3,0,60,0,1
228448,-100,4,3,0,60,0,0

[Colours]
Combo1 : 128,0,255
Combo2 : 128,255,255
Combo3 : 169,83,255
Combo4 : 0,128,255

[HitObjects]
147,320,124,5,0,0:0:0:0:
168,343,205,1,0,0:0:0:0:
198,352,286,1,0,0:0:0:0:
224,160,610,5,0,0:0:0:0:
352,272,934,1,0,0:0:0:0:
352,192,1096,1,0,0:0:0:0:
224,80,1421,1,0,0:0:0:0:
352,192,1745,1,0,0:0:0:0:
224,80,2069,1,0,0:0:0:0:
352,192,2393,1,0,0:0:0:0:
352,272,2556,1,0,0:0:0:0:
194,350,2718,5,0,0:0:0:0:
168,342,2799,1,0,0:0:0:0:
150,322,2880,1,0,0:0:0:0:
128,112,3205,21,0,0:0:0:0:
48,336,3529,1,0,0:0:0:0:
0,256,3691,1,0,0:0:0:0:
80,32,4015,1,0,0:0:0:0:
0,256,4340,1,0,0:0:0:0:
80,32,4664,1,0,0:0:0:0:
0,256,4989,1,0,0:0:0:0:
48,336,5151,1,0,0:0:0:0:
130,196,5313,37,0,0:0:0:0:
163,169,5394,1,0,0:0:0:0:
204,171,5475,1,0,0:0:0:0:
320,352,5799,5,0,0:0:0:0:
192,256,6123,1,0,0:0:0:0:
256,304,6286,1,0,0:0:0:0:
464,304,6610,1,0,0:0:0:0:
272,224,6934,1,0,0:0:0:0:
416,368,7259,1,0,0:0:0:0:
384,192,7583,1,0,0:0:0:0:
368,288,7745,1,0,0:0:0:0:
499,187,7907,37,0,0:0:0:0:
507,156,7988,1,0,0:0:0:0:
494,126,8069,1,0,0:0:0:0:
322,10,8394,5,0,0:0:0:0:
228,198,8718,1,0,0:0:0:0:
174,89,8880,1,0,0:0:0:0:
355,143,9205,1,0,0:0:0:0:
214,17,9529,1,0,0:0:0:0:
85,246,9853,1,0,0:0:0:0:
239,125,10178,1,0,0:0:0:0:
124,161,10340,1,0,0:0:0:0:
384,316,10502,38,0,B|352:365|352:365|219:344|219:344|55:382,1,347.999989877701
174,89,11151,5,0,0:0:0:0:
44,172,11313,1,0,0:0:0:0:
161,227,11475,1,0,0:0:0:0:
371,119,11799,6,0,P|384:77|379:33,1,89.9999980688095
288,161,12123,2,0,P|317:195|359:212,1,89.9999980688095
290,65,12448,2,0,P|246:74|219:227,1,173.99999493885
234,255,12772,5,0,0:0:0:0:
427,162,12934,1,0,0:0:0:0:
304,261,13096,5,0,0:0:0:0:
288,305,13178,1,0,0:0:0:0:
307,347,13259,1,0,0:0:0:0:
512,384,13583,5,0,0:0:0:0:
433,88,13745,1,0,0:0:0:0:
360,197,13907,1,0,0:0:0:0:
485,213,14069,1,0,0:0:0:0:
16,128,14394,6,0,B|31:166|31:166|109:176,1,119.999992847443
170,43,14718,2,0,B|128:37|128:37|81:100,1,119.999992847443
169,267,15042,2,0,B|206:218|206:218|163:114,1,173.99999493885
16,48,15367,5,0,0:0:0:0:
0,244,15529,1,0,0:0:0:0:
185,361,15691,5,0,0:0:0:0:
236,344,15772,1,0,0:0:0:0:
262,298,15853,1,0,0:0:0:0:
54,202,16178,5,0,0:0:0:0:
311,33,16340,1,0,0:0:0:0:
320,145,16502,1,0,0:0:0:0:
220,90,16664,1,0,0:0:0:0:
190,289,16988,6,0,B|199:348|199:348|251:386,1,119.999992847443
119,299,17313,2,0,B|62:277|62:277|3:303,1,119.999992847443
145,233,17637,2,0,B|209:179|209:179|220:90,1,173.99999493885
232,0,17961,5,0,0:0:0:0:
89,170,18123,1,0,0:0:0:0:
89,56,18286,5,0,0:0:0:0:
114,18,18367,1,0,0:0:0:0:
156,0,18448,1,0,0:0:0:0:
243,196,18772,5,0,0:0:0:0:
512,112,18934,1,0,0:0:0:0:
397,89,19096,1,0,0:0:0:0:
470,3,19259,1,0,0:0:0:0:
443,173,19583,5,0,0:0:0:0:
470,3,19907,1,0,0:0:0:0:
416,343,20232,1,0,0:0:0:0:
443,173,20556,5,0,0:0:0:0:
461,68,20718,1,0,0:0:0:0:
432,240,20880,5,0,0:0:0:0:
430,258,20961,1,0,0:0:0:0:
427,277,21042,1,0,0:0:0:0:
417,250,23475,5,0,0:0:0:0:
415,263,23556,1,0,0:0:0:0:
413,277,23637,1,0,0:0:0:0:
390,234,26069,5,0,0:0:0:0:
387,260,26150,1,0,0:0:0:0:
383,287,26231,1,0,0:0:0:0:
361,263,28664,5,0,0:0:0:0:
360,280,28745,1,0,0:0:0:0:
357,297,28826,1,0,0:0:0:0:
87,205,31259,5,0,0:0:0:0:
91,235,31340,1,0,0:0:0:0:
107,263,31421,1,0,0:0:0:0:
329,369,31583,5,0,0:0:0:0:
317,228,31745,1,0,0:0:0:0:
240,181,31907,2,0,P|235:266|268:304,1,115.9999966259
393,275,32232,2,0,P|398:190|365:152,1,115.9999966259
212,117,32556,2,0,B|256:92|306:122|306:122|349:82|396:97,1,198.399980303346
208,380,33205,5,0,0:0:0:0:
249,288,33367,1,0,0:0:0:0:
454,355,33529,5,0,0:0:0:0:
392,274,33691,1,0,0:0:0:0:
178,311,33853,5,0,0:0:0:0:
152,305,33934,1,0,0:0:0:0:
135,284,34015,1,0,0:0:0:0:
66,106,34340,5,0,0:0:0:0:
303,57,34664,1,0,0:0:0:0:
191,9,34826,1,0,0:0:0:0:
242,120,34988,5,0,0:0:0:0:
302,250,35151,2,0,L|355:362,1,99.9999940395356
217,219,35475,2,0,B|205:245|212:275|212:275|210:312|192:340,1,99.9999940395356
333,165,35799,2,0,B|361:171|381:195|381:195|412:214|445:216,1,99.9999940395356
241,384,36123,5,0,0:0:0:0:
444,290,36286,1,0,0:0:0:0:
371,104,36448,5,0,0:0:0:0:
362,75,36529,1,0,0:0:0:0:
364,45,36610,1,0,0:0:0:0:
144,278,36934,5,0,0:0:0:0:
61,14,37259,1,0,0:0:0:0:
105,157,37421,1,0,0:0:0:0:
0,112,37583,5,0,0:0:0:0:
182,53,37745,2,0,B|236:41|236:41|284:47,1,99.9999940395356
240,157,38069,2,0,B|294:168|294:168|331:192,1,99.9999940395356
249,276,38394,2,0,B|292:309|292:309|317:347,1,99.9999940395356
202,384,38718,5,0,0:0:0:0:
363,265,38880,1,0,0:0:0:0:
377,105,39042,5,0,0:0:0:0:
374,124,39123,1,0,0:0:0:0:
377,143,39205,1,0,0:0:0:0:
462,305,39529,5,0,0:0:0:0:
512,31,39853,1,0,0:0:0:0:
446,125,40015,1,0,0:0:0:0:
137,22,40340,1,0,0:0:0:0:
446,125,40664,1,0,0:0:0:0:
137,22,40988,1,0,0:0:0:0:
512,100,41313,1,0,0:0:0:0:
306,72,41475,1,0,0:0:0:0:
63,70,41637,6,0,B|97:106|97:106|240:148,1,197.999990086556
414,198,41961,1,0,0:0:0:0:
374,37,42123,1,0,0:0:0:0:
264,363,42286,1,0,0:0:0:0:
186,226,42448,1,0,0:0:0:0:
288,296,42610,1,0,0:0:0:0:
18,126,42934,6,0,B|41:158|41:158|41:251,1,115.9999966259
64,343,43259,2,0,B|41:311|41:311|41:218,1,115.9999966259
119,16,43583,6,0,L|119:156,1,139.999992990494
119,383,43907,1,0,0:0:0:0:
119,262,44069,1,0,0:0:0:0:
295,219,44232,5,0,0:0:0:0:
322,194,44313,1,0,0:0:0:0:
330,158,44394,1,0,0:0:0:0:
416,0,44718,5,0,0:0:0:0:
416,336,44880,1,0,0:0:0:0:
501,284,45042,1,0,0:0:0:0:
416,233,45205,1,0,0:0:0:0:
248,358,45529,6,0,B|194:393|194:393|117:370,1,99.9999940395356
221,236,45853,2,0,B|212:299|212:299|182:319,1,99.9999940395356
120,67,46178,2,0,B|167:117|167:117|148:276,1,209.999989485741
106,325,46502,5,0,0:0:0:0:
208,104,46664,1,0,0:0:0:0:
84,253,46826,5,0,0:0:0:0:
47,277,46907,1,0,0:0:0:0:
6,280,46988,1,0,0:0:0:0:
195,11,47313,5,0,0:0:0:0:
484,228,47475,1,0,0:0:0:0:
340,266,47637,1,0,0:0:0:0:
459,148,47799,1,0,0:0:0:0:
290,37,48123,6,0,P|250:7|201:3,1,99.9999940395356
255,157,48447,2,0,B|266:101|236:73|208:64,1,99.9999940395356
121,328,48772,2,0,B|183:256|184:127,1,209.999989485741
119,67,49096,5,0,0:0:0:0:
256,273,49259,1,0,0:0:0:0:
54,114,49421,5,0,0:0:0:0:
39,89,49502,1,0,0:0:0:0:
40,60,49583,1,0,0:0:0:0:
256,352,49907,5,0,0:0:0:0:
256,16,50069,1,0,0:0:0:0:
335,125,50232,1,0,0:0:0:0:
464,160,50394,1,0,0:0:0:0:
119,67,50718,5,0,0:0:0:0:
464,160,51042,1,0,0:0:0:0:
5,295,51367,1,0,0:0:0:0:
268,217,51691,1,0,0:0:0:0:
114,179,51853,1,0,0:0:0:0:
240,354,52015,5,0,0:0:0:0:
270,371,52096,1,0,0:0:0:0:
305,371,52178,1,0,0:0:0:0:
457,271,52340,5,0,0:0:0:0:
496,372,52502,1,0,0:0:0:0:
511,115,52664,2,0,B|539:230|485:325|485:325|454:299|456:251,1,279.999985980988
263,96,53313,6,0,P|265:46|284:0,1,99.9999940395356
358,114,53637,2,0,P|354:164|338:211,1,99.9999940395356
256,369,53961,2,0,P|253:264|280:163,1,209.999989485741
263,96,54286,5,0,0:0:0:0:
49,178,54448,1,0,0:0:0:0:
280,163,54610,5,0,0:0:0:0:
316,179,54691,1,0,0:0:0:0:
338,211,54772,1,0,0:0:0:0:
66,384,55096,5,0,0:0:0:0:
169,80,55259,1,0,0:0:0:0:
124,213,55421,1,0,0:0:0:0:
169,80,55583,1,0,0:0:0:0:
305,164,55745,5,0,0:0:0:0:
436,229,55907,2,0,B|476:269|476:269|436:310,1,115.9999966259
295,312,56232,2,0,B|309:367|309:367|365:352,1,115.9999966259
247,226,56556,2,0,B|356:255|356:255|386:145,1,227.999980321885
305,164,56880,5,0,0:0:0:0:
429,380,57042,1,0,0:0:0:0:
220,290,57205,5,0,0:0:0:0:
172,290,57286,1,0,0:0:0:0:
130,310,57367,1,0,0:0:0:0:
0,108,57691,5,0,0:0:0:0:
305,164,57853,1,0,0:0:0:0:
235,46,58015,1,0,0:0:0:0:
244,188,58178,1,0,0:0:0:0:
377,145,58340,5,0,0:0:0:0:
436,248,58502,2,0,B|458:304|458:304|448:375,1,115.9999966259,0|0,3:0|3:0,3:0:0:0:
320,275,58826,2,0,B|297:218|297:218|307:147,1,115.9999966259,0|0,3:0|3:0,3:0:0:0:
430,25,59151,2,0,B|451:76|451:76|435:267,1,227.999980321885,0|0,3:0|3:0,3:0:0:0:
383,310,59475,5,0,0:0:0:0:
375,70,59637,1,0,0:0:0:0:
244,188,59799,5,0,0:0:0:0:
215,212,59880,1,0,0:0:0:0:
177,216,59961,1,0,0:0:0:0:
0,0,60286,5,0,0:0:0:0:
47,313,60448,1,0,0:0:0:0:
116,255,60610,1,0,0:0:0:0:
32,223,60772,1,0,0:0:0:0:
299,317,61096,5,0,0:0:0:0:
32,223,61421,1,0,0:0:0:0:
490,384,61745,1,0,0:0:0:0:
165,270,62069,5,0,0:0:0:0:
299,317,62232,1,0,0:0:0:0:
458,150,62394,6,0,L|328:120,1,75.9999934406283
181,84,62556,2,0,L|311:114,1,115.9999966259
387,255,62880,5,0,0:0:0:0:
512,0,63042,1,0,0:0:0:0:
350,76,63205,1,0,0:0:0:0:
471,226,63367,1,0,0:0:0:0:
328,166,63529,1,0,0:0:0:0:
327,310,63691,1,0,0:0:0:0:
231,125,63853,1,0,0:0:0:0:
230,260,64015,1,0,0:0:0:0:
328,166,64178,1,0,0:0:0:0:
0,149,64340,6,0,L|145:191,1,115.9999966259
279,78,64664,2,0,L|134:36,1,115.9999966259
0,0,64988,6,0,B|39:9|39:9|81:0,1,57.9999983129501
244,0,65151,2,0,L|355:32,1,115.9999966259
432,157,65475,5,0,0:0:0:0:
151,123,65637,1,0,0:0:0:0:
213,188,65799,1,0,0:0:0:0:
242,106,65961,1,0,0:0:0:0:
151,123,66123,1,0,0:0:0:0:
114,325,66286,5,0,0:0:0:0:
213,188,66448,1,0,0:0:0:0:
313,384,66610,1,0,0:0:0:0:
213,188,66772,1,0,0:0:0:0:
512,234,66934,5,0,0:0:0:0:
363,211,67096,1,0,0:0:0:0:
213,188,67259,1,0,0:0:0:0:
63,165,67421,1,0,0:0:0:0:
273,29,67583,6,0,B|303:95|303:95|271:279,1,227.999980321885
252,341,67907,1,0,0:0:0:0:
177,278,68069,1,0,0:0:0:0:
481,189,68232,1,0,0:0:0:0:
447,324,68394,1,0,0:0:0:0:
418,251,68556,1,0,0:0:0:0:
512,268,68718,1,0,0:0:0:0:
324,186,68880,6,0,B|249:133|249:133|221:31,1,173.99999493885
147,72,69205,2,0,B|94:147|94:147|14:168,1,173.99999493885
131,384,69529,2,0,B|110:305|110:305|35:252,1,174.399991467743
215,364,69853,2,0,B|268:289|268:289|370:261,1,173.99999493885
472,154,70178,5,0,0:0:0:0:
489,123,70259,1,0,0:0:0:0:
491,88,70340,1,0,0:0:0:0:
277,6,70664,5,0,0:0:0:0:
479,325,70826,1,0,0:0:0:0:
512,208,70988,1,0,0:0:0:0:
415,292,71151,1,0,0:0:0:0:
247,83,71475,5,0,0:0:0:0:
358,136,71637,1,0,0:0:0:0:
307,211,71799,1,0,0:0:0:0:
345,335,71961,1,0,0:0:0:0:
206,10,72123,5,0,0:0:0:0:
368,87,72285,1,0,0:0:0:0:
293,195,72447,1,0,0:0:0:0:
349,374,72609,1,0,0:0:0:0:
196,307,72772,6,0,L|145:278,1,57.9999983129501
18,210,72934,2,0,B|16:302|16:302|32:319,1,115.9999966259
176,378,73259,5,0,0:0:0:0:
86,78,73421,1,0,0:0:0:0:
82,271,73583,1,0,0:0:0:0:
278,140,73745,1,0,0:0:0:0:
252,364,73907,1,0,0:0:0:0:
181,141,74069,1,0,0:0:0:0:
330,225,74232,1,0,0:0:0:0:
324,62,74394,1,0,0:0:0:0:
393,141,74556,1,0,0:0:0:0:
165,338,74718,2,0,L|284:129,1,227.999980321885
361,0,75042,5,0,0:0:0:0:
278,140,75205,1,0,0:0:0:0:
404,200,75367,6,0,B|439:225|439:225|448:253,1,57.9999983129501
386,384,75529,2,0,B|374:290|374:290|384:270,1,115.9999966259
481,137,75853,1,0,0:0:0:0:
318,363,76015,1,0,0:0:0:0:
331,230,76178,1,0,0:0:0:0:
181,141,76340,1,0,0:0:0:0:
288,293,76502,1,0,0:0:0:0:
125,231,76664,6,0,B|57:197|57:197|34:87,1,173.99999493885
128,88,76988,2,0,B|162:20|162:20|257:0,1,173.99999493885
359,220,77313,2,0,B|339:125|339:125|271:91,1,174.399991467743
268,234,77637,5,0,0:0:0:0:
138,321,77799,1,0,0:0:0:0:
305,348,77961,5,0,0:0:0:0:
342,346,78042,1,0,0:0:0:0:
378,331,78123,1,0,0:0:0:0:
476,298,78286,6,0,P|405:300|377:332,1,115.9999966259
512,67,78610,1,0,0:0:0:0:
486,214,78772,1,0,0:0:0:0:
327,169,78934,1,0,0:0:0:0:
499,142,79096,1,0,0:0:0:0:
411,198,79259,6,0,L|199:334,1,231.999993251801
104,384,79745,1,0,0:0:0:0:
143,36,79907,2,0,B|122:84|122:84|155:154|155:154|125:198,1,167.999984859467
104,384,80232,5,0,0:0:0:0:
53,231,80394,1,0,0:0:0:0:
216,104,80556,6,0,L|133:185,1,115.9999966259,0|0,3:0|3:0,3:0:0:0:
9,315,80880,1,0,0:0:0:0:
10,158,81042,1,0,0:0:0:0:
303,8,81205,1,0,0:0:0:0:
344,204,81367,2,0,B|377:82|377:82|263:-32,1,231.999993251801
212,103,81853,6,0,L|129:184,1,115.9999966259,0|0,3:0|3:0,3:0:0:0:
4,306,82177,1,0,0:0:0:0:
11,149,82339,1,0,0:0:0:0:
309,9,82502,1,0,0:0:0:0:
293,102,82664,1,0,0:0:0:0:
443,222,82826,5,0,0:0:0:0:
471,13,82988,1,0,0:0:0:0:
360,143,83151,5,0,0:0:0:0:
335,167,83232,1,0,0:0:0:0:
302,178,83313,1,0,0:0:0:0:
11,149,83637,5,0,0:0:0:0:
279,275,83799,1,0,0:0:0:0:
507,253,83961,1,0,0:0:0:0:
254,372,84123,1,0,0:0:0:0:
302,178,84286,1,0,0:0:0:0:
426,373,84448,1,0,0:0:0:0:
217,309,84610,1,0,0:0:0:0:
343,243,84772,1,0,0:0:0:0:
242,214,84934,1,0,0:0:0:0:
491,38,85096,1,0,0:0:0:0:
472,127,85259,1,0,0:0:0:0:
346,0,85421,5,0,0:0:0:0:
311,180,85583,1,0,0:0:0:0:
192,38,85745,5,0,0:0:0:0:
164,17,85826,1,0,0:0:0:0:
129,13,85907,1,0,0:0:0:0:
26,218,86069,5,0,0:0:0:0:
136,88,86232,1,0,0:0:0:0:
261,382,86394,1,0,0:0:0:0:
209,181,86556,1,0,0:0:0:0:
443,288,86718,1,0,0:0:0:0:
172,268,86880,1,0,0:0:0:0:
386,214,87042,6,0,B|472:167|472:167|500:116,1,115.9999966259
386,0,87367,2,0,B|391:16|391:16|364:111,1,115.9999966259
258,367,87691,1,0,0:0:0:0:
216,165,87853,5,0,0:0:0:0:
470,293,88015,1,0,0:0:0:0:
156,252,88178,1,0,0:0:0:0:
255,79,92556,6,0,P|274:127|312:170,1,83.9999924297336
369,200,92880,6,0,P|284:141|254:71,1,173.99999493885
255,78,93205,6,0,P|239:126|95:254,1,239.999985694885
0,246,93529,5,0,0:0:0:0:
10,210,93610,1,0,0:0:0:0:
35,179,93691,1,0,0:0:0:0:
263,213,93853,5,0,0:0:0:0:
264,9,94015,1,0,0:0:0:0:
262,374,94177,1,0,0:0:0:0:
169,202,94340,1,0,0:0:0:0:
351,231,94502,2,0,P|279:302|236:301,1,135.999994487762
184,112,94826,5,0,0:0:0:0:
240,150,94907,1,0,0:0:0:0:
252,218,94988,1,0,0:0:0:0:
95,262,95151,5,0,0:0:0:0:
240,150,95313,1,0,0:0:0:0:
0,0,95475,2,0,B|64:14|64:14|105:208,1,251.999977289201
137,316,95799,1,0,0:0:0:0:
13,158,95961,1,0,0:0:0:0:
252,218,96123,5,0,0:0:0:0:
309,254,96205,1,0,0:0:0:0:
342,311,96286,1,0,0:0:0:0:
252,218,96448,1,0,0:0:0:0:
429,14,96610,5,0,0:0:0:0:
250,308,96772,1,0,0:0:0:0:
487,216,96934,1,0,0:0:0:0:
363,125,97096,1,0,0:0:0:0:
309,254,97259,1,0,0:0:0:0:
444,142,97421,5,0,0:0:0:0:
457,76,97502,1,0,0:0:0:0:
429,14,97583,1,0,0:0:0:0:
258,40,97745,5,0,0:0:0:0:
408,201,97907,1,0,0:0:0:0:
57,0,98069,5,0,0:0:0:0:
212,177,98231,1,0,0:0:0:0:
43,173,98394,5,0,0:0:0:0:
155,301,98556,1,0,0:0:0:0:
339,249,98718,5,0,0:0:0:0:
408,201,98799,1,0,0:0:0:0:
453,130,98880,1,0,0:0:0:0:
339,249,99042,5,0,0:0:0:0:
453,130,99205,1,0,0:0:0:0:
121,6,99367,1,0,0:0:0:0:
330,36,99529,1,0,0:0:0:0:
341,172,99691,1,0,0:0:0:0:
226,0,99853,1,0,0:0:0:0:
196,184,100015,5,0,0:0:0:0:
157,258,100096,1,0,0:0:0:0:
88,307,100178,1,0,0:0:0:0:
30,138,100340,6,0,B|18:58|18:58|88:19,1,119.999997425079
259,111,100664,2,0,B|275:222|275:222|227:250,1,167.999984859467
88,307,100988,5,0,0:0:0:0:
196,184,101151,1,0,0:0:0:0:
266,17,101313,5,0,3:0:0:0:
259,111,101394,1,0,3:0:0:0:
196,184,101475,1,0,3:0:0:0:
350,45,101637,6,0,B|345:129|345:129|304:206,1,119.999997425079
274,383,101961,2,0,B|242:311|242:311|328:160,1,251.999977289201
438,178,102286,2,0,B|354:173|354:173|300:147,1,111.999989906311
189,5,102610,5,0,0:0:0:0:
238,48,102691,1,0,0:0:0:0:
259,111,102772,1,0,0:0:0:0:
226,275,102934,5,0,0:0:0:0:
328,384,103096,1,0,0:0:0:0:
259,111,103259,1,0,0:0:0:0:
296,258,103421,1,0,0:0:0:0:
122,170,103583,1,0,0:0:0:0:
372,224,103745,1,0,0:0:0:0:
259,111,103907,5,0,0:0:0:0:
322,161,103988,1,0,0:0:0:0:
372,224,104069,1,0,0:0:0:0:
402,383,104232,5,0,0:0:0:0:
508,248,104394,1,0,0:0:0:0:
225,195,104556,1,0,0:0:0:0:
279,35,104718,1,0,0:0:0:0:
406,152,104880,1,0,0:0:0:0:
225,195,105042,1,0,0:0:0:0:
161,329,105205,5,0,0:0:0:0:
87,355,105286,1,0,0:0:0:0:
21,312,105367,1,0,0:0:0:0:
41,137,105529,6,0,P|76:179|88:233,1,111.999989906311
246,56,105853,2,0,P|132:113|88:233,1,261.599987201615
87,355,106178,5,0,0:0:0:0:
191,160,106340,1,0,0:0:0:0:
264,288,106502,5,0,0:0:0:0:
317,332,106583,1,0,0:0:0:0:
385,343,106664,1,0,0:0:0:0:
396,142,106826,1,0,0:0:0:0:
345,268,106988,1,0,0:0:0:0:
447,16,107151,1,0,0:0:0:0:
396,142,107313,1,0,0:0:0:0:
345,268,107475,1,0,0:0:0:0:
396,142,107637,1,0,0:0:0:0:
264,52,107799,5,0,0:0:0:0:
202,19,107880,1,0,0:0:0:0:
132,17,107961,1,0,0:0:0:0:
0,133,108123,6,0,B|13:202|13:202|79:267,1,127.999992370606
255,313,108448,2,0,B|239:232|239:232|174:167,1,174.399991467743
87,78,108772,5,0,0:0:0:0:
139,286,108934,1,0,0:0:0:0:
318,243,109096,5,0,0:0:0:0:
372,198,109178,1,0,0:0:0:0:
403,135,109259,1,0,0:0:0:0:
206,0,109421,5,0,0:0:0:0:
139,132,109583,1,0,0:0:0:0:
505,0,109745,1,0,0:0:0:0:
290,0,109907,1,0,0:0:0:0:
403,135,110069,1,0,0:0:0:0:
403,0,110232,1,0,0:0:0:0:
372,198,110394,5,0,0:0:0:0:
393,259,110475,1,0,0:0:0:0:
451,290,110556,1,0,0:0:0:0:
329,139,110718,5,0,0:0:0:0:
403,135,110880,1,0,0:0:0:0:
286,381,111042,1,0,0:0:0:0:
194,264,111205,1,0,0:0:0:0:
448,216,111367,5,0,0:0:0:0:
237,325,111529,1,0,0:0:0:0:
270,185,111691,5,0,0:0:0:0:
329,139,111772,1,0,0:0:0:0:
403,135,111853,1,0,0:0:0:0:
474,35,112015,6,0,B|445:106|445:106|374:155,1,127.999992370606
171,200,112340,2,0,B|200:129|200:129|283:77,1,174.399991467743
406,17,112664,5,0,0:0:0:0:
341,215,112826,1,0,0:0:0:0:
173,109,112988,5,0,0:0:0:0:
134,86,113069,1,0,0:0:0:0:
90,82,113151,1,0,0:0:0:0:
0,144,113313,5,0,0:0:0:0:
113,161,113475,1,0,0:0:0:0:
212,384,113637,1,0,0:0:0:0:
98,371,113799,1,0,0:0:0:0:
167,245,113961,1,0,0:0:0:0:
156,337,114123,1,0,0:0:0:0:
251,305,114286,5,0,0:0:0:0:
259,307,114367,1,0,0:0:0:0:
267,309,114448,1,0,0:0:0:0:
267,309,116880,5,0,0:0:0:0:
278,311,116961,1,0,0:0:0:0:
290,314,117042,1,0,0:0:0:0:
290,314,119475,5,0,0:0:0:0:
310,317,119556,1,0,0:0:0:0:
333,323,119637,1,0,0:0:0:0:
333,323,122069,5,0,0:0:0:0:
343,324,122150,1,0,0:0:0:0:
355,327,122231,1,0,0:0:0:0:
357,195,124664,6,0,B|329:236|329:236|354:326,1,143.9999870224
473,381,124988,1,0,0:0:0:0:
441,261,125151,1,0,0:0:0:0:
400,70,125313,2,0,B|412:118|412:118|356:194,1,143.9999870224
243,321,125637,5,0,0:0:0:0:
289,140,125799,1,0,0:0:0:0:
472,189,125961,1,0,0:0:0:0:
477,14,126123,1,0,0:0:0:0:
334,85,126286,1,0,0:0:0:0:
382,0,126448,1,0,0:0:0:0:
507,276,126610,1,0,0:0:0:0:
438,324,126772,1,0,0:0:0:0:
494,122,126934,5,0,0:0:0:0:
354,326,127096,1,0,0:0:0:0:
252,247,127259,5,0,0:0:0:0:
242,225,127340,1,0,0:0:0:0:
241,202,127421,1,0,0:0:0:0:
240,43,127583,5,0,0:0:0:0:
160,98,127745,1,0,0:0:0:0:
212,373,127907,1,0,0:0:0:0:
103,330,128069,1,0,0:0:0:0:
189,265,128232,1,0,0:0:0:0:
47,213,128394,5,0,0:0:0:0:
159,196,128556,2,0,P|227:122|229:73,1,111.999989906311
161,0,128880,1,0,0:0:0:0:
97,166,129042,1,0,0:0:0:0:
301,22,129205,2,0,B|387:-18|475:-2|475:-2|457:55,1,215.999980533601
434,105,129529,5,0,0:0:0:0:
240,49,129691,1,0,0:0:0:0:
351,155,129853,5,0,0:0:0:0:
339,188,129934,1,0,0:0:0:0:
312,211,130015,1,0,0:0:0:0:
115,252,130178,5,0,0:0:0:0:
0,384,130340,1,0,0:0:0:0:
404,228,130502,1,0,0:0:0:0:
257,157,130664,5,0,0:0:0:0:
357,330,130826,1,0,0:0:0:0:
485,140,130988,5,0,0:0:0:0:
472,275,131151,2,0,P|458:320|428:357,1,95.9999913482669
199,364,131475,2,0,P|167:330|149:285,1,95.9999913482669
258,78,131799,2,0,P|328:67|395:91,1,143.9999870224
508,208,132123,5,0,0:0:0:0:
317,237,132286,1,0,0:0:0:0:
185,159,132448,5,0,0:0:0:0:
163,129,132529,1,0,0:0:0:0:
159,92,132610,1,0,0:0:0:0:
317,237,132772,5,0,0:0:0:0:
325,110,132934,1,0,0:0:0:0:
44,164,133096,1,0,0:0:0:0:
51,267,133259,1,0,0:0:0:0:
44,164,133421,2,0,L|54:312,1,103.999989040375
216,320,133745,5,0,0:0:0:0:
133,253,133907,1,0,0:0:0:0:
216,320,134069,1,0,0:0:0:0:
133,253,134231,1,0,0:0:0:0:
379,131,134394,5,0,0:0:0:0:
296,64,134556,1,0,0:0:0:0:
446,185,134718,5,0,0:0:0:0:
228,9,134880,1,0,0:0:0:0:
310,163,135042,6,0,B|350:232|350:232|323:290,1,143.9999870224
126,194,135367,1,0,0:0:0:0:
310,163,135529,1,0,0:0:0:0:
23,384,135691,1,0,0:0:0:0:
76,241,135853,1,0,0:0:0:0:
201,351,136015,1,0,0:0:0:0:
225,141,136178,1,0,0:0:0:0:
408,106,136340,6,0,B|383:195|383:195|338:221,1,143.9999870224
139,319,136664,1,0,0:0:0:0:
53,153,136826,1,0,0:0:0:0:
339,221,136988,2,0,B|387:239|387:239|427:323,1,143.9999870224
256,384,137313,5,0,0:0:0:0:
459,214,137475,1,0,0:0:0:0:
252,263,137637,5,0,0:0:0:0:
218,249,137718,1,0,0:0:0:0:
199,218,137799,1,0,0:0:0:0:
379,0,138123,5,0,0:0:0:0:
199,218,138286,1,0,0:0:0:0:
33,245,138448,1,0,0:0:0:0:
194,384,138610,1,0,0:0:0:0:
478,328,138934,5,0,0:0:0:0:
399,190,139096,1,0,0:0:0:0:
282,188,139259,1,0,0:0:0:0:
203,50,139421,1,0,0:0:0:0:
478,328,139583,1,0,0:0:0:0:
399,190,139745,1,0,0:0:0:0:
203,50,139908,5,0,0:0:0:0:
282,188,140070,1,0,0:0:0:0:
409,327,140232,5,0,0:0:0:0:
443,335,140313,1,0,0:0:0:0:
478,328,140394,1,0,0:0:0:0:
341,237,140556,5,0,0:0:0:0:
368,384,140718,1,0,0:0:0:0:
469,172,140880,2,0,B|511:81|511:81|492:14,1,143.9999870224
285,10,141205,1,0,0:0:0:0:
399,190,141367,1,0,0:0:0:0:
286,116,141529,6,0,L|161:34,1,149.333319875082
8,128,141853,2,0,L|0:279,1,149.333319875082
288,276,142178,2,0,L|127:355,1,159.999990463257
147,193,142502,5,0,0:0:0:0:
27,384,142664,1,0,0:0:0:0:
120,240,142826,5,0,0:0:0:0:
133,216,142907,1,0,0:0:0:0:
147,193,142988,1,0,0:0:0:0:
253,11,143313,5,0,0:0:0:0:
120,240,143475,1,0,0:0:0:0:
187,126,143637,1,0,0:0:0:0:
253,11,143799,1,0,0:0:0:0:
330,324,144123,5,0,0:0:0:0:
302,233,144286,1,0,0:0:0:0:
421,165,144448,1,0,0:0:0:0:
357,42,144610,1,0,0:0:0:0:
330,377,144772,5,0,0:0:0:0:
289,246,144935,1,0,0:0:0:0:
361,0,145097,5,0,0:0:0:0:
441,155,145259,1,0,0:0:0:0:
312,329,145421,5,0,0:0:0:0:
302,299,145502,1,0,0:0:0:0:
292,269,145583,1,0,0:0:0:0:
139,142,145907,5,0,0:0:0:0:
229,378,146232,1,0,0:0:0:0:
141,334,146394,1,0,0:0:0:0:
309,125,146718,1,0,0:0:0:0:
141,334,147042,1,0,0:0:0:0:
309,125,147367,1,0,0:0:0:0:
141,334,147691,1,0,0:0:0:0:
76,260,147853,1,0,0:0:0:0:
152,187,148015,5,0,0:0:0:0:
163,199,148096,1,0,0:0:0:0:
169,214,148178,1,0,0:0:0:0:
0,354,148502,5,0,0:0:0:0:
261,220,148826,1,0,0:0:0:0:
298,303,148988,1,0,0:0:0:0:
201,87,149313,1,0,0:0:0:0:
298,303,149637,1,0,0:0:0:0:
201,87,149961,1,0,0:0:0:0:
298,303,150286,1,0,0:0:0:0:
378,255,150448,1,0,0:0:0:0:
460,204,150610,5,0,0:0:0:0:
474,194,150691,1,0,0:0:0:0:
488,185,150772,1,0,0:0:0:0:
352,121,151096,5,0,0:0:0:0:
478,331,151421,1,0,0:0:0:0:
395,384,151583,1,0,0:0:0:0:
286,154,151907,1,0,0:0:0:0:
512,252,152232,1,0,0:0:0:0:
258,234,152556,1,0,0:0:0:0:
492,102,152880,1,0,0:0:0:0:
403,61,153042,1,0,0:0:0:0:
298,56,153205,5,0,0:0:0:0:
282,62,153286,1,0,0:0:0:0:
267,70,153367,1,0,0:0:0:0:
152,187,153691,5,0,0:0:0:0:
241,4,154015,1,0,0:0:0:0:
123,11,154178,1,0,0:0:0:0:
298,56,154502,5,0,0:0:0:0:
152,187,154826,1,0,0:0:0:0:
241,4,155151,1,0,0:0:0:0:
12,39,155475,1,0,0:0:0:0:
94,83,155637,1,0,0:0:0:0:
121,280,155799,5,0,0:0:0:0:
91,257,155880,1,0,0:0:0:0:
84,220,155961,1,0,0:0:0:0:
241,4,156286,5,0,0:0:0:0:
378,224,156448,1,0,0:0:0:0:
157,226,156610,1,0,0:0:0:0:
294,160,156772,1,0,0:0:0:0:
262,353,156934,1,0,0:0:0:0:
262,239,157096,1,0,0:0:0:0:
378,224,157259,1,0,0:0:0:0:
437,133,157421,5,0,0:0:0:0:
356,54,157583,1,0,0:0:0:0:
371,384,157745,1,0,0:0:0:0:
455,251,157907,1,0,0:0:0:0:
512,169,158069,5,0,0:0:0:0:
409,321,158232,1,0,0:0:0:0:
358,149,158394,5,0,0:0:0:0:
359,126,158475,1,0,0:0:0:0:
372,108,158556,1,0,0:0:0:0:
512,20,158718,5,0,0:0:0:0:
372,108,158880,1,0,0:0:0:0:
232,26,159042,1,0,0:0:0:0:
168,169,159205,1,0,0:0:0:0:
87,82,159367,1,0,0:0:0:0:
51,200,159529,1,0,0:0:0:0:
134,285,159691,6,0,P|131:339|96:382,1,111.999989906311
240,323,160015,2,0,P|242:268|277:225,1,111.999989906311
447,372,160340,2,0,P|392:369|312:276,1,159.999990463257
449,206,160664,5,0,0:0:0:0:
352,384,160826,1,0,0:0:0:0:
370,214,160988,5,0,0:0:0:0:
370,189,161069,1,0,0:0:0:0:
381,168,161151,1,0,0:0:0:0:
512,0,161475,5,0,0:0:0:0:
288,46,161637,2,0,B|166:46|166:46|118:9,1,159.999990463257
48,87,161961,2,0,B|120:146|120:146|99:221,1,131.999993391037
242,362,162286,2,0,B|170:303|170:303|190:227,1,131.999993391037
221,115,162610,1,0,0:0:0:0:
260,219,162772,1,0,0:0:0:0:
512,317,162934,6,0,B|450:391|450:391|380:374,1,159.999990463257
272,288,163259,5,0,0:0:0:0:
425,317,163421,1,0,0:0:0:0:
434,153,163583,5,0,0:0:0:0:
424,175,163664,1,0,0:0:0:0:
427,198,163745,1,0,0:0:0:0:
512,384,164069,5,0,0:0:0:0:
488,83,164232,1,0,0:0:0:0:
351,141,164394,1,0,0:0:0:0:
389,43,164556,1,0,0:0:0:0:
272,62,164718,1,0,0:0:0:0:
351,141,164880,1,0,0:0:0:0:
198,84,165042,1,0,0:0:0:0:
240,253,165204,1,0,0:0:0:0:
351,141,165366,1,0,0:0:0:0:
68,198,165529,1,0,0:0:0:0:
166,247,165691,1,0,0:0:0:0:
130,122,165853,1,0,0:0:0:0:
203,172,166015,1,0,0:0:0:0:
437,121,166178,1,0,0:0:0:0:
256,192,176556,5,0,0:0:0:0:
259,215,176637,1,0,0:0:0:0:
271,235,176718,1,0,0:0:0:0:
376,318,177042,5,0,0:0:0:0:
304,60,177205,1,0,0:0:0:0:
205,129,177367,1,0,0:0:0:0:
143,23,177529,1,0,0:0:0:0:
53,298,177853,5,0,0:0:0:0:
11,137,178178,1,0,0:0:0:0:
442,344,178502,1,0,0:0:0:0:
196,356,178826,5,0,0:0:0:0:
282,198,178988,1,0,0:0:0:0:
421,167,179151,5,0,0:0:0:0:
421,190,179232,1,0,0:0:0:0:
410,211,179313,1,0,0:0:0:0:
157,266,179637,5,0,0:0:0:0:
508,257,179799,1,0,0:0:0:0:
398,293,179961,1,0,0:0:0:0:
493,185,180123,1,0,0:0:0:0:
302,19,180448,5,0,0:0:0:0:
311,41,180772,1,0,0:0:0:0:
475,384,181096,1,0,0:0:0:0:
473,136,181421,5,0,0:0:0:0:
256,144,181583,1,0,0:0:0:0:
151,238,181745,5,0,0:0:0:0:
129,249,181826,1,0,0:0:0:0:
105,248,181907,1,0,0:0:0:0:
0,89,182232,5,0,0:0:0:0:
100,339,182394,1,0,0:0:0:0:
213,358,182556,1,0,0:0:0:0:
97,324,182718,1,0,0:0:0:0:
214,96,183042,5,0,0:0:0:0:
166,302,183367,1,0,0:0:0:0:
512,0,183691,1,0,0:0:0:0:
359,134,184015,5,0,0:0:0:0:
512,0,184178,1,0,0:0:0:0:
332,56,184340,5,0,0:0:0:0:
310,66,184421,1,0,0:0:0:0:
293,83,184502,1,0,0:0:0:0:
189,223,184664,5,0,0:0:0:0:
129,152,184826,1,0,0:0:0:0:
0,384,184988,1,0,0:0:0:0:
155,358,185151,1,0,0:0:0:0:
41,293,185313,1,0,0:0:0:0:
383,96,185637,5,0,0:0:0:0:
128,287,185961,5,0,0:0:0:0:
512,0,186286,5,0,0:0:0:0:
0,384,186610,5,0,0:0:0:0:
387,103,186934,5,0,0:0:0:0:
407,63,187015,1,0,0:0:0:0:
399,19,187096,1,0,0:0:0:0:
206,8,187259,5,0,0:0:0:0:
286,139,187421,1,0,0:0:0:0:
5,305,187583,5,0,0:0:0:0:
60,132,187745,1,0,0:0:0:0:
211,250,187907,1,0,0:0:0:0:
245,72,188069,1,0,0:0:0:0:
299,213,188232,6,0,B|358:316|358:316|404:349,1,147.999990613938
442,125,188556,2,0,B|323:124|323:124|271:151,1,147.999990613938
440,297,188880,2,0,B|504:197|504:197|512:58|512:58|496:23,1,281.999978888512
430,50,189205,5,0,0:0:0:0:
223,173,189367,1,0,0:0:0:0:
13,14,189529,6,0,B|132:30|132:30|157:67,1,159.999990463257
223,173,189853,5,0,0:0:0:0:
108,268,190015,1,0,0:0:0:0:
197,0,190178,5,0,0:0:0:0:
231,240,190340,1,0,0:0:0:0:
293,29,190502,1,0,0:0:0:0:
46,181,190664,1,0,0:0:0:0:
306,164,190826,6,0,B|383:142|383:142|421:154|421:154|483:131,1,147.999990613938,0|0,0:3|0:3,0:3:0:0:
458,383,191151,2,0,B|463:355|463:355|492:328|492:328|512:251,1,147.999990613938
332,384,191475,2,0,B|275:328|275:328|258:271|258:271|201:212,1,187.999985925675
125,129,191799,5,0,0:0:0:0:
338,245,191961,1,0,0:0:0:0:
89,373,192123,6,0,B|157:286|157:286|142:216|142:216|173:177,1,159.999990463257
111,56,192448,5,0,0:0:0:0:
146,237,192610,1,0,0:0:0:0:
428,59,192772,5,0,0:0:0:0:
217,108,192934,1,0,0:0:0:0:
455,248,193096,1,0,0:0:0:0:
332,68,193259,1,0,0:0:0:0:
230,262,193421,5,0,0:0:0:0:
179,312,193502,1,0,0:0:0:0:
108,325,193583,1,0,0:0:0:0:
107,108,193745,5,0,0:0:0:0:
230,262,193907,1,0,0:0:0:0:
512,134,194069,2,0,P|397:150|347:241,1,187.999985925675
341,370,194394,5,0,0:0:0:0:
501,261,194556,1,0,0:0:0:0:
300,152,194718,5,0,0:0:0:0:
425,380,194880,1,0,0:0:0:0:
439,171,195042,1,0,0:0:0:0:
291,224,195205,1,0,0:0:0:0:
62,153,195367,2,0,B|21:127|21:127|-21:56|60:-16,1,187.999985925675
282,0,195691,2,0,B|322:25|322:25|365:96|283:169,1,187.999985925675
512,13,196015,5,0,0:0:0:0:
439,171,196177,1,0,0:0:0:0:
425,380,196339,1,0,0:0:0:0:
291,224,196502,1,0,0:0:0:0:
12,238,196664,2,0,B|-41:304|13:367|13:367|57:385,1,187.999985925675
299,152,196988,5,0,0:0:0:0:
153,325,197151,1,0,0:0:0:0:
168,45,197313,5,0,0:0:0:0:
197,103,197394,1,0,0:0:0:0:
190,168,197475,1,0,0:0:0:0:
0,175,197637,5,0,0:0:0:0:
236,48,197799,1,0,0:0:0:0:
69,296,197961,5,0,0:0:0:0:
252,140,198123,1,0,0:0:0:0:
52,126,198286,1,0,0:0:0:0:
300,82,198448,1,0,0:0:0:0:
225,378,198610,6,0,B|288:203|288:203|231:232,1,239.999985694885
372,174,198934,2,0,B|331:295|331:295|456:253,1,239.999985694885
507,384,199259,2,0,B|457:245|457:245|480:110,1,281.999978888512
498,0,199583,5,0,0:0:0:0:
315,144,199745,1,0,0:0:0:0:
169,25,199907,5,0,0:0:0:0:
106,4,199988,1,0,0:0:0:0:
44,26,200069,1,0,0:0:0:0:
104,158,200232,5,0,0:0:0:0:
279,12,200394,1,0,0:0:0:0:
198,348,200556,1,0,0:0:0:0:
44,217,200718,1,0,0:0:0:0:
244,159,200880,1,0,0:0:0:0:
198,348,201042,1,0,0:0:0:0:
111,100,201205,1,0,0:0:0:0:
375,163,201367,1,0,0:0:0:0:
198,348,201529,1,0,0:0:0:0:
252,76,201691,1,0,0:0:0:0:
512,384,201853,1,0,0:0:0:0:
198,348,202015,1,0,0:0:0:0:
383,233,202178,5,0,0:0:0:0:
198,348,202340,1,0,0:0:0:0:
441,190,202502,5,0,0:0:0:0:
467,129,202583,1,0,0:0:0:0:
455,64,202664,1,0,0:0:0:0:
266,128,202826,5,0,0:0:0:0:
223,0,202988,1,0,0:0:0:0:
133,237,203151,2,0,B|79:344|79:344|-9:394,1,187.999985925675
0,196,203475,2,0,B|53:88|53:88|88:68,1,159.999990463257
244,239,203799,5,0,0:0:0:0:
286,288,203880,1,0,0:0:0:0:
340,321,203961,1,0,0:0:0:0:
449,195,204123,6,0,B|395:87|395:87|360:67,1,159.999990463257
88,68,204448,2,0,B|146:133|146:133|246:138,1,187.999985925675
426,11,204772,5,0,0:0:0:0:
331,234,204934,1,0,0:0:0:0:
254,33,205096,5,0,0:0:0:0:
192,4,205178,1,0,0:0:0:0:
128,19,205259,1,0,0:0:0:0:
123,182,205421,6,0,L|55:336,1,147.999990613938
464,336,205745,2,0,B|432:272|432:272|416:208|416:208|384:156,1,195.999990186691
254,33,206069,2,0,L|254:225,1,159.999990463257
256,368,206394,5,0,0:0:0:0:
157,140,206556,1,0,0:0:0:0:
320,320,206718,1,0,0:0:0:0:
481,176,206880,1,0,0:0:0:0:
161,381,207042,1,0,0:0:0:0:
320,153,207205,1,0,0:0:0:0:
161,35,207367,5,0,0:0:0:0:
332,220,207529,1,0,0:0:0:0:
162,196,207691,5,0,0:0:0:0:
124,154,207772,1,0,0:0:0:0:
119,98,207853,1,0,0:0:0:0:
385,27,208015,5,0,0:0:0:0:
187,126,208178,1,0,0:0:0:0:
410,176,208340,5,0,0:0:0:0:
245,338,208502,1,0,0:0:0:0:
319,104,208664,1,0,0:0:0:0:
512,159,208826,1,0,0:0:0:0:
232,266,208988,6,0,B|111:276|111:276|57:322,1,159.999990463257
92,138,209313,2,0,B|86:176|86:176|0:262,1,159.999990463257
179,36,209637,2,0,B|164:181|164:181|212:193,1,195.999990186691
455,227,209962,5,0,0:0:0:0:
226,192,210124,1,0,0:0:0:0:
5,0,210286,5,0,0:0:0:0:
70,20,210367,1,0,0:0:0:0:
111,74,210448,1,0,0:0:0:0:
140,312,210610,5,0,0:0:0:0:
149,142,210772,1,0,0:0:0:0:
405,8,210934,5,0,0:0:0:0:
393,222,211096,1,0,0:0:0:0:
292,62,211259,1,0,0:0:0:0:
126,230,211421,1,0,0:0:0:0:
307,339,211583,5,0,0:0:0:0:
451,166,211745,1,0,0:0:0:0:
205,339,211907,5,0,0:0:0:0:
61,166,212069,1,0,0:0:0:0:
464,272,212232,5,0,0:0:0:0:
48,272,212394,1,0,0:0:0:0:
256,96,212556,5,0,0:0:0:0:
256,288,212718,1,0,0:0:0:0:
360,153,212880,5,0,0:0:0:0:
390,91,212961,1,0,0:0:0:0:
379,23,213042,1,0,0:0:0:0:
132,88,213205,5,0,0:0:0:0:
390,91,213367,1,0,0:0:0:0:
0,87,213529,5,0,0:0:0:0:
150,214,213691,1,0,0:0:0:0:
237,41,213853,1,0,0:0:0:0:
0,155,214015,1,0,0:0:0:0:
80,302,214178,5,0,0:0:0:0:
131,347,214259,1,0,0:0:0:0:
197,363,214340,1,0,0:0:0:0:
349,259,214502,6,0,P|276:245|207:268,1,147.999990613938
454,55,214826,2,0,P|364:88|323:175,1,195.999990186691
163,51,215151,2,0,P|142:126|182:192,1,159.999990463257
425,165,215475,6,0,P|445:248|419:348,1,175.999994880676
176,377,215799,1,0,0:0:0:0:
15,284,215961,1,0,0:0:0:0:
172,17,216123,1,0,0:0:0:0:
331,110,216286,1,0,0:0:0:0:
88,158,216448,2,0,B|40:94|40:94|69:-53,1,175.999994880676
425,165,216772,6,0,P|445:248|419:348,1,175.999994880676
176,377,217096,1,0,0:0:0:0:
15,284,217258,1,0,0:0:0:0:
172,17,217420,1,0,0:0:0:0:
331,110,217583,1,0,0:0:0:0:
88,158,217745,5,0,0:0:0:0:
271,252,217907,1,0,0:0:0:0:
303,25,218069,5,0,0:0:0:0:
244,60,218151,1,0,0:0:0:0:
229,126,218232,1,0,0:0:0:0:
352,298,218394,5,0,0:0:0:0:
244,60,218556,1,0,0:0:0:0:
42,329,218718,5,0,0:0:0:0:
48,143,218880,1,0,0:0:0:0:
228,200,219042,1,0,0:0:0:0:
181,30,219205,1,0,0:0:0:0:
354,127,219367,6,0,B|462:202|462:202|419:215,1,175.999994880676
207,295,219691,2,0,B|165:309|165:309|273:384,1,175.999994880676
466,377,220015,2,0,L|245:200,1,199.999988079071
147,118,220340,5,0,0:0:0:0:
437,137,220502,1,0,0:0:0:0:
172,209,220664,5,0,0:0:0:0:
106,196,220745,1,0,0:0:0:0:
63,146,220826,1,0,0:0:0:0:
200,44,220989,5,0,0:0:0:0:
447,54,221151,1,0,0:0:0:0:
190,357,221313,1,0,0:0:0:0:
147,118,221475,1,0,0:0:0:0:
374,201,221637,1,0,0:0:0:0:
190,357,221799,1,0,0:0:0:0:
130,33,221961,1,0,0:0:0:0:
437,145,222123,1,0,0:0:0:0:
190,357,222286,1,0,0:0:0:0:
158,184,222448,1,0,0:0:0:0:
508,340,222610,1,0,0:0:0:0:
367,130,222772,1,0,0:0:0:0:
512,184,222935,5,0,0:0:0:0:
284,336,223097,1,0,0:0:0:0:
236,156,223259,5,0,0:0:0:0:
243,89,223340,1,0,0:0:0:0:
286,39,223421,1,0,0:0:0:0:
498,73,223583,5,0,0:0:0:0:
243,89,223745,1,0,0:0:0:0:
456,254,223908,6,0,B|387:329|387:329|249:345,1,199.999988079071
38,256,224232,2,0,B|107:181|107:181|164:174,1,159.999990463257
472,300,224556,6,0,B|385:354|385:354|248:334,1,199.999988079071
21,220,224880,2,0,B|107:165|107:165|164:173,1,159.999990463257
330,46,225205,6,0,B|303:192|303:192|258:232,1,207.999978080751
86,368,225529,5,0,0:0:0:0:
235,153,225691,1,0,0:0:0:0:
221,305,225853,5,0,0:0:0:0:
198,355,225934,1,0,0:0:0:0:
151,384,226015,1,0,0:0:0:0:
21,220,226178,6,0,B|-8:134|-8:134|13:81,1,147.999990613938
280,0,226502,2,0,B|240:86|240:86|117:131,1,179.999996137619
85,289,226826,2,0,B|125:203|125:203|159:189,1,131.999993391037
302,180,227151,5,0,0:0:0:0:
345,195,227232,1,0,0:0:0:0:
370,233,227313,1,0,0:0:0:0:
230,345,227475,5,0,0:0:0:0:
302,254,227637,1,0,0:0:0:0:
512,384,227799,1,0,0:0:0:0:
473,267,227961,1,0,0:0:0:0:
372,384,228123,5,0,0:0:0:0:
387,300,228286,1,0,0:0:0:0:
