osu file format v14

[General]
AudioFilename: audio.mp3
AudioLeadIn: 0
PreviewTime: 33232
Countdown: 0
SampleSet: Normal
StackLeniency: 0.7
Mode: 3
LetterboxInBreaks: 0
SpecialStyle: 0
WidescreenStoryboard: 0

[Editor]
DistanceSpacing: 0.3
BeatDivisor: 16
GridSize: 32
TimelineZoom: 1

[Metadata]
Title:We are Stain Bustards !
TitleUnicode:我らステインバスターズ!
Artist:Majima Yuro feat. Hatsune Miku&Kagamine Rin
ArtistUnicode:真島ゆろ feat. 初音ミク・鏡音リン
Creator:daemul010
Version:Brush Your Teeth !
Source:プロジェクトセカイ カラフルステージ! feat. 初音ミク
Tags:We are Stain Bustards 我らステインバスターズ! sunstar Ora^2 Vocaloid Project Sekai coloful stage feat.hatsune miku
BeatmapID:4262411
BeatmapSetID:2042654

[Difficulty]
HPDrainRate:6
CircleSize:4
OverallDifficulty:6
ApproachRate:5
SliderMultiplier:1.4
SliderTickRate:1

[Events]
//Background and Video events
Video,0,"我らステインバスターズ 初音ミク鏡音リン_v720P.mp4"
0,0,"sddefault.jpg",0,0
//Break Periods
//Storyboard Layer 0 (Background)
//Storyboard Layer 1 (Fail)
//Storyboard Layer 2 (Pass)
//Storyboard Layer 3 (Foreground)
//Storyboard Layer 4 (Overlay)
//Storyboard Sound Samples

[TimingPoints]
1072.30681926973,480,4,1,0,100,1,0

[HitObjects]
64,192,1072,5,0,0:0:0:0:
64,192,1552,1,0,0:0:0:0:
192,192,2032,128,0,2112:0:0:0:0:
192,192,2192,128,0,2272:0:0:0:0:
320,192,2272,128,0,2512:0:0:0:0:
448,192,2512,128,0,2592:0:0:0:0:
448,192,2672,128,0,2752:0:0:0:0:
320,192,2752,128,0,2992:0:0:0:0:
64,192,2992,128,0,3232:0:0:0:0:
448,192,2992,1,0,0:0:0:0:
192,192,2992,128,0,3232:0:0:0:0:
320,192,3232,1,0,0:0:0:0:
320,192,3392,1,0,0:0:0:0:
448,192,3472,1,0,0:0:0:0:
320,192,3712,1,0,0:0:0:0:
192,192,3712,128,0,3952:0:0:0:0:
448,192,3952,1,0,0:0:0:0:
64,192,3952,128,0,4032:0:0:0:0:
320,192,4432,1,0,0:0:0:0:
320,192,4672,1,0,0:0:0:0:
448,192,5152,1,0,0:0:0:0:
192,192,5152,128,0,5232:0:0:0:0:
64,192,5392,128,0,5472:0:0:0:0:
320,192,5512,1,0,0:0:0:0:
192,192,5632,128,0,5712:0:0:0:0:
448,192,5872,1,0,0:0:0:0:
192,192,6112,128,0,6192:0:0:0:0:
64,192,6352,128,0,6832:0:0:0:0:
320,192,6352,128,0,6832:0:0:0:0:
192,192,6832,1,0,0:0:0:0:
448,192,6832,128,0,7312:0:0:0:0:
192,192,7072,1,0,0:0:0:0:
192,192,7232,1,0,0:0:0:0:
64,192,7312,1,0,0:0:0:0:
192,192,7552,1,0,0:0:0:0:
320,192,7552,128,0,7792:0:0:0:0:
64,192,7792,1,0,0:0:0:0:
448,192,7792,128,0,7872:0:0:0:0:
192,192,8272,1,0,0:0:0:0:
192,192,8512,1,0,0:0:0:0:
64,192,8992,1,0,0:0:0:0:
320,192,8992,128,0,9072:0:0:0:0:
192,192,9232,1,0,0:0:0:0:
448,192,9232,128,0,9312:0:0:0:0:
64,192,9472,1,0,0:0:0:0:
320,192,9472,128,0,9552:0:0:0:0:
320,192,9952,1,0,0:0:0:0:
192,192,9952,128,0,10032:0:0:0:0:
448,192,10192,128,0,10672:0:0:0:0:
64,192,10192,128,0,10672:0:0:0:0:
320,192,10672,1,0,0:0:0:0:
192,192,10672,128,0,10912:0:0:0:0:
320,192,10832,1,0,0:0:0:0:
192,192,11072,1,0,0:0:0:0:
320,192,11152,1,0,0:0:0:0:
64,192,11392,1,0,0:0:0:0:
192,192,11632,1,0,0:0:0:0:
320,192,11792,1,0,0:0:0:0:
192,192,11872,1,0,0:0:0:0:
448,192,12032,1,0,0:0:0:0:
64,192,12352,1,0,0:0:0:0:
192,192,12512,1,0,0:0:0:0:
320,192,12592,1,0,0:0:0:0:
448,192,12832,1,0,0:0:0:0:
192,192,12992,1,0,0:0:0:0:
448,192,13072,1,0,0:0:0:0:
320,192,13232,1,0,0:0:0:0:
64,192,13312,1,0,0:0:0:0:
64,192,13472,1,0,0:0:0:0:
448,192,13552,1,0,0:0:0:0:
448,192,13712,1,0,0:0:0:0:
192,192,13792,1,0,0:0:0:0:
448,192,13952,1,0,0:0:0:0:
320,192,14192,128,0,14272:0:0:0:0:
448,192,14272,128,0,14432:0:0:0:0:
320,192,14432,128,0,14512:0:0:0:0:
192,192,14512,128,0,14752:0:0:0:0:
320,192,14752,128,0,14992:0:0:0:0:
192,192,14992,128,0,15112:0:0:0:0:
448,192,15152,128,0,15192:0:0:0:0:
64,192,15232,128,0,15352:0:0:0:0:
448,192,15392,128,0,15432:0:0:0:0:
64,192,15472,128,0,15592:0:0:0:0:
320,192,15632,128,0,15672:0:0:0:0:
192,192,15712,128,0,15792:0:0:0:0:
320,192,15872,128,0,15952:0:0:0:0:
64,192,16192,128,0,16272:0:0:0:0:
320,192,16352,128,0,16432:0:0:0:0:
64,192,16432,128,0,16672:0:0:0:0:
320,192,16672,128,0,16792:0:0:0:0:
192,192,16912,128,0,16992:0:0:0:0:
448,192,17152,128,0,17232:0:0:0:0:
448,192,17312,128,0,17392:0:0:0:0:
192,192,17392,128,0,17472:0:0:0:0:
64,192,17552,128,0,17792:0:0:0:0:
320,192,17792,128,0,17832:0:0:0:0:
320,192,18352,1,0,0:0:0:0:
448,192,18352,128,0,18592:0:0:0:0:
320,192,18592,128,0,18672:0:0:0:0:
320,192,18752,1,0,0:0:0:0:
192,192,18992,1,0,0:0:0:0:
64,192,19072,1,0,0:0:0:0:
64,192,19232,1,0,0:0:0:0:
192,192,19312,1,0,0:0:0:0:
320,192,19472,1,0,0:0:0:0:
192,192,19552,1,0,0:0:0:0:
448,192,19712,1,0,0:0:0:0:
64,192,19952,1,0,0:0:0:0:
192,192,20192,1,0,0:0:0:0:
448,192,20272,1,0,0:0:0:0:
448,192,20432,1,0,0:0:0:0:
64,192,20512,128,0,20672:0:0:0:0:
320,192,20752,1,0,0:0:0:0:
320,192,20912,1,0,0:0:0:0:
192,192,20992,1,0,0:0:0:0:
192,192,21152,1,0,0:0:0:0:
320,192,21232,1,0,0:0:0:0:
448,192,21392,1,0,0:0:0:0:
192,192,21472,1,0,0:0:0:0:
448,192,21632,1,0,0:0:0:0:
64,192,21872,128,0,21952:0:0:0:0:
192,192,22112,128,0,22192:0:0:0:0:
448,192,22192,128,0,22312:0:0:0:0:
64,192,22192,1,0,0:0:0:0:
448,192,22432,128,0,22552:0:0:0:0:
320,192,22432,128,0,22472:0:0:0:0:
448,192,22672,128,0,22752:0:0:0:0:
192,192,22672,128,0,22712:0:0:0:0:
448,192,22832,128,0,22952:0:0:0:0:
320,192,22832,128,0,22872:0:0:0:0:
64,192,23072,128,0,23192:0:0:0:0:
64,192,23312,128,0,23392:0:0:0:0:
448,192,23392,128,0,23512:0:0:0:0:
320,192,23392,128,0,23432:0:0:0:0:
448,192,23632,128,0,23752:0:0:0:0:
64,192,23632,128,0,23672:0:0:0:0:
320,192,23872,128,0,23952:0:0:0:0:
320,192,24032,128,0,24112:0:0:0:0:
448,192,24112,128,0,24232:0:0:0:0:
448,192,24352,128,0,24472:0:0:0:0:
64,192,24352,1,0,0:0:0:0:
320,192,24512,128,0,24592:0:0:0:0:
448,192,24592,128,0,24712:0:0:0:0:
192,192,24592,1,0,0:0:0:0:
320,192,24752,128,0,24832:0:0:0:0:
448,192,24832,128,0,24952:0:0:0:0:
64,192,24832,1,0,0:0:0:0:
192,192,24992,128,0,25072:0:0:0:0:
192,192,25232,128,0,25312:0:0:0:0:
64,192,25312,1,0,0:0:0:0:
448,192,25552,128,0,25792:0:0:0:0:
64,192,25552,1,0,0:0:0:0:
320,192,26032,128,0,26272:0:0:0:0:
192,192,26512,1,0,0:0:0:0:
192,192,26672,1,0,0:0:0:0:
64,192,26752,1,0,0:0:0:0:
320,192,26872,128,0,27032:0:0:0:0:
192,192,27232,1,0,0:0:0:0:
192,192,27392,1,0,0:0:0:0:
448,192,27472,1,0,0:0:0:0:
448,192,27632,1,0,0:0:0:0:
320,192,27712,1,0,0:0:0:0:
64,192,27952,128,0,28272:0:0:0:0:
448,192,28432,128,0,28512:0:0:0:0:
448,192,28592,128,0,28672:0:0:0:0:
320,192,28672,128,0,28752:0:0:0:0:
192,192,28832,128,0,28912:0:0:0:0:
320,192,28912,128,0,28992:0:0:0:0:
192,192,29072,128,0,29152:0:0:0:0:
64,192,29152,128,0,29232:0:0:0:0:
192,192,29312,128,0,29392:0:0:0:0:
64,192,29392,128,0,29472:0:0:0:0:
192,192,29632,1,0,0:0:0:0:
320,192,29632,128,0,29712:0:0:0:0:
192,192,29792,1,0,0:0:0:0:
64,192,29872,1,0,0:0:0:0:
448,192,29872,128,0,29952:0:0:0:0:
64,192,30032,1,0,0:0:0:0:
448,192,30032,128,0,30112:0:0:0:0:
320,192,30112,128,0,30352:0:0:0:0:
192,192,30112,1,0,0:0:0:0:
192,192,30352,1,0,0:0:0:0:
64,192,30512,1,0,0:0:0:0:
448,192,30512,128,0,30592:0:0:0:0:
320,192,30592,128,0,30672:0:0:0:0:
192,192,30592,1,0,0:0:0:0:
192,192,30752,1,0,0:0:0:0:
320,192,30752,128,0,30832:0:0:0:0:
64,192,30832,1,0,0:0:0:0:
448,192,30832,128,0,30912:0:0:0:0:
320,192,31552,1,0,0:0:0:0:
192,192,31552,128,0,31632:0:0:0:0:
192,192,31712,128,0,31792:0:0:0:0:
320,192,31792,128,0,31872:0:0:0:0:
320,192,31952,128,0,32032:0:0:0:0:
64,192,32032,128,0,32112:0:0:0:0:
448,192,32032,1,0,0:0:0:0:
64,192,32192,128,0,32272:0:0:0:0:
448,192,32192,1,0,0:0:0:0:
192,192,32272,128,0,32512:0:0:0:0:
320,192,32272,1,0,0:0:0:0:
64,192,32512,128,0,32592:0:0:0:0:
448,192,32512,1,0,0:0:0:0:
64,192,32672,128,0,32752:0:0:0:0:
448,192,32672,1,0,0:0:0:0:
192,192,32752,128,0,32832:0:0:0:0:
320,192,32752,1,0,0:0:0:0:
448,192,32992,1,0,0:0:0:0:
320,192,33072,1,0,0:0:0:0:
192,192,33152,1,0,0:0:0:0:
320,192,33232,128,0,33472:0:0:0:0:
64,192,33232,128,0,33312:0:0:0:0:
64,192,33392,128,0,33472:0:0:0:0:
192,192,33472,128,0,33712:0:0:0:0:
448,192,33472,128,0,33592:0:0:0:0:
448,192,33712,128,0,34032:0:0:0:0:
320,192,33712,1,0,0:0:0:0:
64,192,33712,128,0,34112:0:0:0:0:
448,192,34112,1,0,0:0:0:0:
320,192,34192,128,0,34672:0:0:0:0:
192,192,34192,128,0,34672:0:0:0:0:
192,192,35152,128,0,35232:0:0:0:0:
64,192,35152,1,0,0:0:0:0:
192,192,35312,128,0,35392:0:0:0:0:
320,192,35392,128,0,35632:0:0:0:0:
64,192,35392,128,0,35552:0:0:0:0:
448,192,35632,128,0,35952:0:0:0:0:
192,192,35632,128,0,36032:0:0:0:0:
320,192,36032,1,0,0:0:0:0:
192,192,36112,1,0,0:0:0:0:
448,192,36352,128,0,36672:0:0:0:0:
192,192,36352,128,0,36752:0:0:0:0:
64,192,36752,1,0,0:0:0:0:
320,192,36832,1,0,0:0:0:0:
320,192,37552,128,0,37712:0:0:0:0:
64,192,37552,1,0,0:0:0:0:
320,192,37792,128,0,37952:0:0:0:0:
192,192,37792,1,0,0:0:0:0:
320,192,38032,128,0,38272:0:0:0:0:
64,192,38032,1,0,0:0:0:0:
64,192,38272,128,0,38352:0:0:0:0:
192,192,38272,1,0,0:0:0:0:
64,192,38432,1,0,0:0:0:0:
320,192,38432,128,0,38512:0:0:0:0:
192,192,38752,1,0,0:0:0:0:
448,192,38752,128,0,38912:0:0:0:0:
448,192,38992,1,0,0:0:0:0:
320,192,38992,128,0,39112:0:0:0:0:
64,192,39232,128,0,39312:0:0:0:0:
192,192,39232,1,0,0:0:0:0:
192,192,39472,128,0,39632:0:0:0:0:
320,192,39472,1,0,0:0:0:0:
192,192,39712,128,0,39872:0:0:0:0:
448,192,39712,1,0,0:0:0:0:
192,192,39952,128,0,40192:0:0:0:0:
320,192,39952,1,0,0:0:0:0:
64,192,40192,1,0,0:0:0:0:
448,192,40192,128,0,40272:0:0:0:0:
192,192,40352,128,0,40432:0:0:0:0:
448,192,40352,1,0,0:0:0:0:
64,192,40672,1,0,0:0:0:0:
192,192,40752,1,0,0:0:0:0:
320,192,40832,1,0,0:0:0:0:
448,192,40912,128,0,40992:0:0:0:0:
192,192,40912,128,0,41152:0:0:0:0:
448,192,41072,128,0,41152:0:0:0:0:
320,192,41152,128,0,41392:0:0:0:0:
64,192,41152,128,0,41272:0:0:0:0:
64,192,41392,128,0,41712:0:0:0:0:
192,192,41392,1,0,0:0:0:0:
448,192,41392,128,0,41792:0:0:0:0:
64,192,41792,1,0,0:0:0:0:
192,192,41872,128,0,42352:0:0:0:0:
320,192,41872,128,0,42352:0:0:0:0:
448,192,43072,128,0,43152:0:0:0:0:
192,192,43072,128,0,43152:0:0:0:0:
320,192,43312,128,0,43552:0:0:0:0:
64,192,43312,128,0,43552:0:0:0:0:
192,192,43552,128,0,43792:0:0:0:0:
448,192,43552,128,0,43792:0:0:0:0:
64,192,43792,128,0,43872:0:0:0:0:
320,192,43792,128,0,43872:0:0:0:0:
192,192,44032,128,0,44152:0:0:0:0:
448,192,44032,128,0,44152:0:0:0:0:
320,192,44192,128,0,44232:0:0:0:0:
64,192,44192,128,0,44232:0:0:0:0:
192,192,44512,128,0,44592:0:0:0:0:
448,192,44512,128,0,44592:0:0:0:0:
64,192,44752,128,0,44992:0:0:0:0:
320,192,44752,128,0,44992:0:0:0:0:
192,192,44992,128,0,45232:0:0:0:0:
448,192,44992,128,0,45072:0:0:0:0:
448,192,45152,128,0,45232:0:0:0:0:
320,192,45232,128,0,45312:0:0:0:0:
64,192,45232,128,0,45312:0:0:0:0:
64,192,45392,128,0,45472:0:0:0:0:
320,192,45392,128,0,45472:0:0:0:0:
192,192,45472,128,0,45592:0:0:0:0:
448,192,45472,128,0,45592:0:0:0:0:
320,192,45632,128,0,45672:0:0:0:0:
64,192,45632,128,0,45672:0:0:0:0:
192,192,45952,1,0,0:0:0:0:
64,192,45952,128,0,46192:0:0:0:0:
320,192,46192,1,0,0:0:0:0:
448,192,46192,128,0,46432:0:0:0:0:
192,192,46432,1,0,0:0:0:0:
64,192,46432,128,0,46672:0:0:0:0:
320,192,46672,1,0,0:0:0:0:
448,192,46672,128,0,46912:0:0:0:0:
192,192,46912,1,0,0:0:0:0:
64,192,46912,128,0,46992:0:0:0:0:
64,192,47072,1,0,0:0:0:0:
320,192,47152,128,0,47392:0:0:0:0:
448,192,47152,128,0,47392:0:0:0:0:
192,192,47392,128,0,47632:0:0:0:0:
320,192,47632,128,0,47872:0:0:0:0:
192,192,47872,128,0,48112:0:0:0:0:
320,192,48112,128,0,48352:0:0:0:0:
64,192,48352,1,0,0:0:0:0:
192,192,48352,1,0,0:0:0:0:
192,192,48592,1,0,0:0:0:0:
320,192,48592,1,0,0:0:0:0:
448,192,48832,1,0,0:0:0:0:
64,192,49072,128,0,49312:0:0:0:0:
192,192,49072,128,0,49312:0:0:0:0:
448,192,49072,1,0,0:0:0:0:
320,192,49312,1,0,0:0:0:0:
320,192,49472,1,0,0:0:0:0:
448,192,49552,1,0,0:0:0:0:
320,192,49792,1,0,0:0:0:0:
192,192,49792,128,0,50032:0:0:0:0:
448,192,50032,1,0,0:0:0:0:
64,192,50032,128,0,50112:0:0:0:0:
320,192,50512,1,0,0:0:0:0:
320,192,50752,1,0,0:0:0:0:
448,192,51232,1,0,0:0:0:0:
192,192,51232,128,0,51312:0:0:0:0:
64,192,51472,128,0,51552:0:0:0:0:
320,192,51592,1,0,0:0:0:0:
192,192,51712,128,0,51792:0:0:0:0:
448,192,51952,1,0,0:0:0:0:
192,192,52192,128,0,52272:0:0:0:0:
64,192,52432,128,0,52912:0:0:0:0:
320,192,52432,128,0,52912:0:0:0:0:
192,192,52912,1,0,0:0:0:0:
448,192,52912,128,0,53392:0:0:0:0:
64,192,53152,1,0,0:0:0:0:
64,192,53312,1,0,0:0:0:0:
192,192,53392,1,0,0:0:0:0:
64,192,53632,1,0,0:0:0:0:
320,192,53632,128,0,53872:0:0:0:0:
192,192,53872,1,0,0:0:0:0:
448,192,53872,128,0,53952:0:0:0:0:
64,192,54352,1,0,0:0:0:0:
320,192,54352,128,0,54432:0:0:0:0:
320,192,54832,128,0,55312:0:0:0:0:
192,192,54832,1,0,0:0:0:0:
64,192,54992,1,0,0:0:0:0:
64,192,55152,1,0,0:0:0:0:
192,192,55312,128,0,55792:0:0:0:0:
448,192,55312,1,0,0:0:0:0:
320,192,55472,1,0,0:0:0:0:
320,192,55632,1,0,0:0:0:0:
64,192,55792,128,0,55912:0:0:0:0:
448,192,55792,128,0,55912:0:0:0:0:
64,192,56032,1,0,0:0:0:0:
448,192,56032,1,0,0:0:0:0:
192,192,56272,128,0,56592:0:0:0:0:
320,192,56272,1,0,0:0:0:0:
448,192,56752,1,0,0:0:0:0:
64,192,56752,128,0,57152:0:0:0:0:
448,192,56912,1,0,0:0:0:0:
448,192,57072,1,0,0:0:0:0:
320,192,57232,1,0,0:0:0:0:
64,192,57232,128,0,57632:0:0:0:0:
448,192,57392,1,0,0:0:0:0:
448,192,57552,1,0,0:0:0:0:
320,192,57712,1,0,0:0:0:0:
64,192,57712,128,0,57832:0:0:0:0:
448,192,57872,1,0,0:0:0:0:
192,192,57872,128,0,57952:0:0:0:0:
192,192,58192,1,0,0:0:0:0:
64,192,58192,128,0,58272:0:0:0:0:
320,192,58512,128,0,58672:0:0:0:0:
64,192,58512,1,0,0:0:0:0:
192,192,58672,128,0,58832:0:0:0:0:
448,192,58672,1,0,0:0:0:0:
448,192,58832,1,0,0:0:0:0:
320,192,58992,128,0,59152:0:0:0:0:
64,192,58992,1,0,0:0:0:0:
192,192,59152,1,0,0:0:0:0:
448,192,59312,128,0,59472:0:0:0:0:
64,192,59312,1,0,0:0:0:0:
192,192,59472,128,0,59632:0:0:0:0:
320,192,59472,1,0,0:0:0:0:
64,192,59632,128,0,59792:0:0:0:0:
448,192,59632,1,0,0:0:0:0:
320,192,59792,1,0,0:0:0:0:
448,192,60112,128,0,60232:0:0:0:0:
64,192,60112,1,0,0:0:0:0:
192,192,60352,128,0,60432:0:0:0:0:
192,192,60512,128,0,60592:0:0:0:0:
64,192,60592,1,0,0:0:0:0:
320,192,60592,128,0,60832:0:0:0:0:
448,192,60832,128,0,60912:0:0:0:0:
192,192,60832,1,0,0:0:0:0:
448,192,60992,128,0,61072:0:0:0:0:
64,192,61072,1,0,0:0:0:0:
320,192,61072,128,0,61152:0:0:0:0:
192,192,61312,1,0,0:0:0:0:
448,192,61312,128,0,61392:0:0:0:0:
448,192,61472,128,0,61552:0:0:0:0:
64,192,61552,1,0,0:0:0:0:
320,192,61552,128,0,61632:0:0:0:0:
320,192,61712,128,0,61792:0:0:0:0:
448,192,61792,128,0,61872:0:0:0:0:
192,192,61792,1,0,0:0:0:0:
64,192,61952,1,0,0:0:0:0:
320,192,62192,128,0,62272:0:0:0:0:
448,192,62272,128,0,62432:0:0:0:0:
320,192,62432,128,0,62512:0:0:0:0:
448,192,62512,128,0,62672:0:0:0:0:
192,192,62672,128,0,62752:0:0:0:0:
320,192,62752,128,0,62992:0:0:0:0:
192,192,62992,128,0,63072:0:0:0:0:
320,192,63152,128,0,63232:0:0:0:0:
192,192,63232,128,0,63312:0:0:0:0:
320,192,63392,128,0,63472:0:0:0:0:
448,192,63472,128,0,63552:0:0:0:0:
320,192,63632,128,0,63712:0:0:0:0:
192,192,63712,128,0,63832:0:0:0:0:
64,192,63872,128,0,63912:0:0:0:0:
192,192,64192,1,0,0:0:0:0:
320,192,64272,1,0,0:0:0:0:
192,192,64352,1,0,0:0:0:0:
448,192,64432,1,0,0:0:0:0:
64,192,64432,128,0,64672:0:0:0:0:
448,192,64672,128,0,64912:0:0:0:0:
192,192,64912,1,0,0:0:0:0:
192,192,65072,1,0,0:0:0:0:
320,192,65152,1,0,0:0:0:0:
320,192,65312,1,0,0:0:0:0:
64,192,65392,1,0,0:0:0:0:
64,192,65552,1,0,0:0:0:0:
448,192,65632,1,0,0:0:0:0:
64,192,65792,1,0,0:0:0:0:
448,192,65872,1,0,0:0:0:0:
320,192,66112,1,0,0:0:0:0:
192,192,66192,1,0,0:0:0:0:
320,192,66272,1,0,0:0:0:0:
448,192,66352,1,0,0:0:0:0:
64,192,66592,128,0,66632:0:0:0:0:
448,192,66832,128,0,66872:0:0:0:0:
192,192,67072,1,0,0:0:0:0:
64,192,67072,1,0,0:0:0:0:
64,192,67232,1,0,0:0:0:0:
320,192,67312,1,0,0:0:0:0:
320,192,67472,1,0,0:0:0:0:
192,192,67552,1,0,0:0:0:0:
320,192,67712,1,0,0:0:0:0:
64,192,67792,128,0,68112:0:0:0:0:
192,192,68272,128,0,68472:0:0:0:0:
320,192,68272,1,0,0:0:0:0:
448,192,68512,128,0,68592:0:0:0:0:
320,192,68672,128,0,68752:0:0:0:0:
64,192,68752,128,0,68832:0:0:0:0:
192,192,68992,128,0,69072:0:0:0:0:
448,192,68992,128,0,69072:0:0:0:0:
320,192,69232,128,0,69312:0:0:0:0:
64,192,69232,128,0,69312:0:0:0:0:
320,192,69472,128,0,69512:0:0:0:0:
192,192,69472,128,0,69512:0:0:0:0:
64,192,69712,128,0,69752:0:0:0:0:
192,192,69712,128,0,69752:0:0:0:0:
448,192,69952,128,0,69992:0:0:0:0:
320,192,69952,128,0,69992:0:0:0:0:
64,192,70192,1,0,0:0:0:0:
448,192,71632,1,0,0:0:0:0:
320,192,72112,128,0,72352:0:0:0:0:
192,192,72592,1,0,0:0:0:0:
192,192,72752,1,0,0:0:0:0:
64,192,72832,1,0,0:0:0:0:
320,192,72952,128,0,73112:0:0:0:0:
192,192,73312,1,0,0:0:0:0:
192,192,73472,1,0,0:0:0:0:
448,192,73552,1,0,0:0:0:0:
448,192,73712,1,0,0:0:0:0:
320,192,73792,1,0,0:0:0:0:
64,192,74032,128,0,74352:0:0:0:0:
64,192,74432,128,0,74512:0:0:0:0:
448,192,74512,128,0,74592:0:0:0:0:
448,192,74672,128,0,74752:0:0:0:0:
320,192,74752,128,0,74832:0:0:0:0:
192,192,74912,128,0,74992:0:0:0:0:
320,192,74992,128,0,75072:0:0:0:0:
192,192,75152,128,0,75232:0:0:0:0:
64,192,75232,128,0,75312:0:0:0:0:
192,192,75392,128,0,75472:0:0:0:0:
64,192,75472,128,0,75552:0:0:0:0:
192,192,75712,1,0,0:0:0:0:
320,192,75712,128,0,75792:0:0:0:0:
192,192,75872,1,0,0:0:0:0:
64,192,75952,1,0,0:0:0:0:
448,192,75952,128,0,76032:0:0:0:0:
64,192,76112,1,0,0:0:0:0:
448,192,76112,128,0,76192:0:0:0:0:
320,192,76192,128,0,76512:0:0:0:0:
192,192,76192,1,0,0:0:0:0:
64,192,76592,1,0,0:0:0:0:
448,192,76592,128,0,76672:0:0:0:0:
320,192,76672,128,0,76752:0:0:0:0:
192,192,76672,1,0,0:0:0:0:
192,192,76832,1,0,0:0:0:0:
320,192,76832,128,0,76912:0:0:0:0:
64,192,76912,1,0,0:0:0:0:
448,192,76912,128,0,76992:0:0:0:0:
320,192,77632,1,0,0:0:0:0:
192,192,77632,128,0,77712:0:0:0:0:
192,192,77792,128,0,77872:0:0:0:0:
320,192,77872,128,0,77952:0:0:0:0:
320,192,78032,128,0,78112:0:0:0:0:
64,192,78112,128,0,78192:0:0:0:0:
448,192,78112,1,0,0:0:0:0:
64,192,78272,128,0,78352:0:0:0:0:
448,192,78272,1,0,0:0:0:0:
192,192,78352,128,0,78512:0:0:0:0:
320,192,78352,1,0,0:0:0:0:
320,192,78512,1,0,0:0:0:0:
64,192,78592,128,0,78672:0:0:0:0:
448,192,78592,1,0,0:0:0:0:
64,192,78752,128,0,78832:0:0:0:0:
448,192,78752,1,0,0:0:0:0:
192,192,78832,128,0,78952:0:0:0:0:
320,192,78832,1,0,0:0:0:0:
448,192,79072,1,0,0:0:0:0:
320,192,79152,1,0,0:0:0:0:
192,192,79232,1,0,0:0:0:0:
320,192,79312,128,0,79552:0:0:0:0:
64,192,79312,128,0,79392:0:0:0:0:
64,192,79472,128,0,79552:0:0:0:0:
192,192,79552,128,0,79792:0:0:0:0:
448,192,79552,128,0,79672:0:0:0:0:
448,192,79792,128,0,80112:0:0:0:0:
320,192,79792,1,0,0:0:0:0:
64,192,79792,128,0,80192:0:0:0:0:
448,192,80192,1,0,0:0:0:0:
320,192,80272,128,0,80752:0:0:0:0:
192,192,80272,128,0,80752:0:0:0:0:
192,192,81232,128,0,81312:0:0:0:0:
64,192,81232,1,0,0:0:0:0:
192,192,81392,128,0,81472:0:0:0:0:
320,192,81472,128,0,81552:0:0:0:0:
64,192,81472,128,0,81632:0:0:0:0:
320,192,81632,128,0,81712:0:0:0:0:
448,192,81712,128,0,82032:0:0:0:0:
192,192,81712,128,0,82112:0:0:0:0:
320,192,82112,1,0,0:0:0:0:
192,192,82192,1,0,0:0:0:0:
448,192,82432,128,0,82752:0:0:0:0:
192,192,82432,128,0,82832:0:0:0:0:
64,192,82832,1,0,0:0:0:0:
448,192,82912,1,0,0:0:0:0:
448,192,83632,128,0,83792:0:0:0:0:
64,192,83632,1,0,0:0:0:0:
448,192,83872,128,0,84032:0:0:0:0:
320,192,83872,1,0,0:0:0:0:
448,192,84112,128,0,84352:0:0:0:0:
64,192,84112,1,0,0:0:0:0:
320,192,84352,128,0,84432:0:0:0:0:
64,192,84352,1,0,0:0:0:0:
448,192,84512,1,0,0:0:0:0:
64,192,84512,128,0,84592:0:0:0:0:
192,192,84832,1,0,0:0:0:0:
448,192,84832,128,0,84992:0:0:0:0:
192,192,85072,128,0,85192:0:0:0:0:
320,192,85072,1,0,0:0:0:0:
320,192,85312,128,0,85392:0:0:0:0:
64,192,85312,1,0,0:0:0:0:
64,192,85552,128,0,85712:0:0:0:0:
192,192,85552,1,0,0:0:0:0:
64,192,85792,128,0,85952:0:0:0:0:
448,192,85792,1,0,0:0:0:0:
64,192,86032,128,0,86272:0:0:0:0:
192,192,86032,1,0,0:0:0:0:
448,192,86272,1,0,0:0:0:0:
192,192,86272,128,0,86352:0:0:0:0:
448,192,86432,128,0,86512:0:0:0:0:
64,192,86432,1,0,0:0:0:0:
64,192,86752,1,0,0:0:0:0:
192,192,86832,1,0,0:0:0:0:
320,192,86912,1,0,0:0:0:0:
448,192,86992,128,0,87072:0:0:0:0:
192,192,86992,128,0,87232:0:0:0:0:
448,192,87152,128,0,87232:0:0:0:0:
320,192,87232,128,0,87472:0:0:0:0:
64,192,87232,128,0,87352:0:0:0:0:
64,192,87472,128,0,87792:0:0:0:0:
192,192,87472,1,0,0:0:0:0:
448,192,87472,128,0,87872:0:0:0:0:
64,192,87872,1,0,0:0:0:0:
192,192,87952,128,0,88432:0:0:0:0:
320,192,87952,128,0,88432:0:0:0:0:
448,192,89152,128,0,89232:0:0:0:0:
192,192,89152,128,0,89232:0:0:0:0:
320,192,89392,128,0,89632:0:0:0:0:
64,192,89392,128,0,89632:0:0:0:0:
192,192,89632,128,0,89872:0:0:0:0:
448,192,89632,128,0,89872:0:0:0:0:
64,192,89872,128,0,89952:0:0:0:0:
320,192,89872,128,0,89952:0:0:0:0:
192,192,90112,128,0,90232:0:0:0:0:
448,192,90112,128,0,90232:0:0:0:0:
64,192,90272,128,0,90312:0:0:0:0:
320,192,90272,128,0,90312:0:0:0:0:
320,192,90592,128,0,90672:0:0:0:0:
448,192,90592,128,0,90672:0:0:0:0:
64,192,90832,128,0,91072:0:0:0:0:
192,192,90832,128,0,91072:0:0:0:0:
320,192,91072,128,0,91152:0:0:0:0:
448,192,91072,128,0,91152:0:0:0:0:
448,192,91232,128,0,91312:0:0:0:0:
320,192,91312,128,0,91392:0:0:0:0:
64,192,91312,128,0,91392:0:0:0:0:
64,192,91472,128,0,91552:0:0:0:0:
320,192,91472,128,0,91552:0:0:0:0:
192,192,91552,128,0,91672:0:0:0:0:
448,192,91552,128,0,91672:0:0:0:0:
320,192,91712,128,0,91752:0:0:0:0:
64,192,91712,128,0,91752:0:0:0:0:
320,192,92032,1,0,0:0:0:0:
192,192,92032,128,0,92272:0:0:0:0:
64,192,92272,1,0,0:0:0:0:
448,192,92272,128,0,92512:0:0:0:0:
320,192,92512,128,0,92752:0:0:0:0:
192,192,92512,1,0,0:0:0:0:
448,192,92752,1,0,0:0:0:0:
64,192,92752,128,0,92992:0:0:0:0:
192,192,92992,128,0,93232:0:0:0:0:
320,192,92992,1,0,0:0:0:0:
64,192,93232,128,0,93472:0:0:0:0:
448,192,93232,128,0,93472:0:0:0:0:
320,192,93472,128,0,93712:0:0:0:0:
192,192,93472,128,0,93712:0:0:0:0:
448,192,93712,128,0,93952:0:0:0:0:
64,192,93712,128,0,93952:0:0:0:0:
192,192,93952,128,0,94192:0:0:0:0:
320,192,93952,128,0,94192:0:0:0:0:
448,192,94192,1,0,0:0:0:0:
64,192,94192,1,0,0:0:0:0:
320,192,94432,128,0,94672:0:0:0:0:
64,192,94432,128,0,94672:0:0:0:0:
192,192,94672,128,0,94752:0:0:0:0:
448,192,94672,128,0,94832:0:0:0:0:
192,192,94832,1,0,0:0:0:0:
448,192,94912,1,0,0:0:0:0:
320,192,95152,128,0,95432:0:0:0:0:
192,192,95152,128,0,95432:0:0:0:0:
64,192,95472,1,0,0:0:0:0:
448,192,96592,128,0,97072:0:0:0:0:
64,192,97072,128,0,97552:0:0:0:0:
192,192,97072,1,0,0:0:0:0:
320,192,97392,128,0,97432:0:0:0:0:
64,192,97792,128,0,97872:0:0:0:0:
192,192,97792,128,0,97872:0:0:0:0:
448,192,98032,128,0,98072:0:0:0:0:
320,192,98272,128,0,98312:0:0:0:0:
192,192,98512,128,0,98552:0:0:0:0:
64,192,98752,128,0,98792:0:0:0:0:
320,192,98992,128,0,99232:0:0:0:0:
448,192,98992,128,0,99232:0:0:0:0:
64,192,99712,128,0,99752:0:0:0:0:
192,192,99712,128,0,99752:0:0:0:0:
448,192,99952,128,0,99992:0:0:0:0:
320,192,100192,128,0,100232:0:0:0:0:
64,192,100432,128,0,100472:0:0:0:0:
192,192,100672,128,0,100712:0:0:0:0:
448,192,100912,128,0,101272:0:0:0:0:
64,192,100912,128,0,101272:0:0:0:0:
192,192,101632,128,0,101712:0:0:0:0:
320,192,101632,128,0,101712:0:0:0:0:
320,192,101792,128,0,101832:0:0:0:0:
192,192,102112,1,0,0:0:0:0:
192,192,102272,1,0,0:0:0:0:
320,192,102352,128,0,102432:0:0:0:0:
64,192,102352,128,0,102432:0:0:0:0:
320,192,102592,128,0,102672:0:0:0:0:
320,192,102752,1,0,0:0:0:0:
192,192,102832,1,0,0:0:0:0:
448,192,102832,128,0,102992:0:0:0:0:
192,192,103072,1,0,0:0:0:0:
320,192,103072,128,0,103232:0:0:0:0:
64,192,103312,1,0,0:0:0:0:
192,192,103312,128,0,103472:0:0:0:0:
64,192,103552,128,0,103672:0:0:0:0:
320,192,103792,128,0,103832:0:0:0:0:
448,192,103792,128,0,103832:0:0:0:0:
64,192,104032,128,0,104072:0:0:0:0:
192,192,104032,128,0,104072:0:0:0:0:
64,192,104272,128,0,104312:0:0:0:0:
320,192,104272,128,0,104312:0:0:0:0:
320,192,104512,128,0,104552:0:0:0:0:
448,192,104512,128,0,104552:0:0:0:0:
448,192,104752,128,0,105112:0:0:0:0:
64,192,104752,128,0,105112:0:0:0:0:
320,192,105472,128,0,105552:0:0:0:0:
192,192,105472,128,0,105552:0:0:0:0:
192,192,105632,128,0,105672:0:0:0:0:
64,192,106432,128,0,106552:0:0:0:0:
320,192,106432,128,0,106512:0:0:0:0:
320,192,106592,128,0,106672:0:0:0:0:
64,192,106672,1,0,0:0:0:0:
192,192,108352,5,0,0:0:0:0:
320,192,108352,128,0,108432:0:0:0:0:
320,192,108512,128,0,108592:0:0:0:0:
64,192,108592,1,0,0:0:0:0:
448,192,108592,128,0,108672:0:0:0:0:
64,192,108752,1,0,0:0:0:0:
448,192,108752,128,0,108832:0:0:0:0:
320,192,108832,128,0,109232:0:0:0:0:
192,192,108832,1,0,0:0:0:0:
64,192,109232,1,0,0:0:0:0:
448,192,109232,128,0,109312:0:0:0:0:
320,192,109312,128,0,109392:0:0:0:0:
192,192,109312,1,0,0:0:0:0:
192,192,109472,1,0,0:0:0:0:
320,192,109472,128,0,109552:0:0:0:0:
448,192,109552,128,0,109632:0:0:0:0:
64,192,109552,1,0,0:0:0:0:
320,192,110272,1,0,0:0:0:0:
192,192,110272,128,0,110352:0:0:0:0:
192,192,110432,128,0,110512:0:0:0:0:
320,192,110512,128,0,110592:0:0:0:0:
320,192,110672,128,0,110752:0:0:0:0:
64,192,110752,128,0,110832:0:0:0:0:
448,192,110752,1,0,0:0:0:0:
64,192,110912,128,0,110992:0:0:0:0:
448,192,110912,1,0,0:0:0:0:
192,192,110992,128,0,111072:0:0:0:0:
320,192,110992,1,0,0:0:0:0:
320,192,111152,1,0,0:0:0:0:
192,192,111152,128,0,111232:0:0:0:0:
64,192,111232,128,0,111312:0:0:0:0:
448,192,111232,1,0,0:0:0:0:
64,192,111392,128,0,111472:0:0:0:0:
448,192,111392,1,0,0:0:0:0:
192,192,111472,128,0,111592:0:0:0:0:
320,192,111472,1,0,0:0:0:0:
448,192,111712,1,0,0:0:0:0:
320,192,111792,1,0,0:0:0:0:
192,192,111872,1,0,0:0:0:0:
320,192,111952,128,0,112192:0:0:0:0:
64,192,111952,128,0,112032:0:0:0:0:
64,192,112112,128,0,112192:0:0:0:0:
192,192,112192,128,0,112432:0:0:0:0:
448,192,112192,128,0,112312:0:0:0:0:
448,192,112432,128,0,112752:0:0:0:0:
320,192,112432,1,0,0:0:0:0:
64,192,112432,128,0,112832:0:0:0:0:
448,192,112832,1,0,0:0:0:0:
320,192,112912,128,0,113392:0:0:0:0:
192,192,112912,128,0,113392:0:0:0:0:
192,192,113872,128,0,113952:0:0:0:0:
64,192,113872,1,0,0:0:0:0:
192,192,114032,128,0,114112:0:0:0:0:
320,192,114112,128,0,114192:0:0:0:0:
64,192,114112,128,0,114272:0:0:0:0:
320,192,114272,128,0,114352:0:0:0:0:
448,192,114352,128,0,114672:0:0:0:0:
192,192,114352,128,0,114752:0:0:0:0:
320,192,114752,1,0,0:0:0:0:
192,192,114832,1,0,0:0:0:0:
448,192,115072,128,0,115392:0:0:0:0:
192,192,115072,128,0,115472:0:0:0:0:
64,192,115472,1,0,0:0:0:0:
320,192,115552,1,0,0:0:0:0:
320,192,116272,128,0,116432:0:0:0:0:
64,192,116272,1,0,0:0:0:0:
320,192,116512,128,0,116672:0:0:0:0:
192,192,116512,1,0,0:0:0:0:
320,192,116752,128,0,116992:0:0:0:0:
64,192,116752,1,0,0:0:0:0:
64,192,116992,128,0,117072:0:0:0:0:
192,192,116992,1,0,0:0:0:0:
64,192,117152,1,0,0:0:0:0:
320,192,117152,128,0,117232:0:0:0:0:
192,192,117472,1,0,0:0:0:0:
448,192,117472,128,0,117632:0:0:0:0:
448,192,117712,1,0,0:0:0:0:
320,192,117712,128,0,117832:0:0:0:0:
64,192,117952,128,0,118032:0:0:0:0:
192,192,117952,1,0,0:0:0:0:
320,192,118192,1,0,0:0:0:0:
192,192,118192,128,0,118352:0:0:0:0:
192,192,118432,128,0,118592:0:0:0:0:
448,192,118432,1,0,0:0:0:0:
192,192,118672,128,0,118912:0:0:0:0:
320,192,118672,1,0,0:0:0:0:
64,192,118912,1,0,0:0:0:0:
448,192,118912,128,0,118992:0:0:0:0:
192,192,119072,128,0,119152:0:0:0:0:
448,192,119072,1,0,0:0:0:0:
64,192,119392,1,0,0:0:0:0:
192,192,119472,1,0,0:0:0:0:
320,192,119552,1,0,0:0:0:0:
448,192,119632,128,0,119712:0:0:0:0:
192,192,119632,128,0,119872:0:0:0:0:
448,192,119792,128,0,119872:0:0:0:0:
320,192,119872,128,0,120112:0:0:0:0:
64,192,119872,128,0,119992:0:0:0:0:
64,192,120112,128,0,120432:0:0:0:0:
192,192,120112,1,0,0:0:0:0:
448,192,120112,128,0,120512:0:0:0:0:
64,192,120512,1,0,0:0:0:0:
192,192,120592,128,0,121072:0:0:0:0:
320,192,120592,128,0,121072:0:0:0:0:
448,192,121792,128,0,121872:0:0:0:0:
192,192,121792,128,0,121872:0:0:0:0:
320,192,122032,128,0,122272:0:0:0:0:
64,192,122032,128,0,122272:0:0:0:0:
192,192,122272,128,0,122512:0:0:0:0:
448,192,122272,128,0,122512:0:0:0:0:
64,192,122512,128,0,122592:0:0:0:0:
320,192,122512,128,0,122592:0:0:0:0:
192,192,122752,128,0,122872:0:0:0:0:
448,192,122752,128,0,122872:0:0:0:0:
320,192,122912,128,0,122952:0:0:0:0:
64,192,122912,128,0,122952:0:0:0:0:
192,192,123232,128,0,123312:0:0:0:0:
448,192,123232,128,0,123312:0:0:0:0:
64,192,123472,128,0,123712:0:0:0:0:
320,192,123472,128,0,123712:0:0:0:0:
192,192,123712,128,0,123952:0:0:0:0:
448,192,123712,128,0,123792:0:0:0:0:
448,192,123872,128,0,123952:0:0:0:0:
320,192,123952,128,0,124032:0:0:0:0:
64,192,123952,128,0,124032:0:0:0:0:
64,192,124112,128,0,124192:0:0:0:0:
320,192,124112,128,0,124192:0:0:0:0:
192,192,124192,128,0,124312:0:0:0:0:
448,192,124192,128,0,124312:0:0:0:0:
320,192,124352,128,0,124392:0:0:0:0:
64,192,124352,128,0,124392:0:0:0:0:
192,192,124672,1,0,0:0:0:0:
64,192,124672,128,0,124912:0:0:0:0:
320,192,124912,1,0,0:0:0:0:
448,192,124912,128,0,125152:0:0:0:0:
192,192,125152,1,0,0:0:0:0:
64,192,125152,128,0,125392:0:0:0:0:
320,192,125392,1,0,0:0:0:0:
448,192,125392,128,0,125632:0:0:0:0:
192,192,125632,1,0,0:0:0:0:
64,192,125632,128,0,125712:0:0:0:0:
64,192,125792,1,0,0:0:0:0:
320,192,125872,128,0,126112:0:0:0:0:
448,192,125872,128,0,126112:0:0:0:0:
192,192,126112,128,0,126352:0:0:0:0:
320,192,126352,128,0,126592:0:0:0:0:
192,192,126592,128,0,126832:0:0:0:0:
320,192,126832,128,0,127072:0:0:0:0:
64,192,127072,1,0,0:0:0:0:
192,192,127072,1,0,0:0:0:0:
192,192,127312,1,0,0:0:0:0:
320,192,127312,1,0,0:0:0:0:
448,192,127552,1,0,0:0:0:0:
64,192,127792,128,0,128032:0:0:0:0:
192,192,127792,128,0,128192:0:0:0:0:
448,192,127792,1,0,0:0:0:0:
320,192,128032,1,0,0:0:0:0:
320,192,128192,1,0,0:0:0:0:
64,192,128192,128,0,128272:0:0:0:0:
448,192,128272,1,0,0:0:0:0:
320,192,128512,1,0,0:0:0:0:
192,192,128512,1,0,0:0:0:0:
448,192,128752,1,0,0:0:0:0:
64,192,128752,1,0,0:0:0:0:
320,192,129232,1,0,0:0:0:0:
320,192,129472,1,0,0:0:0:0:
448,192,129952,1,0,0:0:0:0:
192,192,129952,128,0,130032:0:0:0:0:
64,192,130192,128,0,130272:0:0:0:0:
320,192,130312,1,0,0:0:0:0:
192,192,130432,128,0,130512:0:0:0:0:
448,192,130672,1,0,0:0:0:0:
192,192,130912,128,0,130992:0:0:0:0:
64,192,131152,128,0,131912:0:0:0:0:
320,192,131152,128,0,131632:0:0:0:0:
448,192,131632,128,0,132112:0:0:0:0:
192,192,131632,128,0,132032:0:0:0:0:
64,192,132032,128,0,132112:0:0:0:0:
192,192,132112,1,0,0:0:0:0:
320,192,132112,1,0,0:0:0:0:
192,192,132352,1,0,0:0:0:0:
320,192,132352,128,0,132592:0:0:0:0:
64,192,132592,1,0,0:0:0:0:
448,192,132592,128,0,132672:0:0:0:0:
192,192,133072,1,0,0:0:0:0:
192,192,133312,1,0,0:0:0:0:
448,192,133552,128,0,133632:0:0:0:0:
64,192,133792,1,0,0:0:0:0:
320,192,133792,128,0,133872:0:0:0:0:
192,192,134032,1,0,0:0:0:0:
448,192,134032,128,0,134112:0:0:0:0:
64,192,134272,1,0,0:0:0:0:
320,192,134272,128,0,134352:0:0:0:0:
320,192,134432,1,0,0:0:0:0:
448,192,134512,128,0,134592:0:0:0:0:
192,192,134512,1,0,0:0:0:0:
320,192,134752,1,0,0:0:0:0:
192,192,134752,128,0,134832:0:0:0:0:
448,192,134992,128,0,135472:0:0:0:0:
64,192,134992,128,0,135472:0:0:0:0:
320,192,135472,128,0,135512:0:0:0:0:
