osu file format v14

[General]
AudioFilename: audio.mp3
AudioLeadIn: 0
PreviewTime: 48698
Countdown: 0
SampleSet: Soft
StackLeniency: 0.3
Mode: 0
LetterboxInBreaks: 0
WidescreenStoryboard: 1

[Editor]
DistanceSpacing: 0.2
BeatDivisor: 8
GridSize: 8
TimelineZoom: 4.799998

[Metadata]
Title:Ikouze*Paradise (Turbo Eurobeat Remix)
TitleUnicode:イこうぜ☆パラダイス (Turbo Eurobeat Remix)
Artist:Majima Junji, Kobayashi Yuusuke, Tomita Miyu
ArtistUnicode:間島淳司、小林裕介、富田美憂
Creator:schoolboy
Version:Insane
Source:異種族レビュアーズ
Tags:スタンク ゼル クリムヴェール turboautism ishuzoku reviewer electronic japanese maestrosplinter komore Interspecies Reviewers anime wenet wenect unranked_mapper unranked mapper stunk zel Crimvael
BeatmapID:3148852
BeatmapSetID:1540330

[Difficulty]
HPDrainRate:5
CircleSize:3.8
OverallDifficulty:7
ApproachRate:9
SliderMultiplier:1.8
SliderTickRate:1

[Events]
//Background and Video events
0,0,"2.jpeg",0,0
//Break Periods
2,112984,115093
//Storyboard Layer 0 (Background)
//Storyboard Layer 1 (Fail)
//Storyboard Layer 2 (Pass)
//Storyboard Layer 3 (Foreground)
//Storyboard Layer 4 (Overlay)
//Storyboard Sound Samples

[TimingPoints]
3693,363.636363636364,4,2,1,80,1,0
3693,-76.9230769230769,4,2,1,80,0,0
4056,-80,4,2,1,80,0,0
5874,-71.4285714285714,4,2,1,80,0,0
7147,-76.9230769230769,4,2,1,80,0,0
8329,-100,4,2,1,80,0,0
8783,-71.4285714285714,4,2,1,80,0,0
9511,-76.9230769230769,4,2,1,80,0,0
10056,-71.4285714285714,4,2,1,80,0,0
11511,-76.9230769230769,4,2,1,80,0,0
11874,-100,4,2,1,80,0,0
12056,-86.9565217391304,4,2,1,80,0,0
12238,-76.9230769230769,4,2,1,80,0,0
12602,-90.9090909090909,4,2,1,80,0,0
13874,-62.5,4,2,1,80,0,0
14147,-83.3333333333333,4,2,1,80,0,0
14420,-125,4,2,1,80,0,0
14602,-125,4,2,1,70,0,0
14965,-100,4,2,2,70,0,0
15329,-100,4,2,1,70,0,0
15693,-133.333333333333,4,2,2,70,0,0
16056,-80,4,2,1,75,0,0
16420,-76.9230769230769,4,2,1,75,0,0
16783,-76.9230769230769,4,2,1,70,0,0
17147,-100,4,2,1,70,0,0
18783,-80,4,2,1,70,0,0
19329,-62.5,4,2,1,70,0,0
19693,-76.9230769230769,4,2,1,70,0,0
20056,-100,4,2,1,70,0,0
21693,-80,4,2,1,70,0,0
22238,-62.5,4,2,1,70,0,0
22602,-76.9230769230769,4,2,1,70,0,0
22965,-100,4,2,1,70,0,0
25147,-71.4285714285714,4,2,1,70,0,0
25511,-66.6666666666667,4,2,1,70,0,0
26056,-83.3333333333333,4,2,1,70,0,0
26602,-100,4,2,1,70,0,0
26965,-90.9090909090909,4,2,1,70,0,0
28420,-76.9230769230769,4,2,1,70,0,0
28783,-100,4,2,1,70,0,0
30238,-80,4,2,1,70,0,0
30965,-62.5,4,2,1,70,0,0
31329,-76.9230769230769,4,2,1,70,0,0
31693,-100,4,2,1,70,0,0
33329,-80,4,2,1,70,0,0
33874,-62.5,4,2,1,70,0,0
34238,-76.9230769230769,4,2,1,70,0,0
34602,-100,4,2,1,70,0,0
42965,-204.081632653061,4,2,1,60,0,0
45874,-133.333333333333,4,2,1,60,0,0
46602,-133.333333333333,4,2,1,65,0,0
47329,-80,4,2,1,70,0,0
48783,-74.0740740740741,4,2,1,80,0,1
50965,-62.5,4,2,1,80,0,1
51693,-74.0740740740741,4,2,1,80,0,1
52965,-100,4,2,1,80,0,1
54602,-76.9230769230769,4,2,1,80,0,1
56965,-100,4,2,1,80,0,1
58965,-80,4,2,1,80,0,1
59693,-100,4,2,1,80,0,1
60420,-76.9230769230769,4,2,1,80,0,1
61329,-100,4,2,1,80,0,1
63329,-76.9230769230769,4,2,1,80,0,1
64602,-100,4,2,1,80,0,1
66238,-83.3333333333333,4,2,1,80,0,1
66783,-76.9230769230769,4,2,1,80,0,1
67693,-90.9090909090909,4,2,1,80,0,1
68602,-83.3333333333333,4,2,1,80,0,1
68783,-71.4285714285714,4,2,1,80,0,1
69511,-80,4,2,1,80,0,1
71147,-62.5,4,2,1,80,0,1
71329,-100,4,2,1,70,0,0
71693,-100,4,2,2,70,0,0
72056,-83.3333333333333,4,2,1,70,0,0
72420,-76.9230769230769,4,2,1,70,0,0
72783,-71.4285714285714,4,2,1,75,0,0
73147,-66.6666666666667,4,2,1,75,0,0
73511,-71.4285714285714,4,2,1,80,0,1
74056,-83.3333333333333,4,2,1,80,0,1
74420,-71.4285714285714,4,2,1,80,0,1
74783,-90.9090909090909,4,2,1,80,0,1
75693,-71.4285714285714,4,2,1,80,0,1
76965,-83.3333333333333,4,2,1,80,0,1
77693,-100,4,2,1,80,0,1
79329,-76.9230769230769,4,2,1,80,0,1
81693,-100,4,2,1,80,0,1
81874,-66.6666666666667,4,2,1,80,0,1
82056,-52.6315789473684,4,2,1,80,0,1
82602,-80,4,2,1,80,0,1
83693,-71.4285714285714,4,2,1,80,0,1
84238,-83.3333333333333,4,2,1,80,0,1
84420,-83.3333333333333,4,2,1,70,0,1
84602,-83.3333333333333,4,2,1,70,0,1
84783,-83.3333333333333,4,2,2,70,0,1
85147,-83.3333333333333,4,2,1,70,0,1
85511,-83.3333333333333,4,2,2,70,0,0
85874,-83.3333333333333,4,2,1,75,0,0
86602,-83.3333333333333,4,2,3,60,0,0
86962,-100,4,2,3,60,0,0
88602,-117.647058823529,4,2,3,60,0,0
89147,-80,4,2,3,60,0,0
89511,-83.3333333333333,4,2,3,60,0,0
89874,-100,4,2,3,60,0,0
92056,-83.3333333333333,4,2,3,60,0,0
92783,-90.9090909090909,4,2,3,60,0,0
93511,-100,4,2,3,60,0,0
94965,-83.3333333333333,4,2,3,60,0,0
95329,-76.9230769230769,4,2,3,60,0,0
96420,-133.333333333333,4,2,3,60,0,0
96783,-66.6666666666667,4,2,1,65,0,0
98238,-76.9230769230769,4,2,1,70,0,0
98602,-100,4,2,1,70,0,0
100783,-62.5,4,2,1,70,0,0
101147,-71.4285714285714,4,2,1,70,0,0
101511,-100,4,2,1,70,0,0
103147,-100,4,2,1,70,0,0
103693,-71.4285714285714,4,2,1,70,0,0
104056,-83.3333333333333,4,2,1,70,0,0
104420,-100,4,2,1,70,0,0
106056,-100,4,2,1,70,0,0
106965,-117.647058823529,4,2,1,70,0,0
112238,-83.3333333333333,4,2,1,70,0,0
112420,-58.8235294117647,4,2,1,70,0,0
112783,-133.333333333333,4,2,1,60,0,0
113147,-100,4,2,1,60,0,0
113511,-133.333333333333,4,2,1,60,0,0
113874,-100,4,2,1,60,0,0
114238,-133.333333333333,4,2,1,60,0,0
114602,-100,4,2,1,60,0,0
114965,-133.333333333333,4,2,1,60,0,0
115329,-100,4,2,1,60,0,0
116420,-100,4,2,1,65,0,0
117147,-100,4,2,1,70,0,0
117874,-153.846153846154,4,2,1,70,0,0
118238,-100,4,2,1,70,0,0
118602,-76.9230769230769,4,2,1,80,0,1
119511,-100,4,2,1,80,0,1
120783,-62.5,4,2,1,80,0,1
121147,-76.9230769230769,4,2,1,80,0,1
121511,-76.9230769230769,4,2,1,80,0,1
122783,-100,4,2,1,80,0,1
124420,-76.9230769230769,4,2,1,80,0,1
126783,-100,4,2,1,80,0,1
126965,-66.6666666666667,4,2,1,80,0,1
127147,-52.6315789473684,4,2,1,80,0,1
127693,-100,4,2,1,80,0,1
128783,-80,4,2,1,80,0,0
129511,-100,4,2,1,80,0,0
130238,-74.0740740740741,4,2,1,80,0,1
132783,-80,4,2,1,80,0,1
133147,-74.0740740740741,4,2,1,80,0,1
136056,-76.9230769230769,4,2,1,80,0,1
137511,-90.9090909090909,4,2,1,80,0,1
138420,-100,4,2,1,80,0,1
138602,-83.3333333333333,4,2,1,80,0,1
138783,-74.0740740740741,4,2,1,80,0,1
139329,-80,4,2,1,80,0,1
140420,-80,4,2,1,80,0,0
140965,-62.5,4,2,1,80,0,0
141147,-62.5,4,2,1,70,0,0
141511,-100,4,2,2,70,0,0
141874,-83.3333333333333,4,2,1,70,0,0
142238,-76.9230769230769,4,2,1,70,0,0
142602,-71.4285714285714,4,2,1,75,0,0
143329,-76.9230769230769,4,2,1,80,0,1
144238,-71.4285714285714,4,2,1,80,0,1
144602,-76.9230769230769,4,2,1,80,0,1
146238,-76.9230769230769,4,2,1,80,0,1
146783,-90.9090909090909,4,2,1,80,0,1
147511,-100,4,2,1,80,0,1
149147,-76.9230769230769,4,2,1,80,0,1
152420,-80,4,2,1,80,0,1
153511,-71.4285714285714,4,2,1,80,0,1
154056,-41.6666666666667,4,2,1,80,0,1
154238,-41.6666666666667,4,2,1,70,0,1
154420,-100,4,2,1,70,0,1
154602,-100,4,2,2,70,0,1
154965,-100,4,2,1,70,0,0
155329,-100,4,2,1,70,0,0
155693,-100,4,2,1,75,0,0
156420,-76.9230769230769,4,2,3,70,0,0
157329,-90.9090909090909,4,2,3,70,0,0
158238,-90.9090909090909,4,2,3,70,0,0
159147,-133.333333333333,4,2,3,70,0,0
159329,-74.0740740740741,4,2,3,70,0,0
160238,-86.9565217391304,4,2,3,70,0,0
162238,-83.3333333333333,4,2,3,70,0,0
163511,-100,4,2,3,70,0,0
164056,-90.9090909090909,4,2,3,70,0,0
165147,-76.9230769230769,4,2,3,70,0,0
166056,-90.9090909090909,4,2,3,70,0,0
166420,-83.3333333333333,4,2,3,70,0,0
167147,-83.3333333333333,4,2,1,70,0,0
167329,-83.3333333333333,4,2,3,70,0,0
167511,-83.3333333333333,4,2,1,70,0,0
167693,-83.3333333333333,4,2,3,70,0,0
167783,-83.3333333333333,4,2,1,70,0,0
168056,-125,4,2,3,60,0,0
168783,-95.2380952380952,4,2,3,60,0,0
169511,-83.3333333333333,4,2,3,60,0,0
170965,-100,4,2,3,60,0,0
171693,-90.9090909090909,4,2,3,60,0,0
173329,-90.9090909090909,4,2,1,60,0,0
173511,-133.333333333333,4,2,1,60,0,0
173874,-90.9090909090909,4,2,3,60,0,0
176783,-90.9090909090909,4,2,1,60,0,0
177511,-90.9090909090909,4,2,1,65,0,0
178238,-125,4,2,1,70,0,0
179693,-71.4285714285714,4,2,1,80,0,0
180238,-76.9230769230769,4,2,1,80,0,0
185511,-71.4285714285714,4,2,1,80,0,0
185874,-55.5555555555556,4,2,1,80,0,0
186238,-76.9230769230769,4,2,1,80,0,0
191329,-400,4,2,1,60,0,0
194238,-133.333333333333,4,2,1,60,0,0
197874,-100,4,2,1,60,0,0
198602,-100,4,2,1,65,0,0
200056,-100,4,2,1,70,0,0
201511,-166.666666666667,4,2,1,70,0,0
202965,-76.9230769230769,4,2,1,80,0,1
205874,-76.9230769230769,4,2,1,80,0,1
206420,-74.0740740740741,4,2,1,80,0,1
208056,-100,4,2,1,80,0,1
208783,-76.9230769230769,4,2,1,80,0,1
211147,-83.3333333333333,4,2,1,80,0,1
211329,-66.6666666666667,4,2,1,80,0,1
211511,-55.5555555555556,4,2,1,80,0,1
212056,-100,4,2,1,80,0,1
213147,-71.4285714285714,4,2,1,80,0,1
213420,-86.9565217391304,4,2,1,80,0,1
213693,-76.9230769230769,4,2,1,80,0,1
213874,-100,4,2,1,80,0,0
214602,-74.0740740740741,4,2,1,80,0,1
215511,-100,4,2,1,80,0,1
217147,-86.9565217391304,4,2,1,80,0,1
217511,-74.0740740740741,4,2,1,80,0,1
220420,-76.9230769230769,4,2,1,80,0,1
221874,-71.4285714285714,4,2,1,80,0,1
222965,-66.6666666666667,4,2,1,80,0,1
223147,-55.5555555555556,4,2,1,80,0,1
223693,-80,4,2,1,80,0,1
224783,-71.4285714285714,4,2,1,80,0,1
224965,-86.9565217391304,4,2,1,80,0,1
225147,-76.9230769230769,4,2,1,80,0,1
225511,-76.9230769230769,4,2,1,70,0,1
225874,-100,4,2,2,70,0,0
226238,-100,4,2,1,70,0,0
226511,-83.3333333333333,4,2,1,70,0,0
226783,-66.6666666666667,4,2,1,70,0,0
226965,-66.6666666666667,4,2,1,75,0,0
227693,-74.0740740740741,4,2,1,75,0,1
228602,-100,4,2,1,75,0,1
228783,-74.0740740740741,4,2,1,75,0,1
231329,-86.9565217391304,4,2,1,75,0,1
231874,-100,4,2,1,75,0,1
232602,-80,4,2,1,75,0,1
235874,-66.6666666666667,4,2,1,75,0,1
236056,-54.054054054054,4,2,1,75,0,1
236783,-80,4,2,1,75,0,1
237511,-80,4,2,1,75,0,1
238420,-62.5,4,2,1,75,0,1
238602,-62.5,4,2,1,70,0,1
238783,-83.3333333333333,4,2,1,70,0,0
238965,-83.3333333333333,4,2,2,70,0,0
239329,-83.3333333333333,4,2,1,70,0,0
239693,-76.9230769230769,4,2,1,70,0,0
240056,-71.4285714285714,4,2,1,75,0,0
240783,-55.5555555555556,4,2,1,80,0,1
241147,-71.4285714285714,4,2,1,80,0,1
242783,-62.5,4,2,1,80,0,1
243329,-100,4,2,1,80,0,1
243693,-62.5,4,2,1,80,0,1
245329,-83.3333333333333,4,2,1,80,0,1
245693,-62.5,4,2,1,80,0,1
246238,-83.3333333333333,4,2,1,80,0,1
247147,-71.4285714285714,4,2,1,80,0,1
248056,-58.8235294117647,4,2,1,80,0,1
248420,-74.0740740740741,4,2,1,80,0,1
248602,-71.4285714285714,4,2,1,80,0,1
249147,-62.5,4,2,1,80,0,1
249874,-66.6666666666667,4,2,1,80,0,1
250965,-62.5,4,2,1,80,0,1
252420,-66.6666666666667,4,2,1,80,0,1
252783,-76.9230769230769,4,2,1,80,0,1
253874,-55.5555555555556,4,2,1,80,0,1
254238,-66.6666666666667,4,2,1,80,0,1
255693,-76.9230769230769,4,2,1,80,0,1
256783,-62.5,4,2,1,80,0,1
258238,-66.6666666666667,4,2,1,80,0,1
259329,-76.9230769230769,4,2,1,80,0,1
259693,-62.5,4,2,1,80,0,1
261147,-62.5,4,2,1,70,0,1
261874,-83.3333333333333,4,2,1,70,0,1
263329,-71.4285714285714,4,2,1,75,0,1
264056,-62.5,4,2,1,75,0,1
265602,-76.9230769230769,4,2,1,75,0,1
266965,-1000,4,2,1,80,0,1
268299,-1000,4,2,1,50,0,0

[Colours]
Combo1 : 255,94,55
Combo2 : 173,255,95
Combo3 : 17,254,176
Combo4 : 255,88,100

[HitObjects]
180,334,2238,6,0,P|199:349|224:353,3,45,10|8|8|8,0:3|0:3|0:3|0:3,0:0:0:0:
102,311,2601,2,0,P|98:335|106:358,3,45,6|4|4|4,0:3|0:3|0:3|0:3,0:0:0:0:
82,231,2965,2,0,P|59:240|43:259,3,45,6|4|4|4,0:3|0:3|0:3|0:3,0:0:0:0:
142,174,3329,1,14,0:3:0:0:
165,170,3420,1,12,0:3:0:0:
189,167,3511,1,12,0:3:0:0:
213,164,3602,1,12,0:3:0:0:
237,161,3693,6,0,B|375:144|375:144|345:154|333:177,1,175.499991966248,6|0,1:0|0:0,0:0:0:0:
408,229,4056,1,8,1:0:0:0:
408,229,4147,1,2,0:0:0:0:
408,229,4238,6,0,P|458:276|348:287,1,225,2|2,3:1|3:2,0:0:0:0:
258,314,4783,1,8,1:0:0:0:
258,314,4965,2,0,P|229:376|184:274,1,225,2|2,3:1|3:2,0:0:0:0:
237,161,5511,5,8,1:0:0:0:
338,283,5693,1,2,3:2:0:0:
237,161,5874,2,0,P|170:143|131:200,1,125.999996154785,10|0,1:0|3:0,0:0:0:0:
338,283,6238,2,0,P|404:300|444:243,1,125.999996154785,10|0,1:0|3:0,0:0:0:0:
492,185,6511,1,2,0:0:0:0:
492,185,6602,6,0,B|500:145|460:131|460:131|317:94,1,188.999994232178,6|0,1:0|0:0,0:0:0:0:
311,92,6965,1,8,1:0:0:0:
464,48,7147,6,0,P|402:159|289:216,1,233.999989288331,2|2,3:1|3:2,0:0:0:0:
480,263,7693,1,8,1:0:0:0:
480,263,7874,2,0,P|417:152|304:94,1,233.999989288331,2|2,3:1|3:2,0:0:0:0:
238,40,8329,1,2,0:0:0:0:
233,48,8420,2,0,B|207:82|207:82|145:74,1,90,10|2,1:0|3:2,0:0:0:0:
160,75,8783,6,0,B|181:13|181:13|233:48,1,125.999996154785,10|8,1:0|3:3,0:0:0:0:
289,178,9147,2,0,P|267:212|228:220,1,62.9999980773926,6|4,1:3|0:3,0:0:0:0:
206,293,9329,2,0,P|164:291|138:260,1,62.9999980773926,4|4,3:3|0:3,0:0:0:0:
64,278,9511,6,0,B|41:113|41:113|61:87,1,175.499991966248,6|0,1:0|0:0,0:0:0:0:
57,92,9874,2,0,L|44:11,1,58.4999973220826,8|0,1:0|0:0,0:0:0:0:
126,139,10056,2,0,B|183:124|222:173|209:191|250:240|311:216,1,188.999994232178,2|0,3:1|0:0,0:0:0:0:
316,211,10420,5,2,3:2:0:0:
454,91,10602,1,8,1:0:0:0:
475,14,10783,1,2,3:2:0:0:
317,128,10965,6,0,B|261:114|221:162|235:180|195:229|141:208,1,188.999994232178,6|0,1:0|0:0,0:0:0:0:
129,202,11329,1,8,1:0:0:0:
233,271,11511,2,0,P|320:297|424:345,1,175.499991966248,2|0,3:1|0:0,0:0:0:0:
396,350,11874,2,0,P|425:338|437:313,1,45,2|0,3:2|0:0,0:0:0:0:
404,251,12056,2,0,P|406:220|392:198,1,51.7500009870529,8|0,1:0|0:0,0:0:0:0:
316,211,12238,2,0,P|289:191|259:193,1,58.4999973220826,2|0,3:2|0:0,0:0:0:0:
72,357,12420,5,6,1:0:0:0:
117,291,12602,2,0,P|131:221|158:132,1,148.50000453186,2|2,3:2|0:0,0:0:0:0:
167,115,12965,1,2,3:2:0:0:
308,49,13147,5,6,1:0:0:0:
353,115,13329,2,0,P|366:185|394:274,1,148.50000453186,2|2,3:2|0:0,0:0:0:0:
403,291,13692,1,2,3:2:0:0:
189,349,13874,6,0,P|268:356|342:344,1,144,14|0,1:0|0:0,0:0:0:0:
311,272,14147,2,0,P|248:281|195:271,1,107.999996704102,14|0,1:0|0:0,0:0:0:0:
255,180,14420,6,0,L|255:202,6,18,14|0|0|0|8|0|8,1:0|0:0|0:0|0:0|0:3|0:0|0:3,0:0:0:0:
255,100,14783,1,4,3:3:0:0:
204,40,14965,2,0,P|163:8|104:29,1,90,4|0,3:2|3:0,0:0:0:0:
45,34,15238,1,0,3:0:0:0:
41,46,15329,6,0,L|48:110,3,45,4|0|0|0,1:0|0:0|0:0|0:0,0:0:0:0:
109,146,15693,6,0,L|116:210,3,33.7500012874604,2|0|0|0,3:3|3:0|3:0|3:0,0:0:0:0:
175,233,16056,6,0,L|182:297,3,56.25,10|8|8|8,0:3|0:3|0:3|0:3,0:0:0:0:
243,350,16420,1,14,0:3:0:0:
290,345,16511,1,12,0:3:0:0:
338,340,16602,1,12,0:3:0:0:
385,335,16693,1,12,0:3:0:0:
433,330,16783,6,0,B|450:259|491:217|546:237|539:295|486:290,1,175.499991966248,4|0,1:0|0:0,0:0:0:0:
404,214,17147,2,0,P|364:160|284:172,1,135,10|0,1:0|0:0,0:0:0:0:
278,178,17511,5,0,1:0:0:0:
439,109,17693,1,2,3:2:0:0:
278,178,17874,2,0,B|200:186|222:131|138:144,1,135,8|0,1:0|0:0,0:0:0:0:
135,149,18238,5,2,1:2:0:0:
40,296,18420,1,0,3:0:0:0:
129,239,18602,5,8,1:0:0:0:
33,105,18783,1,2,3:2:0:0:
33,105,18965,2,0,B|172:89|172:89|183:115|205:123,1,168.75,0|0,1:0|0:0,0:0:0:0:
243,58,19329,6,0,P|317:30|269:122,1,216,14|0,1:0|0:0,0:0:0:0:
314,198,19693,2,0,P|356:253|266:238,1,175.499991966248,4|0,1:0|0:0,0:0:0:0:
218,323,20056,2,0,P|157:331|137:299,1,90,10|0,1:0|3:0,0:0:0:0:
33,105,20420,1,0,1:0:0:0:
5,274,20602,1,2,3:2:0:0:
77,244,20783,2,0,B|138:224|138:224|143:225|143:225|220:204,1,135,8|2,1:0|0:0,0:0:0:0:
222,205,21147,5,2,1:2:0:0:
349,110,21329,1,0,3:0:0:0:
221,68,21511,1,8,1:0:0:0:
308,251,21693,1,2,3:2:0:0:
308,251,21874,2,0,P|376:244|406:202,1,112.5,0|0,1:0|3:0,0:0:0:0:
232,301,22238,6,0,P|153:338|174:233,1,216,14|0,1:0|0:0,0:0:0:0:
234,196,22602,2,0,P|255:139|168:166,1,175.499991966248,4|0,1:0|0:0,0:0:0:0:
308,251,22965,2,0,P|365:232|367:188,1,90,10|0,1:0|3:0,0:0:0:0:
290,22,23329,1,0,1:0:0:0:
477,111,23511,1,2,3:2:0:0:
477,111,23693,2,0,B|447:136|447:136|331:119,1,135,8|2,1:0|0:0,0:0:0:0:
338,120,24056,6,0,P|285:137|273:176,1,90,2|0,1:2|3:0,0:0:0:0:
207,299,24420,1,8,1:0:0:0:
207,299,24602,2,0,P|194:245|165:209,1,90,2|0,3:2|1:0,0:0:0:0:
106,172,24965,1,2,3:2:0:0:
191,82,25147,2,0,P|216:13|131:50,1,188.999994232178,12|0,1:0|0:0,0:0:0:0:
60,78,25511,6,0,P|57:161|124:162,1,135.000005149842,6|0,1:0|3:0,0:0:0:0:
207,299,25874,1,8,1:0:0:0:
244,227,26056,2,0,B|312:248|361:203|335:173|377:110|462:149,1,215.999993408203,2|0,3:1|3:0,0:0:0:0:
463,318,26602,2,0,B|442:367|442:367|402:341,1,90,10|0,1:0|3:0,0:0:0:0:
244,227,26965,6,0,P|216:172|293:183,1,148.50000453186,6|0,1:0|0:0,0:0:0:0:
361,197,27329,2,0,P|423:200|374:262,1,148.50000453186,8|0,1:0|0:0,0:0:0:0:
328,314,27693,2,0,P|293:366|264:294,1,148.50000453186,4|8,1:0|0:3,0:0:0:0:
244,227,28056,1,4,1:3:0:0:
252,184,28147,1,4,0:3:0:0:
260,140,28238,1,4,3:3:0:0:
269,96,28329,1,4,0:3:0:0:
278,53,28420,6,0,B|241:33|241:33|88:75,1,175.499991966248,4|0,1:0|0:0,0:0:0:0:
38,22,28783,2,0,P|26:92|75:145,1,135,10|0,1:0|0:0,0:0:0:0:
86,153,29147,1,0,1:0:0:0:
11,232,29329,1,2,3:2:0:0:
86,153,29511,2,0,P|124:206|111:270,1,135,8|2,1:0|0:0,0:0:0:0:
94,296,29874,5,2,1:2:0:0:
279,222,30056,1,0,3:0:0:0:
194,178,30238,5,8,1:0:0:0:
238,364,30420,2,0,B|290:397|351:356|327:340|378:298|448:349,1,225,2|0,3:2|3:0,0:0:0:0:
512,277,30965,6,0,P|419:306|449:222,1,216,14|0,1:0|0:0,0:0:0:0:
366,169,31329,2,0,P|446:194|421:120,1,175.499991966248,4|0,1:0|0:0,0:0:0:0:
498,77,31693,2,0,P|448:83|410:49,1,90,10|0,1:0|3:0,0:0:0:0:
366,169,32056,1,0,1:0:0:0:
297,36,32238,1,2,3:2:0:0:
235,96,32420,2,0,B|170:87|170:87|158:91|158:91|92:79,1,135,8|2,1:0|0:0,0:0:0:0:
69,76,32783,5,2,1:2:0:0:
141,160,32965,1,0,3:0:0:0:
123,0,33147,1,8,1:0:0:0:
3,131,33329,2,0,P|38:197|55:301,1,168.75,2|0,3:2|0:0,0:0:0:0:
5,355,33693,2,0,P|31:366|79:367,1,56.25,0|0,3:0|0:0,0:0:0:0:
167,230,33874,6,0,P|269:249|213:308,1,216,14|0,1:0|0:0,0:0:0:0:
137,330,34238,2,0,P|235:336|309:366,1,175.499991966248,4|0,1:0|0:0,0:0:0:0:
386,346,34602,2,0,P|416:299|404:262,1,90,10|0,1:0|3:0,0:0:0:0:
306,168,34965,1,0,1:0:0:0:
445,87,35147,1,2,3:2:0:0:
409,12,35329,2,0,P|362:64|378:132,1,135,8|2,1:0|0:0,0:0:0:0:
391,152,35693,5,2,1:2:0:0:
264,91,35874,1,0,3:0:0:0:
234,226,36056,5,8,1:0:0:0:
306,171,36238,1,2,3:2:0:0:
264,91,36420,2,0,L|207:73,3,45,0|2|2|0,1:0|0:0|3:2|0:0,0:0:0:0:
169,14,36783,1,12,1:0:0:0:
142,49,36873,1,2,0:3:0:0:
143,93,36964,1,0,3:0:0:0:
266,8,37147,1,4,1:0:0:0:
256,192,37238,12,2,41329,0:3:0:0:
266,8,41511,6,0,L|326:0,3,45,2|0|2|0,1:2|0:0|0:3|0:0,0:0:0:0:
240,91,41874,1,0,1:0:0:0:
240,91,41965,1,0,0:0:0:0:
240,91,42056,1,2,0:3:0:0:
274,170,42238,5,2,1:2:0:0:
266,332,42420,1,2,0:3:0:0:
241,248,42602,1,4,1:2:0:0:
274,170,42783,1,2,0:3:0:0:
352,138,42965,6,0,B|502:163|502:163|451:129|453:78|453:78|323:53|323:53|248:87|273:169,1,529.199995155029,4|2,1:0|0:3,0:0:0:0:
344,223,45329,1,2,0:0:0:0:
424,240,45511,1,2,0:3:0:0:
504,255,45693,1,2,0:0:0:0:
400,317,45874,6,0,L|360:312,3,33.7500012874604,8|0|2|0,0:1|0:0|0:0|0:0,0:0:0:0:
293,345,46238,2,0,L|253:350,3,33.7500012874604,2|0|0|0,0:3|0:0|0:0|0:0,0:0:0:0:
209,282,46602,6,0,L|169:277,3,33.7500012874604,8|0|0|0,0:1|0:0|0:0|0:0,0:0:0:0:
111,326,46966,2,0,L|71:331,3,33.7500012874604,2|0|0|0,0:3|0:0|0:0|0:0,0:0:0:0:
10,376,47329,6,0,P|0:349|3:315,1,56.25,12|8,0:1|0:3,0:0:0:0:
57,251,47511,1,8,0:3:0:0:
57,251,47602,2,0,L|70:180,1,56.25,8|8,0:3|0:1,0:0:0:0:
14,139,47783,1,4,0:3:0:0:
14,139,47874,2,0,L|1:68,1,56.25,8|8,0:3|0:3,0:0:0:0:
48,16,48056,5,8,0:1:0:0:
73,5,48146,1,8,0:3:0:0:
101,5,48237,1,4,0:3:0:0:
126,17,48328,1,4,0:3:0:0:
145,38,48419,1,8,0:1:0:0:
165,61,48511,1,12,0:3:0:0:
193,74,48602,1,12,0:3:0:0:
225,75,48693,1,12,0:3:0:0:
259,57,48783,6,0,B|319:26|386:80|353:93|404:145|487:97,1,243.000000926971,6|8,1:0|1:0,0:0:0:0:
399,0,49329,2,0,P|371:75|352:215,1,182.250000695229,2|0,3:1|0:0,0:0:0:0:
351,201,49693,1,0,3:0:0:0:
454,354,49874,1,8,1:0:0:0:
505,288,50056,6,0,P|413:285|374:375,1,182.250000695229,2|0,3:1|0:0,0:0:0:0:
372,379,50420,1,2,3:2:0:0:
262,265,50602,2,0,L|199:280,2,60.7500002317429,8|0|2,1:0|0:0|3:2,0:0:0:0:
90,248,50965,6,0,P|88:159|166:203,1,216,10|0,1:0|0:0,0:0:0:0:
202,278,51329,2,0,P|204:367|127:324,1,216,10|0,1:0|0:0,0:0:0:0:
166,203,51693,6,0,B|193:18|193:18|149:54,1,243.000000926971,6|8,1:0|1:0,0:0:0:0:
0,148,52238,2,0,P|94:157|167:202,1,182.250000695229,2|0,3:1|0:0,0:0:0:0:
185,229,52602,1,0,3:0:0:0:
289,364,52783,1,8,1:0:0:0:
202,376,52965,6,0,B|190:322|237:278|243:303|278:269|263:216,1,180,2|2,3:1|3:2,0:0:0:0:
258,186,53420,1,2,0:0:0:0:
239,163,53511,1,8,1:0:0:0:
365,54,53693,1,2,3:2:0:0:
304,0,53874,2,0,P|289:27|287:64,3,45,10|8|8|8,1:0|0:3|3:3|0:3,0:0:0:0:
302,115,54238,1,6,1:3:0:0:
340,136,54328,1,4,0:3:0:0:
385,135,54419,1,4,3:3:0:0:
423,113,54510,1,4,0:3:0:0:
445,74,54602,6,0,B|465:38|465:38|497:240,1,233.999989288331,6|8,1:0|1:0,0:0:0:0:
345,373,55147,2,0,P|318:331|406:278,1,175.499991966248,2|0,3:1|0:0,0:0:0:0:
432,288,55511,1,2,3:2:0:0:
512,348,55693,1,8,1:0:0:0:
495,228,55874,5,2,3:2:0:0:
345,373,56056,2,0,L|155:344,1,175.499991966248,6|0,1:0|0:0,0:0:0:0:
140,340,56420,1,8,1:0:0:0:
0,373,56602,2,0,P|-7:305|95:226,1,175.499991966248,2|0,3:1|0:0,0:0:0:0:
92,217,56965,1,0,3:0:0:0:
19,97,57147,1,8,1:0:0:0:
139,24,57329,1,2,3:2:0:0:
212,144,57511,5,6,1:0:0:0:
114,124,57693,1,2,3:2:0:0:
230,45,57874,2,0,L|286:60,2,45,8|2|2,1:0|0:0|3:2,0:0:0:0:
139,24,58238,5,6,1:0:0:0:
212,144,58420,1,2,3:2:0:0:
114,124,58602,1,8,1:0:0:0:
92,118,58692,1,2,0:0:0:0:
70,112,58783,1,2,3:2:0:0:
230,45,58965,6,0,P|280:65|307:125,1,112.5,6|8,1:0|0:3,0:0:0:0:
345,19,59238,2,0,P|343:72|296:118,1,112.5,6|4,1:0|0:3,0:0:0:0:
355,134,59511,2,0,P|327:130|305:113,1,56.25,6|0,1:0|0:0,0:0:0:0:
212,144,59693,6,0,L|207:194,3,45,8|8|8|8,0:3|0:3|1:3|0:3,0:0:0:0:
257,255,60056,2,0,B|243:274|243:274|210:265,1,45,4|4,1:2|0:3,0:0:0:0:
168,326,60238,2,0,B|145:319|145:319|142:285,1,45,4|4,0:3|0:3,0:0:0:0:
257,255,60420,6,0,B|426:287|426:287|390:299|381:331,1,233.999989288331,6|8,1:0|1:0,0:0:0:0:
474,372,60965,2,0,L|438:150,1,175.499991966248,2|0,3:1|0:0,0:0:0:0:
439,164,61329,1,0,3:0:0:0:
512,56,61511,1,8,1:0:0:0:
437,10,61693,2,0,B|383:-2|339:45|364:51|330:86|277:71,1,180,2|2,3:1|3:2,0:0:0:0:
256,69,62147,1,0,0:0:0:0:
227,66,62238,1,8,1:0:0:0:
76,150,62420,1,2,3:2:0:0:
199,179,62602,5,10,1:0:0:0:
115,27,62783,1,2,3:2:0:0:
150,255,62965,2,0,P|210:264|277:227,1,135,10|2,1:0|0:0,0:0:0:0:
289,212,63329,6,0,P|370:189|329:295,1,233.999989288331,6|8,1:0|1:0,0:0:0:0:
129,363,63874,2,0,P|117:297|87:181,1,175.499991966248,2|0,3:1|0:0,0:0:0:0:
83,168,64238,1,0,3:0:0:0:
282,50,64420,1,8,1:0:0:0:
212,1,64602,6,0,P|189:88|172:177,1,180,2|2,3:1|3:2,0:0:0:0:
175,195,65056,1,2,0:0:0:0:
181,213,65147,1,8,1:0:0:0:
39,310,65329,1,2,3:2:0:0:
209,377,65511,5,10,1:0:0:0:
236,353,65602,1,8,0:3:0:0:
268,338,65693,1,8,3:3:0:0:
303,332,65783,1,8,0:3:0:0:
338,337,65874,1,6,1:3:0:0:
391,332,65965,1,4,0:3:0:0:
430,294,66056,1,4,3:3:0:0:
438,240,66147,1,4,0:3:0:0:
418,192,66238,6,0,B|314:173|314:173|296:201|267:206,1,161.999995056153,6|0,1:0|0:0,0:0:0:0:
249,132,66602,1,8,1:0:0:0:
418,192,66783,2,0,P|481:144|381:106,1,233.999989288331,2|2,3:1|3:2,0:0:0:0:
228,270,67329,2,0,B|170:279|170:279|165:286|165:286|109:295,1,116.999994644165,8|2,1:0|3:2,0:0:0:0:
312,313,67693,6,0,P|238:353|227:270,1,198.000006042481,6|8,1:0|1:0,0:0:0:0:
130,213,68238,2,0,B|136:167|110:144|101:152|72:120|78:75,1,148.50000453186,2|0,3:1|0:0,0:0:0:0:
77,80,68602,2,0,P|63:106|31:124,1,53.9999983520508,0|0,3:0|0:0,0:0:0:0:
162,82,68783,2,0,P|184:56|215:45,1,62.9999980773926,8|0,1:0|0:0,0:0:0:0:
232,126,68965,2,0,P|263:127|295:144,1,62.9999980773926,2|0,3:2|0:0,0:0:0:0:
375,100,69147,5,6,1:0:0:0:
483,57,69329,1,2,3:2:0:0:
365,103,69511,2,0,L|370:171,2,56.25,8|2|2,1:0|0:0|3:2,0:0:0:0:
478,217,69874,5,6,1:0:0:0:
370,174,70056,1,2,3:2:0:0:
488,220,70238,2,0,L|483:288,2,56.25,8|2|2,1:0|0:0|3:2,0:0:0:0:
371,340,70602,6,0,P|307:332|275:274,1,112.5,6|8,1:0|0:3,0:0:0:0:
371,262,70874,2,0,P|333:301|279:295,1,112.5,6|4,1:0|0:3,0:0:0:0:
308,233,71147,2,0,P|301:268|278:295,1,72,6|0,1:0|0:0,0:0:0:0:
203,334,71329,1,8,0:3:0:0:
185,336,71420,1,8,0:3:0:0:
167,338,71511,1,4,3:3:0:0:
149,340,71602,1,4,0:3:0:0:
131,344,71693,2,0,L|110:293,3,45,4|0|0|0,3:2|3:0|3:0|3:0,0:0:0:0:
56,241,72056,6,0,P|30:248|9:273,3,53.9999983520508,4|8|8|8,1:0|0:3|0:3|0:3,0:0:0:0:
84,162,72420,2,0,P|62:143|26:140,3,58.4999973220826,6|4|4|4,0:3|0:3|0:3|0:3,0:0:0:0:
164,142,72783,2,0,P|174:113|159:70,3,62.9999980773926,6|4|4|4,0:3|0:3|0:3|0:3,0:0:0:0:
207,211,73147,5,14,0:3:0:0:
246,218,73238,1,12,0:3:0:0:
285,225,73329,1,12,0:3:0:0:
324,232,73420,1,12,0:3:0:0:
363,239,73511,6,0,B|405:273|406:353|406:353|429:279|483:259,1,251.999992309571,6|8,1:0|1:0,0:0:0:0:
434,188,73965,1,2,0:0:0:0:
434,188,74056,2,0,P|445:111|463:22,1,161.999995056153,2|0,3:1|0:0,0:0:0:0:
461,28,74420,6,0,P|425:33|402:61,1,62.9999980773926,2|0,3:2|0:0,0:0:0:0:
331,30,74602,2,0,P|325:66|347:95,1,62.9999980773926,8|0,1:0|0:0,0:0:0:0:
298,156,74783,2,0,P|229:184|193:248,1,148.50000453186,2|0,3:1|0:0,0:0:0:0:
188,270,75147,5,2,3:2:0:0:
285,255,75329,1,8,1:0:0:0:
91,285,75511,1,2,3:2:0:0:
285,255,75693,6,0,P|328:309|242:335,1,188.999994232178,10|0,1:0|0:0,0:0:0:0:
133,203,76056,2,0,P|53:213|91:285,1,188.999994232178,10|0,1:0|0:0,0:0:0:0:
188,270,76420,6,0,P|251:172|370:108,1,251.999992309571,6|8,1:0|1:0,0:0:0:0:
454,135,76965,1,2,3:1:0:0:
383,103,77147,2,0,P|421:60|484:66,1,107.999996704102,0|2,1:0|3:2,0:0:0:0:
390,189,77511,1,8,1:0:0:0:
252,75,77693,6,0,B|194:64|194:64|185:55|185:55|64:36,1,180,2|2,3:1|3:2,0:0:0:0:
63,119,78147,1,2,0:0:0:0:
63,119,78238,2,0,B|101:146|101:146|149:130,1,90,10|2,1:0|3:2,0:0:0:0:
327,39,78602,2,0,P|334:18|351:-4,3,45,10|8|8|8,1:0|0:3|3:3|0:3,0:0:0:0:
252,75,78965,1,6,1:3:0:0:
256,110,79056,1,4,0:3:0:0:
260,145,79147,1,4,3:3:0:0:
264,180,79238,1,4,0:3:0:0:
268,215,79329,6,0,B|315:222|315:222|399:300|399:300|423:290|423:290|472:295,1,233.999989288331,6|8,1:0|1:0,0:0:0:0:
234,362,79874,2,0,P|190:285|113:302,1,175.499991966248,2|0,3:1|0:0,0:0:0:0:
99,318,80238,1,2,3:2:0:0:
143,202,80420,1,8,1:0:0:0:
92,336,80602,5,2,3:2:0:0:
10,152,80783,2,0,P|36:87|132:106,1,175.499991966248,6|0,1:0|0:0,0:0:0:0:
141,117,81147,1,8,1:0:0:0:
227,211,81329,2,0,B|304:201|304:201|319:182|319:182|409:172,1,175.499991966248,2|0,3:1|0:0,0:0:0:0:
414,170,81693,5,2,3:2:0:0:
328,92,81874,1,8,1:0:0:0:
399,3,82056,1,2,3:2:0:0:
314,97,82238,5,6,1:0:0:0:
226,114,82420,1,2,3:2:0:0:
414,170,82602,2,0,L|481:180,2,56.25,8|2|2,1:0|0:0|3:2,0:0:0:0:
307,110,82965,5,6,1:0:0:0:
219,127,83147,1,2,3:2:0:0:
407,183,83329,2,0,L|474:193,2,56.25,8|2|2,1:0|0:0|3:2,0:0:0:0:
315,299,83693,6,0,P|282:242|214:245,1,125.999996154785,14|0,1:0|0:0,0:0:0:0:
179,304,83965,2,0,P|212:361|279:361,1,125.999996154785,14|0,1:0|0:0,0:0:0:0:
315,299,84238,1,14,1:0:0:0:
318,288,84329,1,8,0:3:0:0:
321,277,84420,1,8,0:3:0:0:
324,266,84511,1,8,0:3:0:0:
327,255,84602,1,4,3:3:0:0:
162,190,84783,2,0,L|40:167,1,107.999996704102,4|0,3:2|3:0,0:0:0:0:
10,102,85147,5,4,1:0:0:0:
162,190,85511,2,0,L|152:253,3,53.9999983520508,2|0|0|0,3:3|3:0|3:0|3:0,0:0:0:0:
225,135,85874,2,0,L|215:72,3,53.9999983520508,10|8|8|8,0:3|0:3|0:3|0:3,0:0:0:0:
288,188,86238,1,14,0:3:0:0:
324,197,86329,1,12,0:3:0:0:
361,196,86420,1,12,0:3:0:0:
397,205,86511,1,12,0:3:0:0:
433,214,86602,6,0,B|423:266|423:266|403:287|403:287|388:369,1,161.999995056153,4|0,3:1|0:0,0:0:0:0:
388,365,86965,2,0,P|436:373|472:340,1,90,10|2,0:0|0:3,0:0:0:0:
506,280,87329,1,0,3:0:0:0:
316,306,87511,5,2,0:3:0:0:
264,363,87693,2,0,L|127:373,1,135,10|2,0:0|0:0,0:0:0:0:
97,375,88056,5,2,3:2:0:0:
22,320,88238,1,2,0:3:0:0:
106,286,88420,1,10,0:0:0:0:
10,324,88602,1,2,0:3:0:0:
10,324,88783,2,0,P|8:283|32:258,1,76.5000014591217,0|2,3:0|0:3,0:0:0:0:
90,195,89147,6,0,B|137:168|171:215|164:228|206:259|256:228,1,168.75,14|0,0:0|0:0,0:0:0:0:
294,175,89511,2,0,P|268:112|219:160,1,161.999995056153,4|0,3:1|0:0,0:0:0:0:
294,175,89874,2,0,P|343:206|374:192,1,90,10|2,0:0|0:3,0:0:0:0:
426,141,90238,1,0,3:0:0:0:
381,0,90420,5,2,0:3:0:0:
308,35,90602,2,0,L|174:24,1,135,10|2,0:0|0:0,0:0:0:0:
147,21,90965,5,2,3:2:0:0:
68,71,91147,1,2,0:3:0:0:
4,13,91329,1,10,0:0:0:0:
80,84,91511,1,2,0:3:0:0:
80,84,91693,2,0,P|95:126|85:171,1,90,0|2,3:0|0:3,0:0:0:0:
184,294,92056,6,0,P|131:319|134:237,1,161.999995056153,14|0,0:0|0:0,0:0:0:0:
197,215,92420,2,0,B|257:222|257:222|279:244|279:244|365:253,1,161.999995056153,4|0,3:1|0:0,0:0:0:0:
349,251,92783,2,0,P|385:213|430:206,1,99.0000030212403,10|2,0:0|0:3,0:0:0:0:
418,283,93147,1,0,3:0:0:0:
311,169,93329,5,2,0:3:0:0:
311,169,93420,1,0,0:0:0:0:
311,169,93511,2,0,P|290:119|257:88,1,90,10|2,0:0|0:3,0:0:0:0:
328,39,93874,5,2,3:2:0:0:
186,115,94056,1,2,0:3:0:0:
121,66,94238,1,10,0:0:0:0:
328,39,94420,2,0,B|382:30|410:74|390:91|425:138|486:117,1,180,2|2,0:3|0:3,0:0:0:0:
328,39,94965,6,0,L|350:214,1,161.999995056153,12|0,0:0|0:0,0:0:0:0:
286,255,95329,6,0,B|235:290|234:354|234:354|218:293|159:269,1,233.999989288331,4|8,3:1|0:0,0:0:0:0:
95,371,95874,2,0,P|206:334|322:332,1,233.999989288331,2|2,0:3|0:3,0:0:0:0:
82,266,96420,2,0,P|103:211|149:193,1,101.250003862381,8|0,0:0|0:0,0:0:0:0:
161,189,96783,5,4,1:2:0:0:
279,211,97147,1,4,1:2:0:0:
397,233,97511,1,4,1:2:0:0:
279,211,97693,1,8,0:3:0:0:
275,184,97783,1,8,0:3:0:0:
271,157,97874,1,4,1:3:0:0:
267,130,97965,1,4,0:3:0:0:
263,103,98056,1,4,0:3:0:0:
259,76,98147,1,4,0:3:0:0:
254,48,98238,6,0,B|334:69|334:69|350:89|350:89|416:108,1,175.499991966248,4|0,1:0|0:0,0:0:0:0:
484,68,98602,2,0,B|439:98|439:98|466:214,1,135,10|0,1:0|0:0,0:0:0:0:
467,208,98965,1,0,1:0:0:0:
438,290,99147,1,2,3:2:0:0:
467,208,99329,2,0,P|396:212|357:268,1,135,8|2,1:0|0:0,0:0:0:0:
350,285,99693,5,2,1:2:0:0:
224,168,99874,1,0,3:0:0:0:
186,333,100056,5,8,1:0:0:0:
249,269,100238,2,0,B|210:233|166:255|167:270|116:282|82:234,1,180,2|0,3:2|3:0,0:0:0:0:
44,126,100783,6,0,P|38:194|127:146,1,216,14|2,1:0|0:0,0:0:0:0:
187,92,101147,2,0,P|181:30|261:73,1,188.999994232178,4|0,1:0|0:0,0:0:0:0:
316,128,101511,2,0,P|355:151|400:146,1,90,10|0,1:0|3:0,0:0:0:0:
491,38,101874,1,0,1:0:0:0:
378,61,102056,1,2,3:2:0:0:
512,147,102238,2,0,P|487:203|474:303,1,135,8|2,1:0|0:0,0:0:0:0:
466,301,102602,5,2,1:2:0:0:
339,232,102783,1,0,3:0:0:0:
307,355,102965,5,8,1:0:0:0:
339,232,103147,2,0,P|327:165|300:103,1,135,2|0,3:2|0:0,0:0:0:0:
283,81,103511,1,0,3:0:0:0:
234,172,103693,6,0,B|180:156|149:196|157:210|114:245|60:215,1,188.999994232178,14|0,1:0|0:0,0:0:0:0:
6,136,104056,2,0,B|28:101|28:101|74:253,1,161.999995056153,4|0,1:0|0:0,0:0:0:0:
79,309,104420,2,0,P|35:309|0:282,1,90,10|0,1:0|3:0,0:0:0:0:
63,217,104783,1,0,1:0:0:0:
156,356,104965,1,2,3:2:0:0:
225,301,105147,2,0,L|394:331,1,135,8|2,1:0|0:0,0:0:0:0:
375,328,105511,5,2,1:2:0:0:
504,229,105693,1,0,3:0:0:0:
504,372,105874,5,8,1:0:0:0:
406,224,106056,2,0,B|379:121|379:121|394:88,1,135,2|0,3:2|0:0,0:0:0:0:
404,77,106420,2,0,L|450:84,1,45,8|8,3:3|0:3,0:0:0:0:
359,3,106602,1,12,1:0:0:0:
347,4,106692,1,4,0:3:0:0:
336,6,106783,1,4,3:0:0:0:
325,8,106874,1,4,0:3:0:0:
314,9,106965,6,0,L|309:52,3,38.2500007295609,4|0|2|0,1:0|0:0|0:3|0:0,0:0:0:0:
227,28,107329,2,0,L|222:71,3,38.2500007295609,2|0|2|0,1:2|0:0|0:3|0:0,0:0:0:0:
146,0,107693,2,0,L|141:43,3,38.2500007295609,0|0|2|0,1:0|0:0|0:3|0:0,0:0:0:0:
59,19,108057,2,0,L|54:62,3,38.2500007295609,2|0|2|0,1:2|0:0|0:3|0:0,0:0:0:0:
112,126,108420,6,0,L|117:169,3,38.2500007295609,2|0|2|0,1:2|0:0|0:3|0:0,0:0:0:0:
199,145,108784,2,0,L|204:188,3,38.2500007295609,0|0|2|0,1:0|0:0|0:3|0:0,0:0:0:0:
280,117,109148,2,0,L|285:160,3,38.2500007295609,0|0|2|0,1:0|0:0|0:3|0:0,0:0:0:0:
367,136,109512,2,0,L|372:179,3,38.2500007295609,2|0|2|0,1:2|0:0|0:3|0:0,0:0:0:0:
453,169,109874,6,0,P|455:189|445:210,1,38.2500007295609,2|0,1:2|0:0,0:0:0:0:
501,264,110056,2,0,P|484:276|460:278,1,38.2500007295609,2|0,0:3|0:0,0:0:0:0:
441,354,110238,2,0,P|422:346|408:326,1,38.2500007295609,0|0,1:0|0:0,0:0:0:0:
332,347,110420,2,0,P|329:326|339:305,1,38.2500007295609,2|0,0:3|0:0,0:0:0:0:
289,244,110602,2,0,P|226:257|175:285,1,114.750002188683,0|0,1:0|0:0,0:0:0:0:
128,358,110965,2,0,P|91:316|94:252,1,114.750002188683,2|0,1:2|0:0,0:0:0:0:
103,231,111329,5,2,1:2:0:0:
176,178,111511,2,0,P|180:150|192:118,1,38.2500007295609,2|0,0:3|0:0,0:0:0:0:
109,48,111693,2,0,P|113:66|116:85,3,38.2500007295609,0|0|2|0,1:0|0:0|0:3|0:0,0:0:0:0:
197,9,112056,5,2,1:2:0:0:
263,75,112238,1,2,0:3:0:0:
351,44,112420,1,4,1:2:0:0:
417,110,112602,1,2,0:3:0:0:
505,79,112784,1,4,1:0:0:0:
256,192,115693,12,0,117056,0:0:0:0:
257,8,117147,5,12,0:1:0:0:
251,88,117329,5,8,0:3:0:0:
251,88,117420,1,8,0:3:0:0:
186,137,117602,5,4,0:3:0:0:
186,137,117693,1,8,0:3:0:0:
105,131,117874,6,0,L|57:121,3,29.2499986610413,8|8|4|4,0:1|0:3|0:3|0:3,0:0:0:0:
142,208,118238,2,0,L|192:217,3,45,8|12|12|12,0:1|0:3|0:3|0:3,0:0:0:0:
15,297,118602,6,0,B|98:268|183:316|183:316|182:346|194:381,1,233.999989288331,6|8,1:0|1:0,0:0:0:0:
308,384,119147,2,0,P|289:293|307:212,1,175.499991966248,2|0,3:1|0:0,0:0:0:0:
319,175,119511,1,0,3:0:0:0:
476,308,119693,1,8,1:0:0:0:
512,217,119874,2,0,P|447:207|399:252,1,135,2|0,3:1|0:0,0:0:0:0:
388,279,120238,1,2,3:2:0:0:
319,175,120420,2,0,L|300:123,2,45,8|0|2,1:0|0:0|3:2,0:0:0:0:
362,78,120783,6,0,P|331:-4|273:77,1,216,10|0,1:0|0:0,0:0:0:0:
205,120,121147,2,0,P|178:189|130:120,1,175.499991966248,10|0,1:0|0:0,0:0:0:0:
149,35,121511,6,0,B|147:103|89:124|76:109|19:146|33:219,1,233.999989288331,6|8,1:0|1:0,0:0:0:0:
151,384,122056,2,0,B|178:276|178:276|112:264,1,175.499991966248,2|0,3:1|0:0,0:0:0:0:
103,271,122420,1,0,3:0:0:0:
37,348,122602,1,8,1:0:0:0:
240,376,122783,6,0,L|430:342,1,180,2|2,3:1|3:2,0:0:0:0:
437,349,123238,1,2,0:0:0:0:
459,355,123329,1,8,1:0:0:0:
390,221,123511,1,2,3:2:0:0:
453,165,123693,2,0,L|497:157,3,45,10|8|8|8,1:0|0:3|3:3|0:3,0:0:0:0:
373,141,124056,1,6,1:3:0:0:
341,109,124146,1,4,0:3:0:0:
334,66,124237,1,4,3:3:0:0:
355,26,124328,1,4,0:3:0:0:
395,7,124420,6,0,B|433:28|433:28|199:81,1,233.999989288331,6|8,1:0|1:0,0:0:0:0:
130,2,124965,2,0,P|51:60|104:128,1,175.499991966248,2|0,3:1|0:0,0:0:0:0:
106,141,125329,1,2,3:2:0:0:
249,70,125511,1,8,1:0:0:0:
130,2,125693,5,2,3:2:0:0:
217,161,125874,2,0,B|214:234|214:234|203:251|203:251|194:364,1,175.499991966248,6|0,1:0|0:0,0:0:0:0:
197,362,126238,1,8,1:0:0:0:
26,295,126420,2,0,B|-5:276|-5:276|38:201|113:241,1,175.499991966248,2|0,3:1|0:0,0:0:0:0:
126,251,126783,1,0,3:0:0:0:
197,362,126965,1,8,1:0:0:0:
318,311,127147,1,2,3:2:0:0:
445,327,127329,5,6,1:0:0:0:
389,240,127511,1,2,3:2:0:0:
318,311,127693,2,0,L|307:371,2,45,8|2|2,1:0|0:0|3:2,0:0:0:0:
389,240,128056,5,6,1:0:0:0:
445,327,128238,1,2,3:2:0:0:
494,231,128420,1,8,1:0:0:0:
498,208,128510,1,2,0:0:0:0:
502,186,128601,1,2,3:2:0:0:
432,121,128783,6,0,P|396:80|330:76,1,112.5,6|8,1:0|0:3,0:0:0:0:
416,3,129056,2,0,P|366:23|339:82,1,112.5,6|4,1:0|0:3,0:0:0:0:
303,34,129329,2,0,P|316:58|339:73,1,56.25,6|0,1:0|0:0,0:0:0:0:
317,158,129511,2,0,L|306:218,3,45,8|8|8|8,0:3|0:3|1:3|0:3,0:0:0:0:
238,251,129874,2,0,B|219:237|219:237|228:204,1,45,4|4,1:2|0:3,0:0:0:0:
177,150,130056,2,0,B|191:131|191:131|224:140,1,45,4|4,0:3|0:3,0:0:0:0:
308,203,130238,6,0,P|308:295|163:293,1,243.000000926971,6|8,1:0|1:0,0:0:0:0:
41,376,130783,2,0,P|31:283|81:191,1,182.250000695229,2|0,3:1|0:0,0:0:0:0:
87,179,131147,1,0,3:0:0:0:
14,86,131329,1,8,1:0:0:0:
211,136,131511,6,0,B|280:125|312:181|299:197|347:248|419:221,1,243.000000926971,2|2,3:1|3:2,0:0:0:0:
444,214,131965,1,0,0:0:0:0:
471,209,132056,1,8,1:0:0:0:
393,117,132238,1,2,3:2:0:0:
490,49,132420,5,10,1:0:0:0:
419,221,132602,1,2,3:2:0:0:
272,88,132783,2,0,B|217:45|157:70|157:70|140:136,1,168.75,10|0,1:0|0:0,0:0:0:0:
61,94,133147,6,0,P|92:194|166:203,1,182.250000695229,6|0,1:0|0:0,0:0:0:0:
187,193,133511,1,8,1:0:0:0:
272,88,133693,2,0,P|280:167|297:281,1,182.250000695229,2|0,3:1|0:0,0:0:0:0:
299,298,134056,1,0,3:0:0:0:
410,333,134238,1,8,1:0:0:0:
223,375,134420,2,0,B|146:345|60:356|60:356|89:313|117:302,1,243.000000926971,2|2,3:1|3:2,0:0:0:0:
133,294,134874,1,2,0:0:0:0:
155,288,134965,1,8,1:0:0:0:
51,191,135147,1,2,3:2:0:0:
110,68,135329,5,10,1:0:0:0:
138,51,135419,1,8,0:3:0:0:
173,48,135510,1,8,3:3:0:0:
205,60,135601,1,8,0:3:0:0:
230,84,135692,1,6,1:3:0:0:
258,110,135784,1,4,0:3:0:0:
294,123,135875,1,4,3:3:0:0:
333,120,135966,1,4,0:3:0:0:
374,95,136056,6,0,B|428:72|428:72|407:214,1,175.499991966248,6|0,1:0|0:0,0:0:0:0:
391,210,136420,1,8,1:0:0:0:
483,365,136602,2,0,P|504:296|389:210,1,233.999989288331,2|2,3:1|3:2,0:0:0:0:
280,335,137147,2,0,B|291:349|291:349|368:364|368:364|396:353,1,116.999994644165,8|2,1:0|3:2,0:0:0:0:
271,245,137511,6,0,B|213:236|187:282|198:295|158:337|99:315,1,198.000006042481,6|8,1:0|1:0,0:0:0:0:
0,126,138056,2,0,B|88:137|88:137|71:164|81:201,1,148.50000453186,2|0,3:1|0:0,0:0:0:0:
159,203,138420,2,0,P|164:181|164:158,1,45,0|0,3:0|0:0,0:0:0:0:
236,120,138602,2,0,P|220:98|197:83,1,53.9999983520508,8|0,1:0|0:0,0:0:0:0:
149,19,138783,2,0,P|176:6|207:3,1,60.7500002317429,2|0,3:2|0:0,0:0:0:0:
315,46,138965,5,6,1:0:0:0:
207,3,139147,1,2,3:2:0:0:
325,49,139329,2,0,L|320:117,2,56.25,8|2|2,1:0|0:0|3:2,0:0:0:0:
404,158,139693,5,6,1:0:0:0:
512,115,139875,1,2,3:2:0:0:
394,161,140057,2,0,L|399:229,2,56.25,8|2|2,1:0|0:0|3:2,0:0:0:0:
512,268,140420,6,0,P|448:276|416:334,1,112.5,6|8,1:0|0:3,0:0:0:0:
512,346,140692,2,0,P|474:307|420:313,1,112.5,6|8,1:0|0:3,0:0:0:0:
449,375,140965,2,0,P|442:340|419:313,1,72,6|8,1:0|0:3,0:0:0:0:
338,289,141147,5,8,0:3:0:0:
325,296,141238,1,8,0:3:0:0:
310,298,141329,1,4,3:3:0:0:
298,306,141420,1,4,0:3:0:0:
283,308,141511,2,0,L|277:358,3,45,4|0|0|0,3:2|3:0|3:0|3:0,0:0:0:0:
196,260,141874,6,0,P|203:234|228:213,3,53.9999983520508,4|8|8|8,1:0|0:3|0:3|0:3,0:0:0:0:
117,288,142238,2,0,P|98:266|95:230,3,58.4999973220826,6|4|4|4,0:3|0:3|0:3|0:3,0:0:0:0:
97,368,142602,2,0,P|68:378|25:363,3,62.9999980773926,6|4|4|4,0:3|0:3|0:3|0:3,0:0:0:0:
196,260,142965,5,14,0:3:0:0:
197,213,143055,1,12,0:3:0:0:
177,170,143146,1,12,0:3:0:0:
141,141,143237,1,12,0:3:0:0:
95,131,143329,6,0,B|19:97|19:97|62:0|162:29,1,233.999989288331,6|8,1:0|1:0,0:0:0:0:
216,72,143783,1,2,0:0:0:0:
216,72,143874,2,0,P|292:57|396:44,1,175.499991966248,2|0,3:1|0:0,0:0:0:0:
389,44,144238,2,0,P|415:70|421:103,1,62.9999980773926,2|0,3:2|0:0,0:0:0:0:
512,79,144420,2,0,P|512:116|493:144,1,62.9999980773926,8|0,1:0|0:0,0:0:0:0:
476,218,144602,2,0,P|399:203|296:190,1,175.499991966248,2|0,3:1|0:0,0:0:0:0:
302,190,144965,1,2,3:2:0:0:
191,292,145147,1,8,1:0:0:0:
321,345,145329,1,2,3:2:0:0:
218,209,145511,6,0,P|146:214|99:316,1,175.499991966248,10|0,1:0|0:0,0:0:0:0:
10,264,145874,2,0,P|15:335|117:382,1,175.499991966248,10|0,1:0|0:0,0:0:0:0:
191,292,146238,6,0,P|175:162|164:44,1,233.999989288331,6|8,1:0|1:0,0:0:0:0:
87,17,146783,1,2,3:1:0:0:
83,108,146965,2,0,P|69:58|89:16,1,99.0000030212403,0|2,1:0|3:2,0:0:0:0:
250,105,147329,1,8,1:0:0:0:
319,50,147511,6,0,B|372:42|396:84|386:96|423:135|477:114,1,180,2|2,3:1|3:2,0:0:0:0:
487,29,147965,1,2,0:0:0:0:
487,29,148056,2,0,P|415:44|397:89,1,90,10|2,1:0|3:2,0:0:0:0:
316,144,148420,2,0,L|253:157,3,45,10|8|8|8,1:0|0:3|3:3|0:3,0:0:0:0:
384,198,148783,1,6,1:3:0:0:
413,203,148873,1,4,0:3:0:0:
442,209,148964,1,4,3:3:0:0:
472,214,149055,1,4,0:3:0:0:
501,220,149147,6,0,B|519:253|519:253|465:369|465:369|405:320,1,233.999989288331,6|8,1:0|1:0,0:0:0:0:
287,276,149693,2,0,B|205:293|205:293|194:302|194:302|92:325,1,175.499991966248,2|0,3:1|0:0,0:0:0:0:
98,337,150056,1,2,3:2:0:0:
38,250,150238,1,8,1:0:0:0:
77,355,150420,1,2,3:2:0:0:
117,174,150602,6,0,B|85:62|85:62|39:130,1,175.499991966248,6|0,1:0|0:0,0:0:0:0:
32,130,150965,1,8,1:0:0:0:
203,208,151147,2,0,B|284:188|284:188|298:192|298:192|400:169,1,175.499991966248,2|0,3:1|0:0,0:0:0:0:
400,186,151511,1,2,3:2:0:0:
447,79,151693,1,8,1:0:0:0:
360,1,151874,1,2,3:2:0:0:
259,58,152056,5,6,1:0:0:0:
355,97,152238,1,2,3:2:0:0:
182,124,152420,2,0,L|128:142,2,56.25,8|2|2,1:0|0:0|3:2,0:0:0:0:
260,70,152783,5,6,1:0:0:0:
355,108,152965,1,2,3:2:0:0:
182,135,153147,2,0,L|128:153,2,56.25,8|2|2,1:0|0:0|3:2,0:0:0:0:
99,236,153511,6,0,B|151:220|151:220|128:152,1,125.999996154785,14|0,1:0|0:0,0:0:0:0:
54,93,153783,2,0,B|2:109|2:109|24:176,1,125.999996154785,14|0,1:0|0:0,0:0:0:0:
99,236,154056,1,14,1:0:0:0:
90,261,154146,1,8,0:3:0:0:
81,286,154237,1,8,0:3:0:0:
72,312,154328,1,8,0:3:0:0:
63,337,154419,1,4,3:3:0:0:
225,383,154602,6,0,L|256:298,1,90,4|0,3:2|3:0,0:0:0:0:
158,319,154965,1,4,1:0:0:0:
158,319,155329,6,0,L|141:258,3,45,6|4|8|8,0:3|0:3|0:3|0:3,0:0:0:0:
214,218,155693,2,0,L|226:174,3,45,10|8|4|4,0:3|0:3|0:3|0:3,0:0:0:0:
150,129,156056,1,14,0:3:0:0:
169,101,156146,1,12,0:3:0:0:
198,85,156237,1,12,0:3:0:0:
231,81,156328,1,12,0:3:0:0:
263,92,156420,6,0,B|323:109|323:109|343:148|343:148|418:171,1,175.499991966248,6|0,1:0|0:0,0:0:0:0:
461,105,156783,2,0,B|439:53|439:53|408:173,1,175.499991966248,8|0,3:2|0:0,0:0:0:0:
468,222,157147,1,0,1:0:0:0:
351,273,157329,2,0,L|247:257,2,99.0000030212403,2|8|2,0:3|3:2|0:3,0:0:0:0:
468,222,157874,5,2,1:0:0:0:
340,356,158056,1,2,0:3:0:0:
340,356,158238,2,0,L|236:340,1,99.0000030212403,8|2,3:2|0:3,0:0:0:0:
86,264,158602,5,0,1:0:0:0:
184,235,158783,1,2,0:3:0:0:
81,351,158965,1,8,3:2:0:0:
0,326,159147,1,2,0:3:0:0:
184,235,159329,6,0,B|192:168|192:168|177:140|177:140|190:47,1,182.250000695229,6|0,1:0|0:0,0:0:0:0:
261,120,159693,2,0,P|265:41|188:57,1,182.250000695229,8|0,3:2|0:0,0:0:0:0:
111,75,160056,1,0,1:0:0:0:
271,126,160238,2,0,L|394:118,2,103.500001974106,2|8|2,0:3|3:2|0:3,0:0:0:0:
70,146,160783,5,2,1:0:0:0:
280,210,160965,1,2,0:3:0:0:
280,210,161147,2,0,L|403:202,1,103.500001974106,8|2,3:2|0:3,0:0:0:0:
399,208,161420,1,0,0:0:0:0:
415,213,161511,5,0,1:0:0:0:
342,286,161693,1,2,0:3:0:0:
269,359,161874,2,0,B|172:334|172:334|159:366|124:373,1,155.250002961159,8|0,3:2|0:0,0:0:0:0:
103,295,162238,6,0,P|64:225|57:144,1,161.999995056153,6|0,1:0|0:0,0:0:0:0:
6,89,162602,2,0,P|58:46|97:64,1,107.999996704102,8|2,3:2|0:3,0:0:0:0:
231,120,162965,1,0,1:0:0:0:
174,6,163147,2,0,P|219:32|234:86,1,107.999996704102,2|8,0:3|3:2,0:0:0:0:
234,126,163420,1,0,0:0:0:0:
231,120,163511,1,2,0:3:0:0:
147,208,163693,6,0,L|240:223,1,90,2|2,1:0|0:3,0:0:0:0:
378,283,164056,2,0,B|397:184|397:184|349:175,1,148.50000453186,8|0,3:2|0:0,0:0:0:0:
337,173,164420,1,0,1:0:0:0:
266,358,164602,2,0,B|246:259|246:259|294:250,1,148.50000453186,2|0,0:3|0:0,0:0:0:0:
307,248,164966,1,2,0:3:0:0:
509,340,165147,6,0,P|433:353|377:273,1,175.499991966248,6|0,1:0|0:0,0:0:0:0:
421,213,165511,2,0,B|430:144|430:144|439:140|439:140|454:31,1,175.499991966248,8|0,3:2|0:0,0:0:0:0:
456,21,165874,1,0,1:0:0:0:
359,95,166056,2,0,P|326:48|276:36,1,99.0000030212403,2|8,0:3|3:2,0:0:0:0:
148,157,166420,6,0,B|240:161|240:161|280:156|281:115,1,161.999995056153,2|0,0:3|0:0,0:0:0:0:
288,35,166783,1,2,0:3:0:0:
350,178,166965,2,0,P|401:215|454:220,1,107.999996704102,8|10,3:2|0:3,0:0:0:0:
283,120,167329,1,0,1:0:0:0:
335,279,167511,2,0,P|410:319|436:212,1,215.999993408203,10|6,0:3|0:3,0:0:0:0:
283,120,168056,6,0,L|234:101,7,36,6|0|0|0|8|0|0|0,3:1|0:0|0:0|0:0|0:0|0:0|0:0|0:0,0:0:0:0:
190,161,168783,6,0,L|141:180,7,47.2499985580445,2|0|0|0|8|0|2|2,3:1|0:0|0:0|0:0|0:0|0:0|0:0|0:0,0:0:0:0:
79,131,169511,5,2,3:2:0:0:
79,131,169693,2,0,P|20:155|14:200,1,107.999996704102,0|8,0:0|0:0,0:0:0:0:
96,298,170056,1,2,0:0:0:0:
104,297,170147,1,2,0:0:0:0:
114,295,170238,6,0,P|145:281|172:260,1,53.9999983520508,2|0,3:2|0:0,0:0:0:0:
219,328,170420,2,0,P|252:343|271:361,1,53.9999983520508
317,291,170602,1,8,0:0:0:0:
327,287,170693,1,0,0:0:0:0:
335,281,170783,1,0,0:0:0:0:
343,274,170874,1,0,0:0:0:0:
350,265,170965,6,0,L|362:207,7,45,6|0|0|0|8|0|0|0,3:1|0:0|0:0|0:0|0:0|0:0|0:0|0:0,0:0:0:0:
430,172,171693,2,0,L|419:123,7,49.5000015106202,2|0|0|0|8|0|0|0,3:1|0:0|0:0|0:0|0:0|0:0|0:0|0:0,0:0:0:0:
353,84,172420,5,4,3:1:0:0:
356,69,172511,1,0,0:0:0:0:
359,54,172602,1,0,0:0:0:0:
363,39,172693,1,0,0:0:0:0:
367,24,172783,1,8,0:0:0:0:
257,147,172965,1,0,0:0:0:0:
251,155,173056,1,0,0:0:0:0:
247,165,173147,5,2,3:2:0:0:
333,230,173329,1,8,0:1:0:0:
218,304,173511,2,0,P|173:318|122:340,1,101.250003862381,4|0,0:0|0:0,0:0:0:0:
109,345,173874,5,4,0:1:0:0:
98,333,173965,1,0,0:0:0:0:
85,323,174056,1,0,0:0:0:0:
73,313,174147,1,0,0:0:0:0:
61,304,174238,2,0,P|36:294|8:286,3,49.5000015106202,8|0|0|0,0:0|0:0|0:0|0:0,0:0:0:0:
119,239,174602,5,8,0:0:0:0:
115,223,174693,1,0,0:0:0:0:
109,207,174784,1,0,0:0:0:0:
103,193,174875,1,0,0:0:0:0:
97,179,174966,2,0,P|80:158|59:137,3,49.5000015106202,8|0|0|0,0:0|0:0|0:0|0:0,0:0:0:0:
179,151,175329,5,8,0:0:0:0:
184,135,175420,1,0,0:0:0:0:
187,118,175511,1,0,0:0:0:0:
188,103,175602,1,0,0:0:0:0:
190,88,175693,2,0,P|186:61|178:33,3,49.5000015106202,8|0|0|0,0:0|0:0|0:0|0:0,0:0:0:0:
275,104,176056,5,8,0:0:0:0:
287,93,176147,1,0,0:0:0:0:
298,80,176238,1,0,0:0:0:0:
306,67,176329,1,0,0:0:0:0:
316,55,176420,2,0,P|325:30|333:2,3,49.5000015106202,8|0|0|0,0:0|0:0|0:0|0:0,0:0:0:0:
374,117,176783,5,12,0:1:0:0:
381,123,176874,1,0,0:0:0:0:
388,129,176965,1,0,0:0:0:0:
395,135,177056,1,0,0:0:0:0:
402,141,177147,6,0,L|466:131,1,49.5000015106202,8|0,0:1|0:0,0:0:0:0:
426,219,177329,2,0,L|378:227,1,49.5000015106202
311,271,177511,5,8,0:1:0:0:
311,271,177602,1,0,0:0:0:0:
311,271,177693,2,0,P|285:282|257:306,1,49.5000015106202
209,348,177874,1,8,0:1:0:0:
209,348,177965,1,0,0:0:0:0:
209,348,178056,2,0,P|183:337|155:313,1,49.5000015106202
90,291,178238,6,0,L|54:298,3,36,8|8|0|8,0:1|0:3|0:0|0:3,0:0:0:0:
75,215,178602,2,0,L|39:222,3,36,8|4|8|8,0:1|0:3|0:3|0:3,0:0:0:0:
128,145,178965,5,8,0:1:0:0:
156,148,179056,1,8,0:3:0:0:
184,151,179147,1,4,0:3:0:0:
212,154,179238,1,4,0:3:0:0:
240,157,179329,5,8,0:1:0:0:
281,145,179420,1,12,0:3:0:0:
322,133,179511,1,12,0:3:0:0:
363,121,179602,1,12,0:3:0:0:
404,109,179693,6,0,B|492:82|499:12|420:-34|358:26|396:115,1,251.999992309571,6|8,1:0|1:0,0:0:0:0:
297,232,180238,1,0,3:0:0:0:
299,243,180329,1,2,0:0:0:0:
301,254,180420,6,0,P|328:276|356:287,1,58.4999973220826,2|2,1:0|0:2,0:0:0:0:
251,320,180602,2,0,P|230:337|199:367,1,58.4999973220826,2|2,3:2|0:2,0:0:0:0:
154,294,180783,2,0,P|131:277|108:252,1,58.4999973220826,10|2,1:0|0:2,0:0:0:0:
65,324,180965,2,0,P|42:339|8:355,1,58.4999973220826,2|2,3:2|0:2,0:0:0:0:
144,185,181147,5,2,1:0:0:0:
152,177,181238,1,2,0:2:0:0:
161,170,181329,1,2,3:2:0:0:
171,165,181420,1,2,0:2:0:0:
182,163,181511,6,0,L|263:180,1,58.4999973220826,10|2,1:0|0:2,0:0:0:0:
313,142,181693,2,0,P|337:128|352:96,1,58.4999973220826,2|2,3:2|0:2,0:0:0:0:
380,202,181874,1,2,1:0:0:0:
382,237,181965,1,2,0:2:0:0:
366,268,182056,1,2,3:2:0:0:
333,280,182147,1,2,0:2:0:0:
297,278,182238,6,0,P|267:267|243:244,1,58.4999973220826,10|2,1:0|0:2,0:0:0:0:
194,315,182420,2,0,P|164:326|140:349,1,58.4999973220826,2|2,3:2|0:2,0:0:0:0:
86,281,182602,6,0,B|67:229|19:206|-30:218|-29:253|0:276|21:257,1,175.499991966248,6|2,1:0|0:0,0:0:0:0:
117,184,182965,1,10,1:0:0:0:
117,184,183056,1,2,0:2:0:0:
117,184,183147,2,0,P|141:160|169:149,1,58.4999973220826,2|2,3:2|0:2,0:0:0:0:
70,13,183329,5,2,1:0:0:0:
70,13,183420,2,0,P|89:39|128:43,1,58.4999973220826,2|2,0:2|3:2,0:0:0:0:
186,75,183602,2,0,P|268:57|314:53,1,116.999994644165,2|2,0:2|0:2,0:0:0:0:
381,90,183874,1,2,3:2:0:0:
381,90,183965,1,2,0:2:0:0:
381,90,184056,6,0,P|411:104|454:108,2,58.4999973220826,2|2|2,1:0|0:2|3:2,0:0:0:0:
302,183,184329,1,2,0:2:0:0:
302,183,184420,2,0,P|320:210|356:235,2,58.4999973220826,10|2|2,1:0|0:2|3:2,0:0:0:0:
187,224,184693,1,2,0:2:0:0:
187,224,184783,2,0,P|189:256|207:296,2,58.4999973220826,2|8|8,1:0|0:3|3:3,0:0:0:0:
127,171,185056,6,0,P|81:128|29:148,1,116.999994644165,8|4,0:3|0:3,0:0:0:0:
63,224,185329,1,4,3:3:0:0:
63,224,185420,1,4,0:3:0:0:
63,224,185511,6,0,P|171:177|240:162,1,188.999994232178,4|0,1:0|0:0,0:0:0:0:
307,120,185874,2,0,B|347:80|308:18|247:27|196:89|240:161,1,242.999992584229,10|2,1:0|0:0,0:0:0:0:
308,221,186238,5,2,1:0:0:0:
308,221,186329,1,2,0:0:0:0:
308,221,186420,2,0,P|337:205|375:196,1,58.4999973220826,2|2,3:2|0:0,0:0:0:0:
437,260,186602,2,0,B|468:257|468:257|491:285,1,58.4999973220826,10|0,1:0|0:0,0:0:0:0:
451,352,186783,2,0,B|420:355|420:355|397:327,1,58.4999973220826,2|0,3:2|0:0,0:0:0:0:
308,221,186965,5,4,1:0:0:0:
231,346,187147,1,0,3:0:0:0:
231,346,187238,2,0,P|175:315|117:307,1,116.999994644165,2|2,0:0|0:0,0:0:0:0:
59,264,187511,2,0,P|23:249|7:230,1,58.4999973220826,2|0,3:2|0:0,0:0:0:0:
75,186,187693,1,2,1:0:0:0:
70,169,187783,1,2,0:0:0:0:
70,151,187874,1,2,3:2:0:0:
74,133,187965,1,2,0:0:0:0:
81,117,188056,6,0,L|155:107,1,58.4999973220826,10|0,1:0|0:0,0:0:0:0:
68,37,188238,2,0,L|126:30,1,58.4999973220826,2|0,3:2|0:0,0:0:0:0:
223,98,188420,6,0,P|235:128|259:145,3,58.4999973220826,6|2|2|2,1:0|0:0|3:2|0:0,0:0:0:0:
322,21,188783,2,0,P|302:46|299:75,1,58.4999973220826,10|2,1:0|0:0,0:0:0:0:
363,181,188965,1,2,3:2:0:0:
374,180,189056,1,2,0:0:0:0:
385,179,189147,6,0,L|455:173,3,58.4999973220826,6|2|2|2,1:0|0:0|3:2|0:0,0:0:0:0:
313,245,189511,1,8,1:0:0:0:
292,256,189602,1,2,0:0:0:0:
274,271,189693,1,2,3:2:0:0:
262,291,189783,1,2,0:0:0:0:
257,313,189874,6,0,P|192:349|168:312,1,116.999994644165,14|2,1:0|3:2,0:0:0:0:
102,286,190147,1,6,0:0:0:0:
93,278,190238,2,0,P|63:260|28:253,1,58.4999973220826,12|2,1:0|0:0,0:0:0:0:
148,212,190420,2,0,P|161:186|182:160,1,58.4999973220826,6|2,3:2|0:0,0:0:0:0:
46,178,190602,6,0,P|-4:144|10:80,1,116.999994644165,12|2,1:0|3:2,0:0:0:0:
64,39,190874,1,2,0:0:0:0:
64,39,190965,2,0,P|123:61|185:71,1,116.999994644165,4|4,1:0|0:3,0:0:0:0:
308,29,191329,5,4,0:1:0:0:
310,37,191693,1,2,0:3:0:0:
312,45,192056,1,2,0:3:0:0:
314,53,192420,1,2,0:3:0:0:
381,97,192602,1,2,0:3:0:0:
336,162,192784,5,2,0:3:0:0:
338,170,193148,1,2,0:3:0:0:
340,178,193511,1,2,0:3:0:0:
342,186,193874,1,2,0:3:0:0:
305,258,194056,1,2,0:3:0:0:
309,268,194147,1,2,0:3:0:0:
317,274,194238,6,0,P|354:284|400:285,1,67.5000025749208,2|2,0:3|0:3,0:0:0:0:
367,365,194602,2,0,P|333:362|301:352,1,67.5000025749208,2|2,0:3|0:3,0:0:0:0:
137,227,194965,6,0,P|117:260|86:293,1,67.5000025749208,2|2,0:3|0:3,0:0:0:0:
165,326,195329,2,0,P|186:300|203:270,1,67.5000025749208,2|2,0:3|0:3,0:0:0:0:
346,183,195693,5,2,0:3:0:0:
365,178,195783,1,2,0:3:0:0:
384,173,195874,1,2,0:3:0:0:
403,168,195965,1,2,0:3:0:0:
422,164,196056,1,2,0:3:0:0:
273,145,196238,1,2,0:3:0:0:
254,140,196329,1,2,0:3:0:0:
235,135,196419,1,2,0:3:0:0:
342,96,196602,5,2,0:3:0:0:
272,227,196783,2,0,L|285:316,1,67.5000025749208,4|0,0:0|0:0,0:0:0:0:
281,293,197147,5,4,1:0:0:0:
282,314,197237,1,2,0:3:0:0:
276,334,197328,1,2,0:3:0:0:
264,352,197419,1,2,0:3:0:0:
248,364,197510,1,2,0:3:0:0:
228,371,197601,1,2,0:3:0:0:
207,370,197692,1,2,0:3:0:0:
187,363,197783,1,2,0:3:0:0:
170,350,197874,6,0,P|155:331|147:309,3,45,2|2|2|2,3:3|0:3|0:3|0:3,0:0:0:0:
70,293,198238,2,0,P|79:269|94:251,3,45,2|2|2|2,0:3|0:3|0:3|0:3,0:0:0:0:
69,176,198602,2,0,P|94:172|117:176,3,45,2|2|2|2,3:3|0:3|0:3|0:3,0:0:0:0:
169,116,198965,2,0,P|184:135|192:157,3,45,2|2|2|2,0:3|0:3|0:3|0:3,0:0:0:0:
270,172,199329,2,0,P|260:195|245:213,3,45,2|2|2|2,3:3|0:3|0:3|0:3,0:0:0:0:
272,287,199693,2,0,P|246:290|223:286,3,45,2|2|2|2,0:3|0:3|0:3|0:3,0:0:0:0:
327,345,200056,6,0,P|342:325|350:303,3,45,2|2|2|2,3:3|0:3|0:3|0:3,0:0:0:0:
429,287,200420,2,0,P|419:263|404:245,3,45,2|2|2|2,3:3|0:3|0:3|0:3,0:0:0:0:
431,171,200783,2,0,P|405:167|382:171,3,45,2|2|2|2,3:3|0:3|0:3|0:3,0:0:0:0:
331,111,201147,2,0,P|315:130|307:152,3,45,2|2|2|2,3:3|0:3|0:3|0:3,0:0:0:0:
246,197,201511,6,0,L|239:231,3,26.9999991760254,8|8|4|8,0:1|0:3|0:3|0:3,0:0:0:0:
221,301,201874,2,0,L|214:335,3,26.9999991760254,8|4|8|8,0:1|0:3|0:3|0:3,0:0:0:0:
299,277,202238,6,0,L|325:282,3,26.9999991760254,8|8|4|4,0:1|0:3|0:3|0:3,0:0:0:0:
167,242,202602,2,0,L|133:235,3,26.9999991760254,8|12|12|12,0:1|0:3|0:3|0:3,0:0:0:0:
240,223,202965,6,0,B|267:50|267:50|178:35,1,233.999989288331,6|8,1:0|1:0,0:0:0:0:
18,145,203511,2,0,B|10:185|10:185|161:150,1,175.499991966248,2|0,3:1|0:0,0:0:0:0:
171,148,203874,1,0,3:0:0:0:
96,73,204056,1,8,1:0:0:0:
240,223,204238,6,0,B|306:233|337:179|324:164|371:115|440:141,1,233.999989288331,2|2,3:1|3:2,0:0:0:0:
407,233,204783,1,8,1:0:0:0:
474,59,204965,1,2,3:2:0:0:
370,18,205147,6,0,B|313:46|313:46|362:167,1,175.499991966248,10|0,1:0|0:0,0:0:0:0:
407,233,205511,2,0,B|464:261|464:261|415:382,1,175.499991966248,10|0,1:0|0:0,0:0:0:0:
336,344,205874,6,0,B|296:352|296:352|160:288|160:288|112:296,1,233.999989288331,6|8,1:0|1:0,0:0:0:0:
296,264,206420,6,0,B|260:276|260:276|186:365|186:365|152:376,1,182.250000695229,2|0,3:1|0:0,0:0:0:0:
77,369,206783,1,0,3:0:0:0:
0,273,206965,1,8,1:0:0:0:
157,174,207147,6,0,P|37:133|78:89,1,243.000000926971,2|2,3:1|3:2,0:0:0:0:
86,77,207602,1,2,0:0:0:0:
115,74,207693,1,8,1:0:0:0:
157,174,207874,1,2,3:2:0:0:
258,85,208056,2,0,P|252:111|246:134,3,45,10|8|8|8,1:0|0:3|3:3|0:3,0:0:0:0:
314,200,208420,1,6,1:3:0:0:
357,213,208511,1,4,0:3:0:0:
404,199,208602,1,4,3:3:0:0:
428,150,208693,1,4,0:3:0:0:
403,97,208783,6,0,P|382:174|360:349,1,233.999989288331,6|8,1:0|1:0,0:0:0:0:
185,351,209329,2,0,P|179:269|261:258,1,175.499991966248,2|0,3:1|0:0,0:0:0:0:
277,282,209693,1,2,3:2:0:0:
441,374,209874,1,8,1:0:0:0:
439,209,210056,5,2,3:2:0:0:
360,326,210238,2,0,P|345:233|320:148,1,175.499991966248,6|0,1:0|0:0,0:0:0:0:
291,128,210602,1,8,1:0:0:0:
361,0,210783,2,0,P|443:38|423:115,1,175.499991966248,2|0,3:1|0:0,0:0:0:0:
408,125,211147,1,0,3:0:0:0:
277,49,211329,1,8,1:0:0:0:
194,160,211511,1,2,3:2:0:0:
63,84,211693,5,6,1:0:0:0:
194,160,211874,1,2,3:2:0:0:
80,191,212056,2,0,L|10:203,2,45,8|2|2,1:0|0:0|3:2,0:0:0:0:
170,67,212420,5,6,1:0:0:0:
80,191,212602,1,2,3:2:0:0:
194,160,212783,1,8,1:0:0:0:
216,156,212873,1,2,0:0:0:0:
238,152,212964,1,2,3:2:0:0:
324,82,213147,6,0,L|342:230,1,125.999996154785,6|8,1:0|0:3,0:0:0:0:
410,107,213420,2,0,L|425:229,1,103.500001974106,6|4,1:0|0:3,0:0:0:0:
499,152,213693,2,0,L|507:216,1,58.4999973220826,6|0,1:0|0:0,0:0:0:0:
496,334,213874,5,8,0:3:0:0:
474,330,213964,1,8,0:3:0:0:
453,327,214055,1,8,1:3:0:0:
432,324,214146,1,8,0:3:0:0:
411,321,214238,2,0,L|345:332,1,45,4|4,1:2|0:3,0:0:0:0:
292,369,214420,2,0,L|226:358,1,45,4|4,0:3|0:3,0:0:0:0:
79,324,214602,6,0,P|21:235|121:228,1,243.000000926971,6|8,1:0|1:0,0:0:0:0:
162,384,215147,2,0,P|174:308|215:204,1,182.250000695229,2|0,3:1|0:0,0:0:0:0:
226,184,215511,1,0,3:0:0:0:
144,125,215693,1,8,1:0:0:0:
226,184,215874,2,0,P|249:113|180:33,1,180,2|2,3:1|3:2,0:0:0:0:
172,28,216329,1,0,0:0:0:0:
141,26,216420,1,8,1:0:0:0:
41,160,216602,1,2,3:2:0:0:
22,7,216783,5,10,1:0:0:0:
120,212,216965,1,2,3:2:0:0:
260,41,217147,2,0,B|383:18|383:18|399:45,1,155.250002961159,10|2,1:0|0:0,0:0:0:0:
488,26,217511,6,0,B|503:97|449:143|438:109|377:165|406:239,1,243.000000926971,6|8,1:0|1:0,0:0:0:0:
486,347,218056,2,0,B|471:355|471:355|322:338|322:338|314:324,1,182.250000695229,2|0,3:1|0:0,0:0:0:0:
303,298,218420,1,0,3:0:0:0:
215,141,218602,1,8,1:0:0:0:
212,319,218783,6,0,B|196:247|251:202|262:236|323:180|293:105,1,243.000000926971,2|2,3:1|3:2,0:0:0:0:
274,77,219238,1,0,0:0:0:0:
235,59,219329,1,8,1:0:0:0:
74,215,219511,1,2,3:2:0:0:
114,14,219693,5,10,1:0:0:0:
97,42,219783,1,8,0:3:0:0:
94,77,219874,1,8,3:3:0:0:
106,109,219965,1,8,0:3:0:0:
130,134,220056,1,6,1:3:0:0:
156,162,220148,1,4,0:3:0:0:
169,198,220239,1,4,3:3:0:0:
166,237,220330,1,4,0:3:0:0:
141,278,220420,6,0,B|7:308|7:308|30:272,1,175.499991966248,6|0,1:0|0:0,0:0:0:0:
46,250,220783,1,8,1:0:0:0:
227,323,220965,2,0,B|318:342|318:342|345:368|345:368|448:384,1,233.999989288331,2|2,3:1|3:2,0:0:0:0:
457,210,221511,2,0,P|399:237|394:288,1,116.999994644165,8|2,1:0|3:2,0:0:0:0:
446,384,221874,6,0,L|402:117,1,251.999992309571,6|8,1:0|1:0,0:0:0:0:
436,31,222420,2,0,B|438:-9|499:-29|537:14|545:73|439:129,1,188.999994232178,2|0,3:1|0:0,0:0:0:0:
405,135,222783,2,0,P|372:128|348:104,1,62.9999980773926,0|0,3:0|0:0,0:0:0:0:
281,166,222965,2,0,P|263:111|273:78,1,67.5000025749208,8|0,1:0|0:0,0:0:0:0:
174,117,223147,2,0,P|180:62|203:40,1,80.9999975280763,2|0,3:2|0:0,0:0:0:0:
99,17,223329,5,6,1:0:0:0:
61,170,223511,1,2,3:2:0:0:
17,38,223693,2,0,L|36:100,2,56.25,8|2|2,1:0|0:0|3:2,0:0:0:0:
158,197,224056,5,6,1:0:0:0:
196,44,224238,1,2,3:2:0:0:
240,176,224420,2,0,L|221:114,2,56.25,8|2|2,1:0|0:0|3:2,0:0:0:0:
32,181,224783,6,0,L|180:199,1,125.999996154785,6|8,1:0|0:3,0:0:0:0:
57,267,225056,2,0,L|179:282,1,103.500001974106,6|4,1:0|0:3,0:0:0:0:
102,356,225329,2,0,L|166:364,1,58.4999973220826,6|0,1:0|0:0,0:0:0:0:
274,325,225511,5,8,0:3:0:0:
288,329,225602,1,8,0:3:0:0:
303,327,225693,1,4,3:3:0:0:
317,332,225784,1,4,0:3:0:0:
332,331,225875,2,0,L|350:378,3,45,4|0|0|0,3:2|3:0|3:0|3:0,0:0:0:0:
387,278,226238,6,0,P|372:264|345:256,3,45,4|8|8|8,1:0|0:3|0:3|0:3,0:0:0:0:
296,200,226602,2,0,P|333:177|359:183,3,53.9999983520508,6|4|4|4,0:3|0:3|0:3|0:3,0:0:0:0:
403,126,226965,2,0,P|362:101|338:101,3,67.5000025749208,6|4|4|4,0:3|0:3|0:3|0:3,0:0:0:0:
263,68,227329,1,14,0:3:0:0:
282,40,227419,1,12,0:3:0:0:
310,22,227510,1,12,0:3:0:0:
343,16,227601,1,12,0:3:0:0:
376,22,227693,6,0,P|465:61|457:195,1,243.000000926971,6|8,1:0|1:0,0:0:0:0:
390,239,228147,1,2,0:0:0:0:
390,239,228238,2,0,B|337:227|303:267|328:276|286:321|231:299,1,182.250000695229,2|0,3:1|0:0,0:0:0:0:
232,299,228602,2,0,P|225:273|221:246,1,45,2|0,3:2|0:0,0:0:0:0:
139,271,228783,2,0,P|144:301|155:330,1,60.7500002317429,8|0,1:0|0:0,0:0:0:0:
58,384,228965,6,0,P|50:293|27:205,1,182.250000695229,2|0,3:1|0:0,0:0:0:0:
27,205,229329,1,2,3:2:0:0:
152,109,229511,1,8,1:0:0:0:
21,11,229693,1,2,3:2:0:0:
177,191,229874,2,0,P|227:155|211:47,1,182.250000695229,10|0,1:0|0:0,0:0:0:0:
134,27,230238,2,0,P|84:63|100:171,1,182.250000695229,10|0,1:0|0:0,0:0:0:0:
190,272,230602,6,0,B|205:285|205:285|405:253|405:253|421:266,1,243.000000926971,6|8,1:0|1:0,0:0:0:0:
512,292,231147,1,2,3:1:0:0:
444,359,231329,2,0,P|416:314|422:263,1,103.500001974106,0|2,1:0|3:2,0:0:0:0:
488,202,231693,1,8,1:0:0:0:
440,32,231874,6,0,B|373:44|373:44|400:159,1,180,2|2,3:1|3:2,0:0:0:0:
401,166,232329,1,2,0:0:0:0:
405,181,232420,1,10,1:0:0:0:
494,107,232602,1,2,3:2:0:0:
302,144,232783,2,0,P|291:170|288:198,3,56.25,10|8|8|8,1:0|0:3|3:3|0:3,0:0:0:0:
350,291,233147,5,6,1:3:0:0:
322,310,233238,1,4,0:3:0:0:
282,315,233329,1,4,3:3:0:0:
239,301,233420,1,4,0:3:0:0:
206,262,233511,6,0,P|190:156|159:30,1,225,6|8,1:0|1:0,0:0:0:0:
302,144,234056,2,0,B|254:192|191:174|211:147|136:128|93:189,1,225,2|2,3:1|3:2,0:0:0:0:
10,236,234602,1,8,1:0:0:0:
122,287,234783,1,2,3:2:0:0:
64,86,234965,2,0,P|-3:133|-1:213,1,168.75,6|0,1:0|0:0,0:0:0:0:
10,236,235329,1,8,1:0:0:0:
162,41,235511,6,0,P|189:150|206:262,1,225,2|2,3:1|3:2,0:0:0:0:
299,251,236056,1,8,1:0:0:0:
387,335,236238,1,2,3:2:0:0:
499,277,236420,5,6,1:0:0:0:
400,203,236602,1,2,3:2:0:0:
299,251,236783,2,0,L|282:326,2,56.25,8|2|2,1:0|0:0|3:2,0:0:0:0:
301,129,237147,5,6,1:0:0:0:
400,203,237329,1,2,3:2:0:0:
501,148,237511,2,0,L|517:72,2,56.25,8|2|2,1:0|0:0|3:2,0:0:0:0:
279,29,237874,6,0,P|272:93|321:137,1,112.5,14|0,1:0|0:0,0:0:0:0:
353,46,238147,2,0,P|306:74|300:128,1,112.5,14|0,1:0|0:0,0:0:0:0:
367,113,238420,2,0,P|331:111|299:128,1,72,14|8,1:0|0:3,0:0:0:0:
234,180,238602,1,8,0:3:0:0:
216,183,238692,1,8,0:3:0:0:
198,186,238783,1,4,3:3:0:0:
180,189,238874,1,4,0:3:0:0:
163,192,238965,2,0,L|145:131,3,53.9999983520508,4|0|0|0,3:2|3:0|3:0|3:0,0:0:0:0:
91,240,239329,6,0,P|110:260|136:267,3,53.9999983520508,4|8|4|8,1:0|0:3|0:3|0:3,0:0:0:0:
145,347,239693,2,0,P|174:342|196:324,3,58.4999973220826,6|4|8|8,0:3|0:3|0:3|0:3,0:0:0:0:
274,352,240057,2,0,P|281:322|271:293,3,62.9999980773926,10|8|4|4,0:3|0:3|0:3|0:3,0:0:0:0:
338,242,240420,5,14,0:3:0:0:
366,223,240511,1,12,0:3:0:0:
406,218,240602,1,12,0:3:0:0:
449,232,240693,1,12,0:3:0:0:
477,251,240783,6,0,B|540:291|553:378|508:395|436:396|441:321,1,242.999992584229,4|0,1:0|0:0,0:0:0:0:
366,223,241147,2,0,P|315:164|206:197,1,188.999994232178,10|2,1:0|0:0,0:0:0:0:
170,248,241511,2,0,P|106:266|56:166,1,188.999994232178,2|2,1:0|0:0,0:0:0:0:
19,99,241874,2,0,P|62:48|120:57,1,125.999996154785,10|0,1:0|3:0,0:0:0:0:
193,108,242147,1,0,0:0:0:0:
193,108,242238,6,0,L|257:92,1,62.9999980773926,2|2,1:0|0:0,0:0:0:0:
215,184,242420,2,0,L|410:138,1,188.999994232178,2|0,3:2|0:0,0:0:0:0:
459,41,242783,6,0,B|423:-11|423:-11|398:144,1,216,2|2,3:1|0:0,0:0:0:0:
398,139,243147,1,2,3:2:0:0:
503,281,243329,2,0,P|466:336|399:333,1,135,8|0,1:0|0:0,0:0:0:0:
355,269,243693,6,0,B|286:246|251:308|267:320|243:370|182:363,1,216,4|0,1:0|0:0,0:0:0:0:
125,311,244056,2,0,B|108:249|28:225|2:253|-13:334|61:331,1,216,10|0,1:0|0:0,0:0:0:0:
125,311,244420,2,0,B|170:265|150:183|113:175|36:202|75:265,1,216,2|2,1:0|0:0,0:0:0:0:
125,311,244783,2,0,B|187:327|247:269|236:233|174:179|139:245,1,216,10|2,1:0|0:0,0:0:0:0:
147,233,245147,5,2,1:0:0:0:
12,162,245329,2,0,L|-1:49,1,107.999996704102,0|8,3:0|1:0,0:0:0:0:
95,180,245693,2,0,B|80:33|80:33|137:-5,1,216,2|8,3:1|0:3,0:0:0:0:
163,73,246056,1,8,3:3:0:0:
176,79,246147,1,8,0:3:0:0:
189,85,246238,2,0,P|254:80|281:30,1,107.999996704102,4|4,1:3|3:3,0:0:0:0:
350,89,246511,1,4,0:3:0:0:
350,89,246602,2,0,P|386:50|438:52,1,107.999996704102,4|0,1:0|3:0,0:0:0:0:
508,263,246965,5,10,1:0:0:0:
444,326,247147,1,2,3:2:0:0:
510,257,247329,2,0,L|304:224,1,188.999994232178,2|2,1:0|0:0,0:0:0:0:
251,259,247693,2,0,P|203:287|209:355,1,125.999996154785,10|0,1:0|3:0,0:0:0:0:
324,228,248056,6,0,B|310:153|361:123|374:129|423:90|411:27,1,229.500004377365,6|0,1:0|0:0,0:0:0:0:
411,29,248420,1,8,1:0:0:0:
327,49,248602,1,2,3:1:0:0:
327,49,248693,2,0,P|279:-6|229:4,1,125.999996154785,0|2,0:0|0:0,0:0:0:0:
168,48,248965,1,2,3:2:0:0:
165,58,249056,1,0,0:0:0:0:
162,68,249147,6,0,B|135:155|135:155|190:172,1,144,8|0,1:0|3:0,0:0:0:0:
268,193,249420,1,0,0:0:0:0:
268,193,249511,2,0,B|318:208|318:208|292:295,1,144,4|0,1:0|3:0,0:0:0:0:
56,369,249874,6,0,P|1:312|86:302,1,202.500007724762,10|2,1:0|0:0,0:0:0:0:
139,367,250238,2,0,P|220:360|167:298,1,202.500007724762,6|2,1:0|0:0,0:0:0:0:
129,229,250602,2,0,P|116:159|221:75,1,202.500007724762,10|0,1:0|0:0,0:0:0:0:
270,30,250965,6,0,L|498:57,1,216,6|8,1:0|0:3,0:0:0:0:
477,136,251329,2,0,L|262:110,1,216,4|4,1:3|0:3,0:0:0:0:
254,190,251693,2,0,L|469:216,1,216,4|4,1:3|0:3,0:0:0:0:
405,289,252056,1,12,1:3:0:0:
378,285,252146,1,12,0:3:0:0:
351,282,252237,1,12,3:0:0:0:
324,279,252328,1,12,0:3:0:0:
297,276,252420,6,0,B|241:268|202:314|214:324|192:370|121:363,1,202.500007724762,4|0,1:0|0:0,0:0:0:0:
66,313,252783,2,0,P|48:250|17:196,1,116.999994644165,10|0,1:0|3:0,0:0:0:0:
86,154,253056,1,0,0:0:0:0:
86,154,253147,2,0,P|99:119|116:93,1,58.4999973220826,2|2,1:0|0:0,0:0:0:0:
189,84,253329,1,2,3:2:0:0:
189,84,253420,1,2,0:0:0:0:
189,84,253511,2,0,P|250:44|320:37,1,116.999994644165,10|0,1:0|3:0,0:0:0:0:
86,154,253874,6,0,B|154:134|195:195|171:213|209:277|283:256,1,242.999992584229,2|0,1:0|0:0,0:0:0:0:
349,210,254238,1,8,1:0:0:0:
427,278,254420,2,0,P|451:220|348:210,1,202.500007724762,2|2,3:1|0:0,0:0:0:0:
281,256,254783,1,2,3:2:0:0:
278,269,254874,1,2,0:0:0:0:
275,281,254965,6,0,L|130:300,1,135.000005149842,8|0,1:0|3:0,0:0:0:0:
69,258,255238,1,0,0:0:0:0:
69,258,255329,2,0,L|50:113,1,135.000005149842,4|0,1:0|3:0,0:0:0:0:
167,30,255693,6,0,B|279:60|279:60|277:95|311:120,1,175.499991966248,10|0,1:0|0:0,0:0:0:0:
357,58,256056,2,0,P|432:40|452:128,1,175.499991966248,2|2,1:0|0:0,0:0:0:0:
417,186,256420,2,0,P|428:248|477:265,1,116.999994644165,10|0,1:0|3:0,0:0:0:0:
473,265,256783,6,0,P|373:283|267:333,1,216,2|0,1:0|0:0,0:0:0:0:
270,330,257147,1,8,1:0:0:0:
205,282,257329,2,0,B|150:218|82:227|58:297|108:349|156:317,1,216,2|8,3:1|0:3,0:0:0:0:
262,223,257693,1,8,3:3:0:0:
262,223,257783,1,8,0:3:0:0:
262,223,257874,2,0,P|294:197|332:189,1,72,4|4,1:3|0:3,0:0:0:0:
221,145,258056,1,4,3:3:0:0:
221,145,258147,1,4,0:3:0:0:
221,145,258238,6,0,P|181:87|108:93,1,135.000005149842,4|2,1:0|3:2,0:0:0:0:
25,269,258602,2,0,B|62:308|62:308|214:281,1,202.500007724762,10|2,1:0|0:0,0:0:0:0:
274,329,258965,2,0,P|314:273|377:291,1,135.000005149842,2|2,1:0|3:2,0:0:0:0:
430,340,259238,1,0,0:0:0:0:
430,340,259329,2,0,P|490:344|489:300,1,116.999994644165,10|0,1:0|3:0,0:0:0:0:
446,171,259693,6,0,B|390:199|341:158|364:140|316:82|252:111,1,216,6|0,1:0|0:0,0:0:0:0:
258,108,260056,1,8,1:0:0:0:
187,16,260238,2,0,P|87:50|109:160,1,216,2|2,3:1|0:0,0:0:0:0:
157,201,260602,1,2,3:2:0:0:
157,201,260693,1,2,0:0:0:0:
157,201,260783,2,0,P|194:208|221:238,1,72,8|0,1:0|0:0,0:0:0:0:
256,307,260965,1,0,3:0:0:0:
256,307,261056,1,0,0:0:0:0:
256,307,261147,6,0,P|342:328|398:368,1,144,4|0,1:0|3:0,0:0:0:0:
157,201,261511,2,0,B|78:191|36:258|79:312|132:314|158:266,1,216,2|2,1:0|0:0,0:0:0:0:
241,218,261874,2,0,L|251:155,3,53.9999983520508,2|2|2|2,1:0|0:0|3:2|0:0,0:0:0:0:
201,100,262238,2,0,L|192:46,3,53.9999983520508,2|2|2|2,1:0|0:0|3:2|0:0,0:0:0:0:
241,218,262602,5,12,0:1:0:0:
272,224,262693,1,8,0:3:0:0:
303,230,262783,1,4,0:3:0:0:
334,236,262874,1,8,0:3:0:0:
365,242,262965,1,8,0:1:0:0:
172,271,263147,1,8,0:3:0:0:
172,271,263238,1,8,0:3:0:0:
172,271,263329,6,0,P|145:286|124:333,1,62.9999980773926,8|8,0:1|0:3,0:0:0:0:
66,253,263511,2,0,P|32:237|15:203,1,62.9999980773926,4|4,0:3|0:3,0:0:0:0:
119,30,263693,1,8,0:1:0:0:
111,66,263783,1,12,0:3:0:0:
104,103,263874,1,12,0:3:0:0:
97,140,263965,1,12,0:3:0:0:
90,177,264056,6,0,P|236:149|188:60,1,288,4|0,1:0|0:0,0:0:0:0:
225,301,264602,6,0,P|318:185|224:148,1,288,4|0,1:2|0:0,0:0:0:0:
422,230,265147,6,0,P|384:173|317:182,1,144,4|0,1:2|0:0,0:0:0:0:
148,323,265511,5,12,0:1:0:0:
145,334,265602,1,8,0:3:0:0:
170,234,265783,5,8,0:3:0:0:
167,245,265874,1,4,0:3:0:0:
189,156,266056,5,8,0:3:0:0:
192,145,266147,1,8,0:3:0:0:
195,133,266238,2,0,L|211:64,3,58.4999973220826,12|8|4|4,1:0|0:3|0:3|0:3,0:0:0:0:
116,113,266602,2,0,L|132:44,3,58.4999973220826,12|12|12|12,0:3|0:3|0:3|0:3,0:0:0:0:
35,97,266965,5,6,1:0:0:0:
256,192,267056,12,0,268299,0:0:0:0:
