osu file format v14

[General]
AudioFilename: audio.mp3
AudioLeadIn: 0
PreviewTime: 33481
Countdown: 0
SampleSet: Soft
StackLeniency: 0.7
Mode: 0
LetterboxInBreaks: 0
WidescreenStoryboard: 1

[Editor]
DistanceSpacing: 0.3
BeatDivisor: 4
GridSize: 8
TimelineZoom: 2.2

[Metadata]
Title:Astronauts
TitleUnicode:アストロノーツ
Artist:majiko
ArtistUnicode:まじ娘
Creator:Abelia
Version:A Successful Failure
Source:
Tags:Rock jrock j-rock Japanese mirror 椎名もた siinamota ぽわぽわ powapowa ぽわぽわp powapowaP
BeatmapID:3489160
BeatmapSetID:1707555

[Difficulty]
HPDrainRate:4.9
CircleSize:4
OverallDifficulty:7.2
ApproachRate:8.5
SliderMultiplier:1.7
SliderTickRate:1

[Events]
//Background and Video events
0,0,"canvas.jpg",0,0
//Break Periods
2,27181,32781
2,212781,218506
2,289781,294381
//Storyboard Layer 0 (Background)
//Storyboard Layer 1 (Fail)
//Storyboard Layer 2 (Pass)
//Storyboard Layer 3 (Foreground)
//Storyboard Layer 4 (Overlay)
//Storyboard Sound Samples

[TimingPoints]
-1619,400,4,2,1,17,1,0
1181,-133.333333333333,4,2,1,17,0,0
4681,-133.333333333333,4,2,1,5,0,0
4781,-133.333333333333,4,2,1,17,0,0
6281,-133.333333333333,4,2,1,5,0,0
7381,-133.333333333333,4,2,1,17,0,0
11081,-133.333333333333,4,2,1,5,0,0
11181,-133.333333333333,4,2,1,17,0,0
12481,-133.333333333333,4,2,1,5,0,0
13981,-133.333333333333,4,2,1,17,0,0
19081,-133.333333333333,4,2,1,5,0,0
20181,-133.333333333333,4,2,1,17,0,0
23981,-133.333333333333,4,2,1,17,0,0
33581,-100,4,2,1,70,0,1
55981,-100,4,2,1,70,0,0
59181,-120.481927710843,4,2,1,40,0,0
63881,-120.481927710843,4,2,1,5,0,0
63981,-120.481927710843,4,2,1,40,0,0
68681,-120.481927710843,4,2,1,5,0,0
68781,-120.481927710843,4,2,1,40,0,0
69481,-120.481927710843,4,2,1,5,0,0
69581,-120.481927710843,4,2,1,40,0,0
76681,-120.481927710843,4,2,1,5,0,0
76781,-120.481927710843,4,2,1,40,0,0
79681,-120.481927710843,4,2,1,5,0,0
79781,-120.481927710843,4,2,1,40,0,0
81481,-120.481927710843,4,2,1,5,0,0
81581,-120.481927710843,4,2,1,40,0,0
82281,-120.481927710843,4,2,1,5,0,0
82381,-120.481927710843,4,2,1,40,0,0
84781,-113.636363636364,4,2,1,40,0,0
87881,-113.636363636364,4,2,1,5,0,0
87981,-113.636363636364,4,2,1,40,0,0
88681,-113.636363636364,4,2,1,5,0,0
88781,-113.636363636364,4,2,1,40,0,0
94281,-113.636363636364,4,2,1,5,0,0
94381,-113.636363636364,4,2,1,40,0,0
102281,-113.636363636364,4,2,1,5,0,0
102381,-113.636363636364,4,2,1,40,0,0
107081,-113.636363636364,4,2,1,5,0,0
107181,-113.636363636364,4,2,1,40,0,0
110381,-120.481927710843,4,2,1,40,0,0
116681,-120.481927710843,4,2,1,5,0,0
116781,-120.481927710843,4,2,1,40,0,0
119881,-120.481927710843,4,2,1,5,0,0
119981,-120.481927710843,4,2,1,40,0,0
120681,-120.481927710843,4,2,1,5,0,0
120781,-120.481927710843,4,2,1,40,0,0
123081,-120.481927710843,4,2,1,5,0,0
123181,-120.481927710843,4,2,1,40,0,0
135981,-111.111111111111,4,2,1,40,0,0
138781,-111.111111111111,4,2,1,35,0,0
138914,-111.111111111111,4,2,1,30,0,0
139181,-111.111111111111,4,2,1,40,0,0
141981,-111.111111111111,4,2,1,35,0,0
142114,-111.111111111111,4,2,1,30,0,0
142381,-111.111111111111,4,2,1,40,0,0
145181,-111.111111111111,4,2,1,35,0,0
145314,-111.111111111111,4,2,1,30,0,0
145581,-111.111111111111,4,2,1,40,0,0
148381,-111.111111111111,4,2,1,35,0,0
148514,-111.111111111111,4,2,1,30,0,0
148781,-111.111111111111,4,2,1,40,0,0
151581,-111.111111111111,4,2,1,35,0,0
151714,-111.111111111111,4,2,1,30,0,0
151981,-111.111111111111,4,2,1,40,0,0
154781,-111.111111111111,4,2,1,35,0,0
154914,-111.111111111111,4,2,1,30,0,0
155181,-111.111111111111,4,2,1,40,0,0
157981,-111.111111111111,4,2,1,35,0,0
158381,-111.111111111111,4,2,1,40,0,0
160381,-111.111111111111,4,2,1,60,0,0
160681,-111.111111111111,4,2,1,5,0,0
160781,-111.111111111111,4,2,1,70,0,0
161181,-111.111111111111,4,2,1,40,0,0
161581,-100,4,2,1,100,0,1
161631,-100,4,2,1,50,0,1
163981,-100,4,2,1,80,0,1
164781,-90.9090909090909,4,2,1,80,0,1
165081,-90.9090909090909,4,2,1,5,0,1
165181,-90.9090909090909,4,2,1,80,0,1
187181,-100,4,2,1,75,0,0
188681,-100,4,2,1,5,0,0
188781,-100,4,2,1,75,0,0
190281,-100,4,2,1,5,0,0
190381,-100,4,2,1,75,0,0
195081,-100,4,2,1,5,0,0
195181,-100,4,2,1,75,0,0
196681,-100,4,2,1,5,0,0
196781,-100,4,2,1,75,0,0
201481,-100,4,2,1,5,0,0
201581,-100,4,2,1,75,0,0
212781,-120.481927710843,4,2,1,40,0,0
223081,-120.481927710843,4,2,1,5,0,0
223181,-120.481927710843,4,2,1,40,0,0
233481,-120.481927710843,4,2,1,5,0,0
233581,-120.481927710843,4,2,1,40,0,0
236681,-120.481927710843,4,2,1,5,0,0
236781,-120.481927710843,4,2,1,40,0,0
263981,-111.111111111111,4,2,1,40,0,0
266781,-111.111111111111,4,2,1,35,0,0
266914,-111.111111111111,4,2,1,30,0,0
267181,-111.111111111111,4,2,1,40,0,0
269981,-111.111111111111,4,2,1,35,0,0
270114,-111.111111111111,4,2,1,30,0,0
270381,-111.111111111111,4,2,1,40,0,0
273181,-111.111111111111,4,2,1,35,0,0
273314,-111.111111111111,4,2,1,30,0,0
273581,-111.111111111111,4,2,1,40,0,0
276381,-111.111111111111,4,2,1,35,0,0
276514,-111.111111111111,4,2,1,30,0,0
276781,-111.111111111111,4,2,1,40,0,0
279581,-111.111111111111,4,2,1,35,0,0
279714,-111.111111111111,4,2,1,30,0,0
279981,-111.111111111111,4,2,1,40,0,0
282781,-111.111111111111,4,2,1,35,0,0
282914,-111.111111111111,4,2,1,30,0,0
283181,-111.111111111111,4,2,1,40,0,0
285981,-111.111111111111,4,2,1,35,0,0
286114,-111.111111111111,4,2,1,30,0,0
286381,-111.111111111111,4,2,1,40,0,0
289181,-111.111111111111,4,2,1,35,0,0
289581,-232.558139534884,4,2,1,40,0,0
295981,-86.9565217391304,4,2,1,100,0,1
296031,-86.9565217391304,4,2,1,50,0,1
298381,-86.9565217391304,4,2,1,80,0,1
299481,-86.9565217391304,4,2,1,5,0,1
299581,-86.9565217391304,4,2,1,80,0,1
320981,-80,4,2,1,80,0,1
321581,-80,4,2,1,100,0,1
321631,-80,4,2,1,50,0,1
323981,-80,4,2,1,80,0,1
324381,-86.9565217391304,4,2,1,80,0,1
325081,-86.9565217391304,4,2,1,5,0,1
325181,-86.9565217391304,4,2,1,80,0,1
347181,-111.111111111111,4,2,1,80,0,0
347281,-111.111111111111,4,2,1,40,0,0
349981,-111.111111111111,4,2,1,35,0,0
350114,-111.111111111111,4,2,1,30,0,0
350381,-111.111111111111,4,2,1,40,0,0
353181,-111.111111111111,4,2,1,35,0,0
353314,-111.111111111111,4,2,1,30,0,0
353581,-111.111111111111,4,2,1,40,0,0
356381,-111.111111111111,4,2,1,35,0,0
356514,-111.111111111111,4,2,1,30,0,0
356781,-111.111111111111,4,2,1,40,0,0
359581,-111.111111111111,4,2,1,30,0,0
359714,-111.111111111111,4,2,1,30,0,0
359981,-111.111111111111,4,2,1,40,0,0
362781,-111.111111111111,4,2,1,35,0,0
362914,-111.111111111111,4,2,1,30,0,0
363181,-111.111111111111,4,2,1,40,0,0
365981,-111.111111111111,4,2,1,35,0,0
366114,-111.111111111111,4,2,1,30,0,0
366381,-111.111111111111,4,2,1,40,0,0
369181,-111.111111111111,4,2,1,35,0,0
369314,-111.111111111111,4,2,1,30,0,0
369581,-111.111111111111,4,2,1,40,0,0
372381,-111.111111111111,4,2,1,35,0,0
372514,-111.111111111111,4,2,1,30,0,0
372781,-111.111111111111,4,2,1,40,0,0
375581,-111.111111111111,4,2,1,35,0,0
375714,-111.111111111111,4,2,1,30,0,0
375981,-111.111111111111,4,2,1,40,0,0
378781,-111.111111111111,4,2,1,35,0,0
378914,-111.111111111111,4,2,1,30,0,0
379181,-111.111111111111,4,2,1,40,0,0
381981,-111.111111111111,4,2,1,35,0,0
382114,-111.111111111111,4,2,1,30,0,0
382381,-111.111111111111,4,2,1,40,0,0
385181,-111.111111111111,4,2,1,35,0,0
385314,-111.111111111111,4,2,1,30,0,0
385581,-111.111111111111,4,2,1,40,0,0
388381,-111.111111111111,4,2,1,35,0,0
388514,-111.111111111111,4,2,1,30,0,0
388781,-111.111111111111,4,2,1,40,0,0
391581,-111.111111111111,4,2,1,35,0,0
391714,-111.111111111111,4,2,1,30,0,0
391981,-111.111111111111,4,2,1,40,0,0
394781,-111.111111111111,4,2,1,35,0,0
394914,-111.111111111111,4,2,1,30,0,0
395181,-111.111111111111,4,2,1,40,0,0
397981,-111.111111111111,4,2,1,35,0,0
398381,400,3,2,1,80,1,0
398381,-111.111111111111,4,2,1,80,0,0

[Colours]
Combo1 : 255,213,85
Combo2 : 111,186,255
Combo3 : 116,232,0
Combo4 : 248,135,152

[HitObjects]
95,271,1181,6,0,B|91:299|91:299|88:305|88:305|85:333,1,63.7500024318696,2|0,0:0|0:0,0:0:0:0:
54,200,1581,2,0,B|111:170|124:176|163:222,2,127.500004863739,2|0|0,0:0|0:0|0:0,0:0:0:0:
308,249,2781,1,2,0:0:0:0:
308,249,2981,1,0,0:0:0:0:
384,213,3181,6,0,P|390:276|400:339,2,127.500004863739,2|0|0,0:0|0:0|0:0,0:0:0:0:
206,54,4381,2,0,P|159:64|112:72,1,95.6250036478044,2|0,0:0|0:0,0:0:0:0:
112,72,4781,6,0,P|56:58|48:115,1,127.500004863739,2|0,0:0|0:0,0:0:0:0:
103,203,5381,1,2,0:0:0:0:
33,234,5581,2,0,P|30:297|23:361,1,127.500004863739,2|0,0:0|0:0,0:0:0:0:
111,348,6181,6,0,B|155:360|161:359|192:346|192:346|194:340|251:323,1,127.500004863739,2|0,0:0|0:0,0:0:0:0:
231,329,7381,1,2,0:0:0:0:
217,254,7581,1,2,0:0:0:0:
294,265,7781,1,0,0:0:0:0:
265,178,7981,6,0,B|325:193|408:200,2,127.500004863739,2|0|0,0:0|0:0|0:0,0:0:0:0:
89,97,9181,2,0,P|87:61|125:40,1,63.7500024318696,2|0,0:0|0:0,0:0:0:0:
162,142,9581,5,2,0:0:0:0:
92,178,9781,1,0,0:0:0:0:
18,140,9981,2,0,P|12:203|2:268,1,127.500004863739,2|0,0:0|0:0,0:0:0:0:
185,323,10781,2,0,P|224:327|292:325,1,95.6250036478044,2|0,0:0|0:0,0:0:0:0:
280,326,11181,6,0,P|335:338|353:280,2,127.500004863739,2|0|0,0:0|0:0|0:0,0:0:0:0:
255,251,12181,1,2,0:0:0:0:
299,186,12381,6,0,B|287:110|287:110|293:107|294:48,1,127.500004863739,2|0,0:0|0:0,0:0:0:0:
293,60,13981,2,0,B|288:92|288:92|286:127,1,63.7500024318696,2|0,0:0|0:0,0:0:0:0:
347,181,14381,6,0,B|397:149|402:139|384:70,2,127.500004863739,2|0|0,0:0|0:0|0:0,0:0:0:0:
253,337,15581,1,2,0:0:0:0:
253,337,15781,1,0,0:0:0:0:
176,303,15981,6,0,P|112:312|49:316,2,127.500004863739,2|0|0,0:0|0:0|0:0,0:0:0:0:
431,323,17181,1,2,0:0:0:0:
431,323,17381,1,0,0:0:0:0:
369,264,17581,6,0,B|376:198|376:198|379:137,1,127.500004863739,2|0,0:0|0:0,0:0:0:0:
226,127,18381,2,0,P|166:114|127:161,1,127.500004863739,2|0,0:0|0:0,0:0:0:0:
55,218,18981,6,0,B|79:260|84:261|121:260|121:260|127:252|185:241,1,127.500004863739,2|0,0:0|0:0,0:0:0:0:
159,246,20181,2,0,P|193:194|166:132,1,127.500004863739,2|0,0:0|0:0,0:0:0:0:
102,107,20781,5,2,0:0:0:0:
31,166,20981,2,0,P|25:134|17:103,1,63.7500024318696,2|0,0:0|0:0,0:0:0:0:
38,25,21381,2,0,P|104:22|183:15,1,127.500004863739,2|0,0:0|0:0,0:0:0:0:
232,70,21981,6,0,B|272:23|294:21|344:65,2,127.500004863739,2|0|0,0:0|0:0|0:0,0:0:0:0:
152,143,23181,1,2,0:0:0:0:
152,143,23581,2,0,P|159:191|159:216,1,63.7500024318696,2|0,0:0|0:0,0:0:0:0:
177,285,23981,6,0,P|116:286|84:234,2,127.500004863739,2|0|0,0:0|0:0|0:0,0:0:0:0:
367,192,25181,1,2,0:0:0:0:
367,192,25381,1,2,0:0:0:0:
386,241,33581,6,0,B|382:279|382:279|380:286|380:286|377:325,1,85,4|0,1:2|0:0,0:0:0:0:
233,305,33981,1,2,0:3:0:0:
297,253,34181,1,2,0:0:0:0:
154,325,34381,2,0,B|151:285|151:285|149:278|149:278|145:240,1,85,8|0,0:0|0:0,0:0:0:0:
129,71,34781,1,2,0:3:0:0:
149,147,34981,1,0,1:2:0:0:
154,152,35081,1,0,1:2:0:0:
166,158,35181,6,0,B|125:160|125:160|81:167,1,85,0|0,1:2|0:0,0:0:0:0:
220,79,35581,2,0,B|337:96|242:128|369:144,1,170,0|8,1:2|0:0,0:0:0:0:
444,185,36181,1,0,0:0:0:0:
456,14,36381,2,0,B|467:51|467:60|442:93,1,85,2|0,0:3|0:0,0:0:0:0:
269,251,36781,6,0,B|310:216|331:212|372:236|372:236|371:244|420:286,2,170,4|0|8,1:2|1:2|1:2,0:0:0:0:
208,323,37781,1,2,0:0:0:0:
240,155,37981,1,2,0:3:0:0:
79,209,38181,1,2,0:0:0:0:
152,150,38381,6,0,B|160:191|160:191|173:233,1,85,0|2,1:2|0:0,0:0:0:0:
89,86,38781,2,0,B|50:72|50:72|8:63,1,85,0|2,1:2|0:3,0:0:0:0:
176,63,39181,2,0,B|208:35|208:35|238:4,1,85,8|2,0:2|0:0,0:0:0:0:
305,106,39581,1,2,0:3:0:0:
275,113,39681,1,2,0:0:0:0:
261,140,39781,1,0,1:2:0:0:
263,168,39881,1,0,1:2:0:0:
298,198,39981,6,0,B|291:240|291:240|293:245|292:282,1,85,4|0,1:2|0:0,0:0:0:0:
394,162,40381,2,0,P|389:204|383:246,1,85,2|0,0:3|0:0,0:0:0:0:
420,319,40781,1,8,0:0:0:0:
411,326,40881,1,2,0:3:0:0:
394,328,40981,1,2,0:0:0:0:
493,231,41181,1,0,0:0:0:0:
493,367,41381,1,2,0:0:0:0:
382,246,41581,6,0,B|345:174|343:162|374:85,1,170,0|0,1:2|1:2,0:0:0:0:
285,62,42181,1,2,0:0:0:0:
454,43,42381,2,0,B|458:84|458:84|457:88|457:88|462:127,1,85,8|0,0:0|0:0,0:0:0:0:
382,246,42781,1,2,0:3:0:0:
388,162,42981,1,2,0:0:0:0:
485,310,43181,6,0,B|480:268|480:268|481:264|481:264|476:225,1,85,4|2,1:2|0:0,0:0:0:0:
468,222,43481,1,2,0:3:0:0:
458,208,43581,1,0,1:2:0:0:
391,349,43781,1,2,0:0:0:0:
298,225,43981,2,0,B|292:263|292:263|293:267|293:267|289:309,1,85,8|2,0:0|0:0,0:0:0:0:
386,262,44381,1,2,0:3:0:0:
309,116,44581,1,2,0:0:0:0:
201,240,44781,6,0,B|168:264|168:264|129:284,1,85,0|2,1:2|0:0,0:0:0:0:
25,153,45181,2,0,B|60:174|60:174|94:201,1,85,0|2,1:2|0:3,0:0:0:0:
38,357,45581,2,0,B|38:315|38:315|44:272,1,85,8|2,0:0|0:0,0:0:0:0:
168,161,45981,1,2,0:3:0:0:
146,140,46081,1,2,0:0:0:0:
140,110,46181,1,0,1:2:0:0:
153,83,46281,1,0,1:2:0:0:
203,84,46381,6,0,B|196:42|196:42|198:37|198:37|197:-1,1,85,4|0,1:2|0:0,0:0:0:0:
345,21,46781,1,2,0:3:0:0:
284,68,46981,1,2,0:0:0:0:
424,4,47181,2,0,B|422:41|422:41|425:45|425:45|418:87,1,85,8|0,0:0|0:0,0:0:0:0:
360,239,47581,1,2,0:3:0:0:
341,215,47681,1,2,0:0:0:0:
346,185,47781,1,2,0:0:0:0:
370,167,47881,1,2,0:0:0:0:
414,193,47981,6,0,L|425:300,1,85,0|0,1:2|0:0,0:0:0:0:
256,253,48381,2,0,B|162:301|201:229|93:239,1,170,0|8,1:2|0:0,0:0:0:0:
0,198,48981,1,2,0:0:0:0:
164,161,49181,1,2,0:3:0:0:
106,329,49381,1,2,0:0:0:0:
247,174,49581,6,0,B|255:123|240:86|240:86|249:85|263:9,2,170,4|0|8,1:2|1:2|0:0,0:0:0:0:
258,170,50481,1,2,0:3:0:0:
275,158,50581,1,2,0:0:0:0:
222,291,50781,1,2,0:3:0:0:
144,161,50981,1,2,0:0:0:0:
290,132,51181,6,0,P|332:143|374:150,1,85,0|2,1:2|0:0,0:0:0:0:
155,240,51581,2,0,P|125:270|98:303,1,85,0|2,1:2|0:3,0:0:0:0:
72,83,51981,2,0,P|60:42|45:2,1,85,8|2,0:0|0:0,0:0:0:0:
9,167,52381,1,2,0:3:0:0:
27,191,52481,1,2,0:0:0:0:
55,198,52581,1,2,1:2:0:0:
83,192,52681,1,0,1:2:0:0:
113,156,52781,6,0,B|154:160|154:160|198:163,1,85,4|0,1:2|0:0,0:0:0:0:
343,197,53181,2,0,B|336:158|324:149|286:146,1,85,2|0,0:3|0:0,0:0:0:0:
235,42,53581,1,8,0:0:0:0:
243,34,53681,1,2,0:3:0:0:
241,17,53781,1,2,0:0:0:0:
322,57,53981,1,2,0:3:0:0:
156,62,54181,1,2,0:0:0:0:
245,206,54381,6,0,B|247:282|247:282|251:295|251:295|246:301|254:375,1,170,0|0,1:2|1:2,0:0:0:0:
168,353,54981,1,2,0:0:0:0:
336,346,55181,2,0,B|338:305|338:305|337:299|337:299|340:261,1,85,8|0,0:0|0:0,0:0:0:0:
369,100,55581,1,2,0:3:0:0:
375,183,55781,1,2,0:0:0:0:
303,42,55981,6,0,B|236:88|216:88|150:35,2,170,4|0|8,1:2|1:2|0:0,0:0:0:0:
214,245,57181,1,2,0:3:0:0:
214,245,57581,5,0,1:2:0:0:
202,158,57781,1,2,0:0:0:0:
183,324,57981,1,0,1:2:0:0:
183,324,58381,5,8,0:0:0:0:
291,131,58581,1,8,0:0:0:0:
69,148,58781,1,2,1:3:0:0:
137,106,58981,1,2,0:0:0:0:
202,158,59181,6,0,B|233:95|231:83|198:24,2,141.100002045364,4|2|8,1:2|0:0|0:0,0:0:0:0:
110,340,60381,1,2,0:0:0:0:
110,264,60581,1,0,0:0:0:0:
25,322,60781,6,0,P|30:287|32:251,1,70.5500010226822,0|0,1:2|0:0,0:0:0:0:
193,319,61181,2,0,P|187:284|185:248,1,70.5500010226822,0|0,1:2|0:0,0:0:0:0:
142,81,61581,2,0,B|110:78|110:78|105:81|105:81|71:78,1,70.5500010226822,8|0,0:0|0:0,0:0:0:0:
133,171,61981,1,2,0:0:0:0:
56,152,62181,1,0,0:0:0:0:
133,171,62381,6,0,P|200:157|228:94,1,141.100002045364,0|2,1:2|0:0,0:0:0:0:
434,109,63181,2,0,P|424:74|419:40,1,70.5500010226822,8|0,0:0|0:0,0:0:0:0:
351,123,63581,2,0,P|353:158|341:246,1,105.825001534023,2|0,0:0|0:0,0:0:0:0:
318,245,63981,6,0,B|386:249|386:249|390:253|390:253|458:261,2,141.100002045364,0|0|8,1:2|1:2|0:0,0:0:0:0:
110,224,65181,1,2,0:0:0:0:
186,214,65381,1,0,0:0:0:0:
141,131,65581,6,0,P|71:145|1:147,2,141.100002045364,0|2|8,1:2|0:0|0:0,0:0:0:0:
321,52,66781,1,2,0:0:0:0:
321,52,66981,1,0,0:0:0:0:
246,17,67181,6,0,P|242:53|237:87,1,70.5500010226822,0|0,1:2|0:0,0:0:0:0:
188,204,67581,1,0,1:2:0:0:
231,273,67781,2,0,B|276:252|276:252|281:257|370:252,1,141.100002045364,2|0,0:0|0:0,0:0:0:0:
424,173,68381,2,0,B|413:120|413:120|413:64,1,105.825001534023,2|0,0:0|0:0,0:0:0:0:
361,43,68781,6,0,P|351:77|337:117,1,70.5500010226822,0|0,1:2|0:0,0:0:0:0:
248,167,69181,2,0,B|199:143|199:143|194:144|148:131,1,105.825001534023,2|0,0:0|0:0,0:0:0:0:
132,99,69581,1,8,0:0:0:0:
175,35,69781,1,2,0:0:0:0:
109,78,69981,2,0,P|73:82|38:83,1,70.5500010226822,2|0,0:0|0:0,0:0:0:0:
29,230,70381,6,0,B|99:219|114:231|147:312,2,141.100002045364,0|0|8,1:2|1:2|0:0,0:0:0:0:
248,167,71581,1,2,0:0:0:0:
251,246,71781,1,0,0:0:0:0:
340,208,71981,6,0,P|333:140|332:66,2,141.100002045364,0|2|8,1:2|0:0|0:0,0:0:0:0:
320,290,72981,1,2,0:0:0:0:
320,290,73181,1,2,0:0:0:0:
251,246,73381,1,0,0:0:0:0:
184,292,73581,6,0,L|176:362,1,70.5500010226822,0|0,1:2|0:0,0:0:0:0:
43,291,73981,2,0,L|50:361,1,70.5500010226822,0|0,1:2|0:0,0:0:0:0:
153,209,74381,2,0,B|115:211|115:211|82:208,1,70.5500010226822,8|0,0:0|0:0,0:0:0:0:
85,127,74781,1,2,0:0:0:0:
162,128,74981,1,0,0:0:0:0:
85,127,75181,6,0,P|81:72|157:56,1,141.100002045364,0|2,1:2|0:0,0:0:0:0:
260,201,75981,2,0,L|269:298,1,70.5500010226822,8|0,0:0|0:0,0:0:0:0:
360,244,76381,2,0,P|347:296|336:347,1,105.825001534023,2|0,0:0|0:0,0:0:0:0:
381,335,76781,6,0,P|416:297|442:202,2,141.100002045364,0|0|8,1:2|1:2|0:0,0:0:0:0:
346,149,77981,1,2,0:0:0:0:
346,149,78181,1,0,0:0:0:0:
255,113,78381,6,0,P|265:183|270:254,2,141.100002045364,0|2|8,1:2|0:0|0:0,0:0:0:0:
181,241,79381,2,0,B|173:196|176:192|176:192|172:186|172:186|167:138,1,105.825001534023,2|0,0:0|0:0,0:0:0:0:
140,118,79781,1,2,0:0:0:0:
94,183,79981,5,0,1:2:0:0:
121,92,80181,2,0,P|127:57|131:17,1,70.5500010226822,2|0,0:0|1:2,0:0:0:0:
37,118,80581,2,0,P|-5:172|29:244,1,141.100002045364,2|0,0:0|0:0,0:0:0:0:
136,334,81181,2,0,B|186:315|186:315|238:307,1,105.825001534023,2|0,0:0|0:0,0:0:0:0:
252,253,81581,6,0,B|216:250|216:250|182:243,1,70.5500010226822,0|0,1:2|0:0,0:0:0:0:
263,145,81981,2,0,B|326:158|326:158|332:166|365:179,1,105.825001534023,2|0,0:0|0:0,0:0:0:0:
393,165,82381,1,8,0:0:0:0:
376,86,82581,1,2,0:0:0:0:
425,177,82781,2,0,P|445:147|454:113,1,70.5500010226822,2|0,0:0|0:0,0:0:0:0:
290,63,83181,6,0,B|246:32|191:39|158:104,2,141.100002045364,0|0|8,1:2|1:2|0:0,0:0:0:0:
389,258,84381,1,2,0:0:0:0:
311,245,84581,1,0,0:0:0:0:
345,170,84781,6,0,B|403:129|423:131|483:184,2,149.60000456543,0|2|8,1:2|0:0|0:0,0:0:0:0:
209,322,85981,1,2,0:0:0:0:
201,244,86181,1,0,0:0:0:0:
125,265,86381,6,0,P|123:302|119:339,1,74.8000022827149,0|0,1:2|0:0,0:0:0:0:
279,255,86781,2,0,P|284:291|293:328,1,74.8000022827149,0|0,1:2|0:0,0:0:0:0:
229,152,87181,2,0,B|193:153|193:153|190:155|190:155|154:157,1,74.8000022827149,8|0,0:0|0:0,0:0:0:0:
217,64,87581,2,0,B|268:70|286:84|286:84|289:95|317:109,1,112.200003424072,2|0,0:0|0:0,0:0:0:0:
349,94,87981,5,0,1:2:0:0:
420,74,88181,1,2,0:0:0:0:
383,111,88381,2,0,B|434:100|434:100|440:103|440:103|494:96,1,112.200003424072,2|0,0:0|0:0,0:0:0:0:
480,62,88781,2,0,P|493:139|494:210,1,149.60000456543,8|0,0:0|0:0,0:0:0:0:
336,340,89581,6,0,B|266:337|266:337|259:331|259:331|256:335|183:326,2,149.60000456543,0|0|8,1:2|1:2|0:0,0:0:0:0:
203,168,90781,1,2,0:0:0:0:
281,159,90981,1,0,0:0:0:0:
230,72,91181,6,0,P|305:82|379:83,2,149.60000456543,0|2|8,1:2|0:0|0:0,0:0:0:0:
111,183,92381,1,2,0:0:0:0:
111,183,92581,1,2,0:0:0:0:
87,103,92781,5,0,1:2:0:0:
20,145,92981,2,0,L|9:222,1,74.8000022827149,2|0,0:0|1:2,0:0:0:0:
47,352,93381,1,2,0:0:0:0:
98,288,93581,1,8,0:0:0:0:
98,288,93781,1,0,0:0:0:0:
202,362,93981,2,0,B|185:344|176:300|182:290|182:290|171:225,1,112.200003424072,2|0,0:0|0:0,0:0:0:0:
220,223,94381,6,0,P|242:252|254:287,1,74.8000022827149,0|0,1:2|0:0,0:0:0:0:
362,358,94781,2,0,B|375:312|374:303|374:303|367:298|375:247,1,112.200003424072,2|0,0:0|0:0,0:0:0:0:
401,223,95181,1,8,0:0:0:0:
453,282,95381,1,2,0:0:0:0:
419,197,95581,2,0,P|411:164|406:123,1,74.8000022827149,2|0,0:0|0:0,0:0:0:0:
248,150,95981,6,0,B|183:123|162:130|132:197,2,149.60000456543,0|0|8,1:2|1:2|0:0,0:0:0:0:
237,358,97181,1,2,0:0:0:0:
252,284,97381,1,0,0:0:0:0:
335,340,97581,6,0,P|329:265|331:190,2,149.60000456543,0|2|8,1:2|0:0|0:0,0:0:0:0:
411,367,98581,1,2,0:0:0:0:
461,302,98781,1,2,0:0:0:0:
461,302,98981,1,0,0:0:0:0:
411,221,99181,6,0,L|485:216,1,74.8000022827149,0|0,1:2|0:0,0:0:0:0:
409,84,99581,2,0,L|483:88,1,74.8000022827149,0|0,1:2|0:0,0:0:0:0:
319,188,99981,2,0,B|321:152|321:152|319:114,1,74.8000022827149,8|0,0:0|0:0,0:0:0:0:
226,137,100381,1,2,0:0:0:0:
236,61,100581,1,0,0:0:0:0:
226,137,100781,6,0,P|162:101|170:25,1,149.60000456543,0|0,1:2|0:0,0:0:0:0:
241,222,101581,2,0,B|151:233,1,74.8000022827149,8|0,0:0|0:0,0:0:0:0:
54,193,101981,2,0,B|51:246|41:261|41:261|29:323,1,112.200003424072,2|0,0:0|0:0,0:0:0:0:
25,264,102381,6,0,B|23:189|23:189|20:182|20:182|18:114,2,149.60000456543,0|0|8,1:2|1:2|0:0,0:0:0:0:
105,293,103381,1,2,0:0:0:0:
121,215,103581,1,2,0:0:0:0:
121,215,103781,1,0,0:0:0:0:
234,187,103981,6,0,B|230:255|231:260|245:337,2,149.60000456543,0|2|8,1:2|0:0|0:0,0:0:0:0:
268,111,104981,1,2,0:0:0:0:
199,37,105181,2,0,P|193:73|183:110,1,74.8000022827149,2|0,0:0|0:0,0:0:0:0:
134,257,105581,5,0,1:2:0:0:
283,27,105981,1,2,0:0:0:0:
283,27,106181,1,0,0:0:0:0:
361,44,106381,2,0,P|366:80|376:117,1,74.8000022827149,8|0,0:0|0:0,0:0:0:0:
417,248,106781,2,0,B|346:236|340:238|340:238|334:243|307:248,1,112.200003424072,2|0,0:0|0:0,0:0:0:0:
287,212,107181,6,0,P|294:176|300:139,1,74.8000022827149,0|0,1:2|0:0,0:0:0:0:
181,128,107581,2,0,B|152:151|147:193|147:193|152:198|159:237,1,112.200003424072,0|0,1:2|0:0,0:0:0:0:
164,262,107981,1,8,0:0:0:0:
237,280,108181,1,2,0:0:0:0:
160,299,108381,2,0,B|164:336|164:336|162:378,1,74.8000022827149,2|0,0:0|0:0,0:0:0:0:
81,305,108781,6,0,L|73:228,1,74.8000022827149,0|0,1:2|0:0,0:0:0:0:
74,97,109181,2,0,B|78:62|78:62|76:56|76:56|81:22,1,74.8000022827149,0|0,1:2|0:0,0:0:0:0:
30,162,109581,1,8,0:0:0:0:
257,178,109981,1,2,0:0:0:0:
261,99,110181,1,0,0:0:0:0:
174,131,110381,6,0,B|152:195|153:207|197:262,2,141.100002045364,4|2|8,1:2|0:0|0:0,0:0:0:0:
412,50,111581,1,2,0:0:0:0:
415,126,111781,1,0,0:0:0:0:
334,98,111981,6,0,P|338:132|340:168,1,70.5500010226822,0|0,1:2|0:0,0:0:0:0:
495,99,112381,2,0,P|490:133|488:169,1,70.5500010226822,0|0,1:2|0:0,0:0:0:0:
444,317,112781,2,0,B|412:313|412:313|404:314|404:314|373:310,1,70.5500010226822,8|0,0:0|0:0,0:0:0:0:
214,233,113181,1,2,0:0:0:0:
214,233,113581,6,0,B|217:269|217:269|223:304,1,70.5500010226822,0|0,1:2|0:0,0:0:0:0:
137,231,113981,2,0,B|134:266|134:266|128:301,1,70.5500010226822,2|0,0:0|0:0,0:0:0:0:
85,170,114381,2,0,P|83:135|76:101,1,70.5500010226822,8|0,0:0|0:0,0:0:0:0:
150,79,114781,2,0,P|143:44|132:10,1,70.5500010226822,2|0,0:0|0:0,0:0:0:0:
266,52,115181,6,0,B|363:62|291:93|390:107,2,141.100002045364,0|0|8,1:2|1:2|0:0,0:0:0:0:
173,161,116381,2,0,B|165:222|165:222|168:223|171:273,1,105.825001534023,2|0,0:0|0:0,0:0:0:0:
130,262,116781,6,0,P|72:298|52:364,2,141.100002045364,0|2|8,1:2|0:0|0:0,0:0:0:0:
348,318,117981,1,2,0:0:0:0:
348,318,118181,1,2,0:0:0:0:
274,272,118381,5,0,1:2:0:0:
324,210,118581,1,2,0:0:0:0:
249,242,118781,2,0,P|243:172|236:102,1,141.100002045364,0|8,1:2|0:0,0:0:0:0:
183,46,119381,1,2,0:0:0:0:
99,93,119581,2,0,B|90:149|90:149|84:150|63:196,1,105.825001534023,2|0,0:0|0:0,0:0:0:0:
101,232,119981,6,0,B|135:224|135:224|138:226|138:226|170:222,1,70.5500010226822,0|0,1:2|0:0,0:0:0:0:
176,217,120281,1,2,0:0:0:0:
191,225,120381,2,0,B|238:217|238:217|241:219|241:219|308:218,1,105.825001534023,2|0,0:0|0:0,0:0:0:0:
313,194,120781,1,8,0:0:0:0:
385,216,120981,1,2,0:0:0:0:
293,166,121181,2,0,P|298:131|300:96,1,70.5500010226822,2|0,0:0|0:0,0:0:0:0:
170,50,121581,6,0,B|108:26|87:33|49:89,2,141.100002045364,0|0|8,1:2|1:2|0:0,0:0:0:0:
257,242,122781,2,0,B|250:293|250:293|252:301|252:301|252:347,1,105.825001534023,2|0,0:0|0:0,0:0:0:0:
196,322,123181,6,0,P|191:251|183:181,2,141.100002045364,0|2|8,1:2|0:0|0:0,0:0:0:0:
121,346,124181,1,2,0:0:0:0:
121,346,124381,1,2,0:0:0:0:
70,249,124581,6,0,B|93:185|86:179|86:179|101:101,1,141.100002045364,2|0,0:0|0:0,0:0:0:0:
82,38,125181,1,0,1:2:0:0:
170,225,125581,2,0,B|202:222|202:222|206:219|206:219|239:215,1,70.5500010226822,8|0,0:0|0:0,0:0:0:0:
274,290,125981,1,2,0:0:0:0:
205,323,126181,1,0,0:0:0:0:
274,290,126381,6,0,P|313:253|300:168,1,141.100002045364,0|0,1:2|0:0,0:0:0:0:
465,19,127181,2,0,B|431:29|431:29|396:36,1,70.5500010226822,8|0,0:0|0:0,0:0:0:0:
488,96,127581,2,0,B|453:102|453:102|419:113,1,70.5500010226822,2|0,0:0|0:0,0:0:0:0:
303,171,127981,6,0,P|244:131|176:117,2,141.100002045364,0|0|8,1:2|1:2|0:0,0:0:0:0:
387,356,129181,1,2,0:0:0:0:
387,356,129381,1,2,0:0:0:0:
333,291,129581,5,0,1:2:0:0:
333,291,130381,2,0,B|267:282|266:289|266:289|197:267|188:265|182:271|126:345,1,211.650003068047,8|0,0:0|0:0,0:0:0:0:
74,352,131181,5,2,1:2:0:0:
66,256,131381,1,2,0:0:0:0:
304,120,131781,1,2,0:0:0:0:
254,198,131981,2,0,B|324:204|324:204|341:195|422:217,1,141.100002045364,8|0,0:0|0:0,0:0:0:0:
178,46,132781,6,0,L|166:123,1,70.5500010226822,0|0,1:2|0:0,0:0:0:0:
83,32,133181,2,0,B|88:85|91:88|91:88|77:86|64:164,1,141.100002045364,2|8,0:0|0:0,0:0:0:0:
99,234,133781,1,2,0:0:0:0:
99,234,133981,1,2,0:0:0:0:
333,337,134381,6,0,B|325:273|325:273|328:267|328:267|309:184,2,141.100002045364,0|0|8,1:2|1:2|0:0,0:0:0:0:
333,337,135581,1,2,0:0:0:0:
258,66,135981,5,4,1:2:0:0:
258,66,136581,1,8,0:0:0:0:
246,60,136681,1,10,0:0:0:0:
221,58,136781,1,0,1:2:0:0:
214,55,137381,1,8,0:0:0:0:
190,62,137481,1,10,0:0:0:0:
144,74,137581,5,0,1:2:0:0:
86,19,137981,2,0,B|107:61|90:84|89:89|89:89|85:84|75:171,1,152.999995330811,8|8,0:0|0:0,0:0:0:0:
37,349,138781,1,8,0:0:0:0:
43,345,138847,1,10,0:0:0:0:
57,336,138914,6,0,L|99:345,4,25.4999992218018,8|8|8|8|0,0:0|0:0|0:0|0:0|1:2,0:0:0:0:
56,327,139781,1,8,0:0:0:0:
40,303,139881,1,10,0:0:0:0:
52,261,139981,1,0,1:2:0:0:
111,266,140581,1,8,0:0:0:0:
96,235,140681,1,10,0:0:0:0:
91,201,140781,5,0,1:2:0:0:
97,196,141181,2,0,L|84:282,1,76.4999976654053,8|0,0:0|0:0,0:0:0:0:
22,377,141581,1,8,0:0:0:0:
223,135,141981,1,8,0:0:0:0:
220,129,142047,1,10,0:0:0:0:
210,117,142114,6,0,L|219:84,4,25.4999992218018,8|8|8|8|0,0:0|0:0|0:0|0:0|1:2,0:0:0:0:
200,123,142981,2,0,L|189:159,2,38.2499988327027,8|10|0,0:0|0:0|1:2,0:0:0:0:
169,46,143781,6,0,L|179:9,2,38.2499988327027,8|10|0,0:0|0:0|1:2,0:0:0:0:
110,95,144381,2,0,L|291:79,1,152.999995330811,8|8,0:0|0:0,0:0:0:0:
450,60,145181,1,8,0:0:0:0:
442,57,145248,1,8,0:0:0:0:
430,47,145314,6,0,L|427:11,4,25.4999992218018,8|8|8|8|0,0:0|0:0|0:0|0:0|1:2,0:0:0:0:
414,57,146181,1,8,0:0:0:0:
392,50,146281,1,10,0:0:0:0:
368,18,146381,1,0,1:2:0:0:
324,82,146981,6,0,L|317:130,2,38.2499988327027,8|10|0,0:0|0:0|1:2,0:0:0:0:
239,153,147581,2,0,P|315:159|404:179,1,152.999995330811,8|8,0:0|0:0,0:0:0:0:
486,355,148381,1,8,0:0:0:0:
478,358,148447,1,10,0:0:0:0:
464,370,148514,6,0,L|432:338,4,25.4999992218018,8|8|8|8|0,0:0|0:0|0:0|0:0|1:2,0:0:0:0:
395,292,149381,1,8,0:0:0:0:
412,278,149481,1,10,0:0:0:0:
446,269,149581,1,0,1:2:0:0:
442,273,150181,1,8,0:0:0:0:
417,268,150281,1,10,0:0:0:0:
383,263,150381,5,0,1:2:0:0:
346,327,150781,2,0,B|419:320|419:320|433:308|501:322,1,152.999995330811,8|8,0:0|0:0,0:0:0:0:
467,112,151581,1,8,0:0:0:0:
463,104,151647,1,10,0:0:0:0:
451,88,151714,6,0,L|429:65,4,25.4999992218018,8|8|8|8|0,0:0|0:0|0:0|0:0|1:2,0:0:0:0:
472,95,152581,1,8,0:0:0:0:
451,88,152681,1,10,0:0:0:0:
419,88,152781,1,0,1:2:0:0:
383,43,153381,1,8,0:0:0:0:
366,61,153481,1,10,0:0:0:0:
330,75,153581,5,0,1:2:0:0:
346,66,153981,2,0,P|374:40|400:12,1,76.4999976654053,8|0,0:0|0:0,0:0:0:0:
451,149,154381,1,8,0:0:0:0:
194,174,154780,1,10,0:0:0:0:
186,171,154847,1,8,0:0:0:0:
169,168,154914,6,0,L|127:180,4,25.4999992218018,8|8|8|8|0,0:0|0:0|0:0|0:0|1:2,0:0:0:0:
167,199,155781,2,0,L|132:225,2,38.2499988327027,8|10|0,0:0|0:0|1:2,0:0:0:0:
81,284,156581,6,0,L|58:321,2,38.2499988327027,8|10|0,0:0|0:0|1:2,0:0:0:0:
54,209,157181,2,0,L|180:304,1,152.999995330811,8|8,0:0|0:0,0:0:0:0:
291,254,157981,1,8,0:0:0:0:
297,250,158047,1,10,0:0:0:0:
304,247,158114,1,8,0:0:0:0:
311,246,158181,1,8,0:0:0:0:
318,246,158247,1,8,0:0:0:0:
325,247,158314,1,8,0:0:0:0:
355,259,158381,5,0,1:2:0:0:
286,248,158981,1,8,0:0:0:0:
273,219,159081,1,10,0:0:0:0:
288,178,159181,1,0,1:2:0:0:
297,188,159781,1,8,0:0:0:0:
281,147,159881,1,10,0:0:0:0:
287,100,159981,5,0,1:2:0:0:
117,160,160381,6,0,P|113:217|106:274,1,114.749996498108,8|0,1:2|0:0,0:0:0:0:
161,331,160781,1,8,0:0:0:0:
161,331,161181,5,2,0:3:0:0:
468,47,161581,5,4,1:2:0:0:
256,192,161631,12,8,163981,0:0:0:0:
473,348,164381,5,2,0:3:0:0:
133,223,164781,6,0,B|148:269|142:271|142:271|159:316|98:347,1,140.25000428009,4|0,0:0|0:0,0:0:0:0:
51,291,165181,2,0,B|51:251|51:251|53:245|53:245|59:193,1,93.5000028533936,0|0,1:2|0:0,0:0:0:0:
281,206,165581,2,0,B|301:252|277:246|300:296,1,93.5000028533936,8|2,0:0|0:0,0:0:0:0:
227,349,165981,1,2,0:3:0:0:
237,85,166181,6,0,B|233:150|191:153|153:148|153:148|156:138|94:123,1,187.000005706787,2|2,1:3|0:3,0:0:0:0:
188,258,166781,1,0,1:2:0:0:
196,251,166881,1,2,0:3:0:0:
190,232,166981,1,2,0:0:0:0:
343,15,167181,2,0,B|340:62|340:62|346:108,1,93.5000028533936,8|0,2:0|0:0,0:0:0:0:
301,291,167581,5,2,0:0:0:0:
328,253,167681,1,2,0:3:0:0:
373,242,167781,1,8,0:0:0:0:
417,255,167881,1,8,0:0:0:0:
458,314,167981,5,4,1:2:0:0:
458,314,168581,1,2,0:0:0:0:
512,125,168781,2,0,B|468:136|468:136|469:141|420:159,1,93.5000028533936,8|0,0:0|0:0,0:0:0:0:
233,154,169181,2,0,P|189:136|131:129,1,93.5000028533936,2|0,0:3|0:3,0:0:0:0:
337,114,169581,6,0,B|293:230|381:172|342:291,1,187.000005706787,0|0,1:2|1:2,0:0:0:0:
257,251,170181,1,2,0:0:0:0:
425,156,170381,2,0,P|426:109|432:62,1,93.5000028533936,8|2,0:0|0:0,0:0:0:0:
233,154,170781,1,2,0:3:0:0:
432,235,170981,1,2,0:0:0:0:
244,343,171181,5,4,1:2:0:0:
257,251,171581,2,0,B|255:288|249:294|249:294|245:342,1,93.5000028533936,0|0,1:2|0:0,0:0:0:0:
248,71,171981,2,0,B|267:110|264:123|229:157,1,93.5000028533936,8|0,0:0|0:0,0:0:0:0:
224,150,172281,1,2,0:3:0:0:
210,129,172381,1,2,0:0:0:0:
332,175,172581,1,10,0:0:0:0:
148,214,172781,6,0,B|96:133|98:115|148:46,1,187.000005706787,0|0,1:2|1:2,0:0:0:0:
210,129,173381,1,2,0:3:0:0:
56,241,173581,2,0,L|43:348,1,93.5000028533936,8|0,0:0|0:0,0:0:0:0:
20,150,173981,1,2,0:3:0:0:
136,310,174181,1,0,1:2:0:0:
142,302,174281,1,0,1:2:0:0:
164,297,174381,6,0,B|246:284|246:284|250:287|250:287|363:277,1,187.000005706787,4|2,1:2|0:3,0:0:0:0:
478,355,174981,1,2,0:0:0:0:
340,275,175181,2,0,P|296:289|264:325,1,93.5000028533936,8|0,0:0|0:0,0:0:0:0:
392,355,175581,1,2,0:3:0:0:
367,165,175781,1,2,0:0:0:0:
457,226,175981,5,0,1:2:0:0:
488,220,176081,1,8,0:0:0:0:
508,193,176181,1,2,0:3:0:0:
498,161,176281,1,2,0:0:0:0:
449,147,176381,2,0,B|452:102|452:102|455:97|455:97|461:55,1,93.5000028533936,0|2,1:2|0:0,0:0:0:0:
273,115,176781,2,0,B|230:101|223:102|178:142,1,93.5000028533936,8|0,0:0|0:0,0:0:0:0:
349,58,177181,1,2,0:3:0:0:
157,29,177381,1,2,0:0:0:0:
222,212,177581,6,0,B|215:253|211:255|211:255|213:263|215:305,1,93.5000028533936,0|0,1:2|0:0,0:0:0:0:
109,358,177981,2,0,P|105:311|97:265,1,93.5000028533936,0|0,1:2|0:0,0:0:0:0:
375,334,178381,2,0,B|420:340|420:340|424:340|424:340|467:345,1,93.5000028533936,8|0,0:0|0:0,0:0:0:0:
431,266,178781,2,0,P|437:311|464:349,1,93.5000028533936,2|2,0:3|0:0,0:0:0:0:
468,104,179181,6,0,B|437:42|396:35|357:47|357:47|354:58|309:80,2,187.000005706787,0|0|8,1:2|1:2|0:0,0:0:0:0:
454,110,180081,1,2,0:3:0:0:
436,129,180181,1,2,0:0:0:0:
483,210,180381,5,2,0:0:0:0:
439,226,180481,1,2,0:3:0:0:
394,212,180581,1,0,1:2:0:0:
355,238,180681,1,0,1:2:0:0:
290,205,180781,5,4,0:0:0:0:
290,205,181581,2,0,B|201:203|187:197|187:197|182:192|182:192|170:201|106:193,1,187.000005706787,8|2,0:0|0:3,0:0:0:0:
45,138,182181,1,2,0:0:0:0:
242,114,182381,5,0,1:2:0:0:
33,89,182581,1,2,0:0:0:0:
121,283,182781,2,0,B|77:286|77:286|73:289|73:289|27:300,1,93.5000028533936,0|0,1:2|0:0,0:0:0:0:
164,57,183181,2,0,L|353:90,1,187.000005706787,8|2,0:0|0:3,0:0:0:0:
349,82,183781,1,2,0:0:0:0:
327,82,183881,1,8,0:0:0:0:
318,62,183981,6,0,B|364:71|364:71|421:79,1,93.5000028533936,0|0,1:2|0:0,0:0:0:0:
450,245,184381,1,0,1:2:0:0:
363,185,184581,2,0,P|304:194|233:313,1,187.000005706787,2|2,0:0|0:0,0:0:0:0:
163,345,185181,1,2,0:3:0:0:
146,141,185381,1,2,0:0:0:0:
28,321,185581,5,4,1:2:0:0:
28,321,185981,1,0,1:2:0:0:
107,229,186181,1,0,1:2:0:0:
104,244,186281,1,0,1:2:0:0:
106,273,186381,1,0,1:2:0:0:
55,157,186581,1,8,0:0:0:0:
278,91,186781,1,0,1:2:0:0:
27,72,186981,1,8,0:0:0:0:
124,302,187181,6,0,B|126:256|126:256|142:223|143:217|134:182|134:182|145:117,1,170,4|2,1:2|0:3,0:0:0:0:
155,52,187781,1,2,0:0:0:0:
55,157,187981,2,0,B|49:202|49:202|41:240,1,85,8|0,0:0|0:0,0:0:0:0:
215,279,188381,2,0,B|258:272|264:269|264:269|270:272|270:272|274:268|349:276,1,127.5,2|0,0:3|0:0,0:0:0:0:
353,203,188781,6,0,B|310:198|310:198|269:189,1,85,0|0,1:2|0:0,0:0:0:0:
352,349,189181,2,0,B|309:353|309:353|268:362,1,85,0|0,1:2|0:0,0:0:0:0:
262,360,189481,1,2,0:3:0:0:
251,347,189581,1,8,0:0:0:0:
446,215,189981,2,0,B|417:156|417:152|439:94,1,127.5,2|0,0:3|0:0,0:0:0:0:
396,30,190381,6,0,B|270:45|369:81|246:93,1,170,4|0,1:2|1:2,0:0:0:0:
172,56,190981,1,0,0:0:0:0:
314,161,191181,2,0,B|308:201|308:201|305:205|305:205|305:262,1,85,8|0,0:0|0:0,0:0:0:0:
255,364,191581,2,0,P|232:328|230:286,1,85,2|0,0:3|0:0,0:0:0:0:
228,168,191981,5,2,1:3:0:0:
56,201,192181,1,2,0:0:0:0:
168,225,192381,1,2,1:3:0:0:
20,131,192581,1,2,0:0:0:0:
172,56,192781,2,0,P|215:62|256:65,1,85,8|0,0:0|0:0,0:0:0:0:
168,225,193181,2,0,P|145:189|148:148,1,85,2|0,0:3|0:0,0:0:0:0:
159,143,193481,1,0,0:0:0:0:
188,146,193581,6,0,P|174:229|168:323,1,170,4|2,1:2|0:3,0:0:0:0:
91,350,194181,1,2,0:0:0:0:
235,365,194381,2,0,P|281:355|293:303,1,85,8|0,0:0|0:0,0:0:0:0:
294,168,194781,2,0,B|270:148|288:84|288:84|292:86|304:44,1,127.5,2|0,0:3|0:0,0:0:0:0:
372,83,195181,6,0,B|384:124|384:124|382:126|382:126|392:163,1,85,0|0,1:2|0:0,0:0:0:0:
242,245,195581,2,0,P|202:235|181:199,1,85,0|0,1:2|0:0,0:0:0:0:
185,194,195881,1,2,0:3:0:0:
186,168,195981,2,0,B|197:128|197:128|202:76,1,85,8|0,0:0|0:0,0:0:0:0:
327,246,196381,2,0,B|402:236|402:236|403:242|463:247,1,127.5,2|0,0:3|0:0,0:0:0:0:
462,172,196781,6,0,P|389:134|396:47,1,170,0|0,1:2|1:2,0:0:0:0:
464,81,197381,1,2,0:0:0:0:
314,164,197581,2,0,B|274:149|274:149|269:149|223:140,1,85,8|0,0:0|0:0,0:0:0:0:
301,33,197981,1,2,0:0:0:0:
304,47,198081,1,2,0:3:0:0:
301,71,198181,1,2,0:0:0:0:
213,46,198381,5,2,1:3:0:0:
46,86,198581,1,2,0:0:0:0:
117,21,198781,1,2,1:3:0:0:
232,141,198981,1,2,0:0:0:0:
107,255,199181,2,0,P|111:212|115:170,1,85,8|0,0:0|0:0,0:0:0:0:
36,305,199581,2,0,B|54:343|54:343|102:339,1,85,2|0,0:3|0:0,0:0:0:0:
102,348,199881,1,2,0:3:0:0:
126,334,199981,6,0,B|199:323|199:323|206:325|206:325|304:334,1,170,4|2,1:2|0:3,0:0:0:0:
358,282,200581,1,2,0:0:0:0:
238,182,200781,2,0,B|243:140|243:140|248:82,1,85,8|0,0:0|0:0,0:0:0:0:
431,67,201181,2,0,B|446:114|446:114|444:125|444:125|448:129|456:207,1,127.5,2|0,0:3|0:0,0:0:0:0:
381,206,201581,6,0,P|350:177|343:136,1,85,0|0,1:2|0:0,0:0:0:0:
258,15,201981,2,0,B|221:13|221:13|217:16|217:16|170:27,1,85,0|0,1:2|0:0,0:0:0:0:
172,36,202281,1,2,0:3:0:0:
138,33,202381,2,0,P|95:37|56:53,1,85,8|0,0:0|0:0,0:0:0:0:
24,204,202781,2,0,B|84:186|84:186|90:190|171:173,1,127.5,2|0,0:3|0:0,0:0:0:0:
210,128,203181,6,0,P|188:209|184:294,1,170,0|0,1:2|1:2,0:0:0:0:
179,306,203681,1,2,0:3:0:0:
165,297,203781,1,2,0:0:0:0:
138,289,203881,1,2,0:0:0:0:
102,290,203981,1,8,0:0:0:0:
362,353,204381,2,0,B|355:307|355:307|346:258,1,85,2|0,0:3|0:0,0:0:0:0:
316,198,204781,5,2,1:3:0:0:
442,309,204981,1,2,0:0:0:0:
388,145,205181,1,2,1:3:0:0:
263,270,205381,1,2,0:0:0:0:
429,224,205581,2,0,P|467:207|509:195,1,85,8|0,0:0|0:0,0:0:0:0:
308,115,205981,2,0,P|284:80|238:77,1,85,2|0,0:3|0:0,0:0:0:0:
249,65,206281,1,8,0:0:0:0:
219,57,206381,6,0,P|144:97|61:113,1,170,4|2,1:2|0:3,0:0:0:0:
18,40,206981,1,2,0:0:0:0:
40,197,207181,2,0,P|31:237|57:269,1,85,8|0,0:0|0:0,0:0:0:0:
195,339,207581,2,0,L|212:233,1,85,2|0,0:3|0:0,0:0:0:0:
308,115,207981,6,0,B|356:148|361:149|409:139|409:139|416:148|474:149,2,170,0|0|8,1:2|1:2|0:0,0:0:0:0:
275,46,208981,1,2,0:0:0:0:
252,172,209181,2,0,L|261:288,1,85,2|0,0:3|0:0,0:0:0:0:
50,305,209581,6,0,L|57:130,1,170,0|0,1:2|1:2,0:0:0:0:
157,192,210181,1,2,0:0:0:0:
151,23,210381,2,0,B|150:101|150:101|154:105|157:192,1,170,12|0,0:0|1:2,0:0:0:0:
178,349,210981,1,2,0:0:0:0:
244,157,211181,5,0,1:2:0:0:
244,157,211581,1,0,1:2:0:0:
272,149,211681,1,2,0:3:0:0:
292,127,211781,1,0,1:2:0:0:
299,98,211881,1,0,1:2:0:0:
275,57,211981,5,0,1:2:0:0:
246,260,212181,1,8,0:0:0:0:
439,188,212381,1,0,1:2:0:0:
439,188,219181,6,0,B|407:124|407:117|435:54,2,141.100002045364,4|2|8,1:2|0:0|0:0,0:0:0:0:
300,341,220381,2,0,B|265:331|265:331|231:325,1,70.5500010226822,2|0,0:0|0:0,0:0:0:0:
161,354,220781,5,0,1:2:0:0:
55,316,220981,2,0,P|113:282|109:215,1,141.100002045364,2|2,0:0|0:0,0:0:0:0:
158,117,221581,1,8,0:0:0:0:
199,47,221781,2,0,B|140:36|140:36|132:38|132:38|48:32,1,141.100002045364,2|8,0:0|0:0,0:0:0:0:
50,42,222281,1,8,0:0:0:0:
31,56,222381,6,0,B|27:92|27:92|19:125,1,70.5500010226822,0|0,1:2|0:0,0:0:0:0:
27,134,222681,1,2,0:0:0:0:
39,152,222781,2,0,B|95:143|95:143|97:146|143:146,1,105.825001534023,2|0,0:0|0:0,0:0:0:0:
170,125,223181,1,8,0:0:0:0:
199,47,223381,1,2,0:0:0:0:
197,153,223581,2,0,P|232:157|267:160,1,70.5500010226822,2|0,0:0|0:0,0:0:0:0:
398,243,223981,6,0,B|328:249|324:251|270:300,2,141.100002045364,0|2|8,1:2|0:0|0:0,0:0:0:0:
356,80,225181,2,0,B|362:116|362:116|364:150,1,70.5500010226822,2|8,0:0|0:0,0:0:0:0:
360,159,225481,1,8,0:0:0:0:
342,155,225581,6,0,P|329:90|310:13,2,141.100002045364,0|2|8,1:2|0:0|0:0,0:0:0:0:
291,341,226781,1,2,0:0:0:0:
298,264,226981,1,0,0:0:0:0:
213,224,227181,6,0,B|216:259|216:259|217:294,1,70.5500010226822,0|0,1:2|0:0,0:0:0:0:
386,236,227581,2,0,B|378:270|378:270|373:305,1,70.5500010226822,0|0,1:2|0:0,0:0:0:0:
302,157,227981,1,8,0:0:0:0:
341,76,228181,2,0,B|308:71|308:71|303:73|303:73|270:69,1,70.5500010226822,2|2,0:0|0:0,0:0:0:0:
195,81,228581,1,8,0:0:0:0:
189,75,228681,1,8,0:0:0:0:
186,61,228781,6,0,L|173:145,1,70.5500010226822,0|0,1:2|0:0,0:0:0:0:
168,138,229081,1,2,0:0:0:0:
155,148,229181,2,0,B|144:187|148:192|148:192|144:197|144:197|143:259,1,105.825001534023,2|0,0:0|0:0,0:0:0:0:
151,285,229581,1,8,0:0:0:0:
219,247,229781,1,2,0:0:0:0:
164,319,229981,2,0,P|128:326|90:302,1,70.5500010226822,2|0,0:0|0:0,0:0:0:0:
69,175,230381,6,0,P|66:106|56:34,2,141.100002045364,0|0|8,1:2|1:2|0:0,0:0:0:0:
45,348,231581,2,0,P|60:317|96:303,1,70.5500010226822,2|8,0:0|0:0,0:0:0:0:
99,310,231881,1,8,0:0:0:0:
113,321,231981,6,0,B|183:308|183:308|252:303,2,141.100002045364,0|2|8,1:2|0:0|0:0,0:0:0:0:
136,228,232981,1,2,0:0:0:0:
100,151,233181,2,0,B|158:144|158:144|156:140|224:123,1,105.825001534023,2|0,0:0|0:0,0:0:0:0:
233,144,233581,5,2,1:2:0:0:
249,67,233781,1,2,0:0:0:0:
260,169,233981,2,0,B|294:160|294:160|329:157,1,70.5500010226822,0|0,1:2|0:0,0:0:0:0:
475,168,234381,1,8,0:0:0:0:
475,168,234781,2,0,L|465:246,1,70.5500010226822,2|8,0:0|0:0,0:0:0:0:
462,245,235081,1,8,0:0:0:0:
442,232,235181,6,0,P|438:160|430:82,2,141.100002045364,0|2|8,1:2|0:0|0:0,0:0:0:0:
299,349,236381,2,0,B|238:339|235:333|235:333|232:338|173:332,1,105.825001534023,2|0,0:0|0:0,0:0:0:0:
176,281,236781,6,0,B|230:263|230:263|233:271|315:263,2,141.100002045364,0|0|8,1:2|1:2|0:0,0:0:0:0:
61,168,237981,2,0,B|63:140|63:140|72:98,1,70.5500010226822,2|8,0:0|0:0,0:0:0:0:
80,108,238281,1,8,0:0:0:0:
99,119,238381,6,0,P|49:70|39:1,2,141.100002045364,0|2|8,1:2|0:0|0:0,0:0:0:0:
299,192,239581,1,2,0:0:0:0:
303,117,239781,1,0,0:0:0:0:
227,136,239981,6,0,B|221:171|221:171|214:205,1,70.5500010226822,0|0,1:2|0:0,0:0:0:0:
377,148,240381,2,0,B|378:183|378:183|381:218,1,70.5500010226822,0|0,1:2|0:0,0:0:0:0:
323,360,240781,2,0,B|290:358|290:358|284:354|284:354|252:354,1,70.5500010226822,8|0,0:0|0:0,0:0:0:0:
251,348,241081,1,2,0:0:0:0:
237,336,241181,1,2,0:0:0:0:
157,328,241381,1,8,0:0:0:0:
157,328,241481,1,8,0:0:0:0:
157,328,241581,6,0,P|149:293|145:258,1,70.5500010226822,0|0,1:2|0:0,0:0:0:0:
74,341,241981,2,0,P|69:305|62:271,1,70.5500010226822,2|0,0:0|0:0,0:0:0:0:
22,130,242381,2,0,B|19:166|19:166|11:203,1,70.5500010226822,8|0,0:0|0:0,0:0:0:0:
129,78,242781,2,0,B|117:112|117:112|99:146,1,70.5500010226822,2|0,0:0|0:0,0:0:0:0:
231,244,243181,6,0,B|311:271|284:237|369:263,2,141.100002045364,0|0|8,1:2|1:2|0:0,0:0:0:0:
278,42,244381,1,2,0:0:0:0:
264,124,244581,1,8,0:0:0:0:
264,124,244681,1,8,0:0:0:0:
272,125,244781,6,0,B|209:145|188:140|153:86,2,141.100002045364,0|2|8,1:2|0:0|0:0,0:0:0:0:
369,263,245981,1,2,0:0:0:0:
369,263,246181,1,2,0:0:0:0:
317,201,246381,5,0,1:2:0:0:
382,158,246581,1,2,0:0:0:0:
303,167,246781,2,0,P|314:97|317:26,1,141.100002045364,0|8,1:2|0:0,0:0:0:0:
222,157,247581,2,0,P|207:188|220:226,1,70.5500010226822,2|8,0:0|0:0,0:0:0:0:
226,228,247881,1,8,0:0:0:0:
243,233,247981,5,0,1:2:0:0:
239,77,248381,2,0,L|224:2,1,70.5500010226822,2|0,0:0|0:0,0:0:0:0:
159,98,248781,2,0,P|139:58|126:27,1,70.5500010226822,8|0,0:0|0:0,0:0:0:0:
81,130,249181,2,0,L|70:204,1,70.5500010226822,2|0,0:0|0:0,0:0:0:0:
22,301,249581,6,0,B|89:279|102:283|150:325,2,141.100002045364,0|0|8,1:2|1:2|0:0,0:0:0:0:
248,277,250781,2,0,L|241:187,1,70.5500010226822,2|8,0:0|0:0,0:0:0:0:
235,201,251081,1,8,0:0:0:0:
237,184,251181,6,0,P|227:110|231:43,2,141.100002045364,0|2|8,1:2|0:0|0:0,0:0:0:0:
367,350,252381,1,2,0:0:0:0:
357,275,252581,1,0,0:0:0:0:
286,349,252781,6,0,L|273:278,1,70.5500010226822,0|0,1:2|0:0,0:0:0:0:
444,331,253181,2,0,L|439:258,1,70.5500010226822,0|0,1:2|0:0,0:0:0:0:
368,118,253581,2,0,B|335:123|335:123|332:121|332:121|297:126,1,70.5500010226822,8|0,0:0|0:0,0:0:0:0:
246,195,253981,1,2,0:0:0:0:
175,153,254181,1,8,0:0:0:0:
175,153,254281,1,8,0:0:0:0:
183,149,254381,6,0,P|182:113|177:78,1,70.5500010226822,0|0,1:2|0:0,0:0:0:0:
85,109,254781,2,0,P|90:74|91:38,1,70.5500010226822,2|0,0:0|0:0,0:0:0:0:
23,162,255181,2,0,B|-18:217|-18:226|18:288,1,141.100002045364,8|2,0:0|0:0,0:0:0:0:
92,358,255781,6,0,B|133:302|133:293|96:231,1,141.100002045364,2|0,0:0|0:0,0:0:0:0:
154,156,256381,2,0,B|189:165|189:165|223:167,1,70.5500010226822,0|0,1:2|0:0,0:0:0:0:
364,171,256781,2,0,B|399:164|399:164|432:153,1,70.5500010226822,8|0,0:0|0:0,0:0:0:0:
430,77,257181,1,2,0:0:0:0:
356,76,257381,1,8,0:0:0:0:
356,76,257481,1,8,0:0:0:0:
356,76,257581,5,0,1:2:0:0:
430,77,257781,1,0,0:0:0:0:
385,0,257981,2,0,P|324:35|258:60,1,141.100002045364,2|8,0:0|0:0,0:0:0:0:
66,107,258781,1,2,0:0:0:0:
93,37,258981,1,0,0:0:0:0:
16,22,259181,6,0,B|21:90|21:90|6:188,2,141.100002045364,0|0|8,1:2|1:2|0:0,0:0:0:0:
46,246,260381,2,0,L|36:334,1,70.5500010226822,2|8,0:0|0:0,0:0:0:0:
43,322,260681,1,8,0:0:0:0:
61,338,260781,5,0,1:2:0:0:
208,200,261181,2,0,L|200:129,1,70.5500010226822,2|0,0:0|0:0,0:0:0:0:
114,142,261581,2,0,B|118:173|118:173|116:177|116:177|116:212,1,70.5500010226822,8|0,0:0|0:0,0:0:0:0:
271,324,261981,1,2,0:0:0:0:
271,324,262381,6,0,B|334:309|334:309|341:312|341:312|409:308,2,141.100002045364,0|0|8,1:2|1:2|0:0,0:0:0:0:
271,324,263581,1,2,0:0:0:0:
245,209,263781,1,8,0:0:0:0:
248,222,263881,1,8,0:0:0:0:
241,244,263981,5,4,1:2:0:0:
253,237,264581,1,8,0:0:0:0:
245,209,264681,1,10,0:0:0:0:
257,171,264781,1,0,1:2:0:0:
260,179,265381,1,8,0:0:0:0:
255,147,265481,1,10,0:0:0:0:
249,100,265581,5,0,1:2:0:0:
314,49,265981,2,0,B|257:46|247:58|247:58|242:53|133:74,1,152.999995330811,8|8,0:0|0:0,0:0:0:0:
37,227,266781,1,8,0:0:0:0:
41,222,266847,1,10,0:0:0:0:
39,208,266914,6,0,L|33:173,4,25.4999992218018,8|8|8|8|0,0:0|0:0|0:0|0:0|1:2,0:0:0:0:
59,220,267781,1,8,0:0:0:0:
74,203,267881,1,10,0:0:0:0:
81,165,267981,1,0,1:2:0:0:
76,168,268581,1,8,0:0:0:0:
63,144,268681,1,10,0:0:0:0:
27,122,268781,5,0,1:2:0:0:
36,121,269181,2,0,L|25:212,1,76.4999976654053,8|0,0:0|0:0,0:0:0:0:
8,356,269581,1,8,0:0:0:0:
211,143,269981,1,8,0:0:0:0:
205,138,270047,1,10,0:0:0:0:
197,124,270114,6,0,L|209:95,4,25.4999992218018,8|8|8|8|0,0:0|0:0|0:0|0:0|1:2,0:0:0:0:
222,69,270981,2,0,L|218:27,2,38.2499988327027,8|10|0,0:0|0:0|1:2,0:0:0:0:
220,156,271781,6,0,L|216:198,2,38.2499988327027,8|10|0,0:0|0:0|1:2,0:0:0:0:
148,114,272381,2,0,L|317:121,1,152.999995330811,8|8,0:0|0:0,0:0:0:0:
480,189,273180,1,8,0:0:0:0:
483,182,273247,1,8,0:0:0:0:
483,166,273314,6,0,L|470:132,4,25.4999992218018,8|8|8|8|0,0:0|0:0|0:0|0:0|1:2,0:0:0:0:
465,168,274181,1,8,0:0:0:0:
453,145,274281,1,10,0:0:0:0:
464,107,274381,1,0,1:2:0:0:
469,102,274981,1,8,0:0:0:0:
459,135,275081,1,10,0:0:0:0:
426,152,275181,5,0,1:2:0:0:
385,74,275581,2,0,B|380:140|383:146|383:146|374:226,1,152.999995330811,8|8,0:0|0:0,0:0:0:0:
192,349,276381,1,8,0:0:0:0:
188,341,276447,1,10,0:0:0:0:
176,325,276514,6,0,L|152:307,4,25.4999992218018,8|8|8|8|0,0:0|0:0|0:0|0:0|1:2,0:0:0:0:
165,326,277381,1,8,0:0:0:0:
142,317,277481,1,10,0:0:0:0:
105,316,277581,1,0,1:2:0:0:
111,313,278181,1,8,0:0:0:0:
83,317,278281,1,10,0:0:0:0:
37,324,278381,5,0,1:2:0:0:
80,228,278781,2,0,P|124:287|202:275,1,152.999995330811,8|8,0:0|0:0,0:0:0:0:
266,37,279581,1,8,0:0:0:0:
256,39,279647,1,10,0:0:0:0:
237,47,279714,6,0,L|205:54,4,25.4999992218018,8|8|8|8|0,0:0|0:0|0:0|0:0|1:2,0:0:0:0:
229,38,280581,1,8,0:0:0:0:
255,44,280681,1,10,0:0:0:0:
293,47,280781,1,0,1:2:0:0:
299,42,281381,1,8,0:0:0:0:
274,55,281481,1,10,0:0:0:0:
251,88,281581,5,0,1:2:0:0:
255,80,281981,2,0,P|292:73|330:65,1,76.4999976654053,8|0,0:0|0:0,0:0:0:0:
472,75,282381,1,8,0:0:0:0:
376,274,282780,1,8,0:0:0:0:
385,272,282847,1,8,0:0:0:0:
400,267,282914,6,0,L|412:297,4,25.4999992218018,8|8|8|8|0,0:0|0:0|0:0|0:0|1:2,0:0:0:0:
417,240,283781,2,0,L|404:203,2,38.2499988327027,8|10|0,0:0|0:0|1:2,0:0:0:0:
364,90,284581,6,0,L|376:126,2,38.2499988327027,8|10|0,0:0|0:0|1:2,0:0:0:0:
460,138,285181,2,0,P|388:164|316:189,1,152.999995330811,8|8,0:0|0:0,0:0:0:0:
112,282,285981,1,8,0:0:0:0:
105,279,286047,1,10,0:0:0:0:
96,267,286114,6,0,L|90:234,4,25.4999992218018,8|8|8|8|0,0:0|0:0|0:0|0:0|1:2,0:0:0:0:
87,275,286981,1,8,0:0:0:0:
84,302,287081,1,10,0:0:0:0:
81,340,287181,1,0,1:2:0:0:
77,334,287781,1,8,0:0:0:0:
73,305,287881,1,10,0:0:0:0:
68,264,287981,5,0,1:2:0:0:
74,272,288381,1,8,1:2:0:0:
97,45,288781,1,8,0:0:0:0:
177,255,289181,5,8,0:0:0:0:
182,250,289247,1,8,0:0:0:0:
186,243,289314,1,8,0:0:0:0:
188,235,289381,1,8,0:0:0:0:
188,227,289447,1,8,0:0:0:0:
187,219,289514,1,8,0:0:0:0:
171,192,289581,5,2,0:3:0:0:
171,192,295581,5,2,0:3:0:0:
471,346,295981,5,4,1:2:0:0:
256,192,296031,12,8,298381,0:0:0:0:
489,30,298781,5,2,0:3:0:0:
178,170,299181,6,0,B|168:116|162:114|162:114|158:80|178:57|214:61,1,146.62500279665,4|0,0:0|0:0,0:0:0:0:
279,101,299581,2,0,B|273:146|273:146|270:153|270:153|266:197,1,97.7500018644333,0|0,1:2|0:0,0:0:0:0:
31,192,299981,2,0,P|28:143|19:95,1,97.7500018644333,8|2,0:0|0:0,0:0:0:0:
80,22,300381,1,2,0:3:0:0:
225,274,300581,6,0,B|147:261|147:250|147:250|95:243|60:256|77:334,1,195.500003728867,2|2,1:3|0:3,0:0:0:0:
178,170,301181,1,0,1:2:0:0:
171,155,301281,1,2,0:3:0:0:
178,128,301381,1,2,0:0:0:0:
343,349,301581,2,0,B|335:299|335:299|341:252,1,97.7500018644333,8|0,2:0|0:0,0:0:0:0:
469,91,301981,5,2,0:0:0:0:
440,127,302081,1,2,0:3:0:0:
394,137,302181,1,8,0:0:0:0:
349,123,302281,1,8,0:0:0:0:
320,56,302381,5,4,1:2:0:0:
320,56,302981,1,2,0:0:0:0:
431,287,303181,2,0,B|389:263|389:263|383:265|383:265|341:252,1,97.7500018644333,8|0,0:0|0:0,0:0:0:0:
121,252,303581,2,0,P|72:260|26:281,1,97.7500018644333,2|0,0:3|0:3,0:0:0:0:
222,304,303981,6,0,B|266:171|178:250|217:117,1,195.500003728867,0|0,1:2|1:2,0:0:0:0:
317,151,304581,1,2,0:0:0:0:
121,252,304781,2,0,B|123:297|123:297|125:302|125:302|124:307|130:348,1,97.7500018644333,8|2,1:2|0:0,0:0:0:0:
341,252,305181,1,2,0:3:0:0:
113,163,305381,1,2,0:0:0:0:
332,55,305581,5,4,0:0:0:0:
317,151,305981,2,0,B|333:110|327:101|327:101|333:48,1,97.7500018644333,0|0,1:2|0:0,0:0:0:0:
256,333,306381,2,0,B|221:300|219:289|229:243,1,97.7500018644333,8|0,0:0|0:0,0:0:0:0:
236,243,306681,1,2,0:3:0:0:
251,221,306781,1,2,0:0:0:0:
125,276,306981,1,10,0:0:0:0:
214,82,307181,6,0,B|137:133|120:134|35:80,1,195.500003728867,0|0,1:2|1:2,0:0:0:0:
127,16,307781,1,2,0:3:0:0:
243,181,307981,2,0,B|289:185|289:185|293:188|293:188|345:203,1,97.7500018644333,8|0,0:0|0:0,0:0:0:0:
314,84,308381,1,2,0:3:0:0:
128,199,308581,1,0,1:2:0:0:
132,191,308681,1,0,1:2:0:0:
130,166,308781,6,0,B|137:255|137:255|134:263|134:263|142:360,1,195.500003728867,4|2,1:2|0:3,0:0:0:0:
43,224,309381,1,2,0:0:0:0:
145,350,309581,2,0,P|96:350|36:363,1,97.7500018644333,8|0,0:0|0:0,0:0:0:0:
223,201,309981,1,2,0:3:0:0:
369,351,310181,1,2,0:0:0:0:
296,250,310381,5,0,1:2:0:0:
303,270,310481,1,2,0:3:0:0:
298,300,310581,1,2,0:0:0:0:
241,109,310781,2,0,P|290:109|350:96,1,97.7500018644333,0|2,1:2|0:0,0:0:0:0:
145,222,311181,2,0,B|108:188|102:188|53:202,1,97.7500018644333,8|0,0:0|0:0,0:0:0:0:
136,93,311581,1,2,0:3:0:0:
175,328,311781,1,2,0:0:0:0:
370,192,311981,5,0,1:2:0:0:
360,289,312381,2,0,B|367:243|367:243|365:237|365:237|370:191,1,97.7500018644333,0|0,1:2|0:0,0:0:0:0:
487,16,312781,2,0,P|492:64|501:112,1,97.7500018644333,8|0,0:0|0:0,0:0:0:0:
419,64,313181,2,0,P|459:90|505:106,1,97.7500018644333,2|2,0:3|0:0,0:0:0:0:
424,341,313581,6,0,B|391:286|370:278|311:299|311:299|295:315|259:323,2,195.500003728867,0|0|8,1:2|1:2|0:0,0:0:0:0:
421,327,314481,1,2,0:3:0:0:
422,288,314581,1,2,0:0:0:0:
245,229,314781,5,2,0:0:0:0:
271,187,314881,1,2,0:3:0:0:
243,147,314981,1,8,0:0:0:0:
209,113,315081,1,8,1:2:0:0:
251,40,315181,5,4,0:0:0:0:
251,40,315981,2,0,B|241:106|241:106|234:114|242:120|242:120|226:163|227:169|249:243,1,195.500003728867,8|2,0:0|0:3,0:0:0:0:
331,173,316581,1,2,0:0:0:0:
135,125,316781,5,0,1:2:0:0:
364,142,316981,1,2,0:0:0:0:
236,332,317181,2,0,B|187:335|187:335|182:337|131:343,1,97.7500018644333,0|0,1:2|0:0,0:0:0:0:
336,103,317581,2,0,P|424:125|410:218,1,195.500003728867,8|2,0:0|0:3,0:0:0:0:
411,203,318181,1,2,0:0:0:0:
433,197,318281,1,8,0:0:0:0:
478,204,318381,5,0,1:2:0:0:
67,202,318781,1,0,1:2:0:0:
172,247,318981,2,0,B|171:154|163:149|163:149|158:48,1,195.500003728867,2|2,0:0|0:0,0:0:0:0:
51,94,319581,1,2,0:3:0:0:
270,77,319781,1,2,0:0:0:0:
86,295,319981,5,4,1:2:0:0:
86,295,320381,2,0,B|81:247|81:247|78:241|78:241|71:189,1,97.7500018644333,8|0,0:0|1:2,0:0:0:0:
66,206,320681,1,0,1:2:0:0:
27,212,320781,1,0,1:2:0:0:
270,77,320981,2,0,B|304:100|304:100|429:76|429:76|466:97,1,212.5,8|8,0:0|0:0,0:0:0:0:
261,340,321581,5,4,1:2:0:0:
256,192,321631,12,8,323981,0:0:0:0:
31,357,324381,5,2,0:3:0:0:
318,229,324781,6,0,B|309:277|312:281|312:281|304:313|297:336|365:360,1,146.62500279665,4|0,0:0|0:0,0:0:0:0:
419,306,325181,2,0,B|407:259|407:259|407:252|407:252|396:210,1,97.7500018644333,0|0,1:2|0:0,0:0:0:0:
157,212,325581,2,0,B|132:264|162:252|135:305,1,97.7500018644333,8|2,0:0|0:0,0:0:0:0:
216,372,325981,1,2,0:3:0:0:
91,131,326181,6,0,B|169:92|184:96|229:136|229:136|227:143|256:177,1,195.500003728867,2|2,1:3|0:3,0:0:0:0:
324,106,326781,1,0,1:2:0:0:
315,91,326881,1,2,0:3:0:0:
320,66,326981,1,2,0:0:0:0:
508,134,327181,2,0,B|503:84|503:84|507:36,1,97.7500018644333,8|0,2:0|0:0,0:0:0:0:
349,252,327581,5,2,0:0:0:0:
346,205,327681,1,2,0:3:0:0:
378,173,327781,1,8,0:0:0:0:
423,170,327881,1,8,0:0:0:0:
476,224,327981,5,4,1:2:0:0:
476,224,328581,1,2,0:0:0:0:
409,31,328781,2,0,B|360:40|360:40|360:47|309:69,1,97.7500018644333,8|0,0:0|0:0,0:0:0:0:
99,64,329181,2,0,P|53:41|7:33,1,97.7500018644333,2|0,0:3|0:3,0:0:0:0:
213,24,329581,6,0,B|176:146|263:83|219:214,1,195.500003728867,0|0,1:2|1:2,0:0:0:0:
120,166,330181,1,2,0:0:0:0:
319,64,330381,2,0,P|365:74|388:116,1,97.7500018644333,8|2,0:0|0:0,0:0:0:0:
99,64,330781,1,2,0:3:0:0:
316,153,330981,1,2,0:0:0:0:
103,260,331181,5,4,0:0:0:0:
120,166,331581,2,0,B|106:201|113:212|113:212|108:220|103:264,1,97.7500018644333,0|0,1:2|0:0,0:0:0:0:
168,5,331981,2,0,B|120:14|113:22|98:63,1,97.7500018644333,8|0,0:0|0:0,0:0:0:0:
93,56,332281,1,2,0:3:0:0:
67,37,332381,1,2,0:0:0:0:
226,65,332581,1,10,0:0:0:0:
103,260,332781,6,0,B|184:199|194:199|284:250,1,195.500003728867,0|0,1:2|1:2,0:0:0:0:
195,330,333381,1,2,0:3:0:0:
300,141,333581,2,0,B|348:135|348:135|396:125,1,97.7500018644333,8|0,0:0|0:0,0:0:0:0:
383,243,333981,1,2,0:3:0:0:
210,115,334181,1,0,1:2:0:0:
208,104,334281,1,0,1:2:0:0:
198,82,334381,6,0,B|105:97|105:97|98:103|98:103|-5:143,1,195.500003728867,4|2,1:2|0:3,0:0:0:0:
69,0,334981,1,2,0:0:0:0:
20,132,335181,2,0,P|42:174|88:188,1,97.7500018644333,8|0,0:0|0:0,0:0:0:0:
256,178,335581,1,2,0:3:0:0:
222,380,335781,1,2,0:0:0:0:
175,192,335981,5,0,1:2:0:0:
176,213,336081,1,2,0:3:0:0:
195,240,336181,1,2,0:0:0:0:
279,45,336381,2,0,B|231:44|231:44|181:38,1,97.7500018644333,0|2,1:2|0:0,0:0:0:0:
291,278,336781,2,0,B|324:242|331:240|376:251,1,97.7500018644333,8|0,0:0|0:0,0:0:0:0:
306,150,337181,1,2,0:3:0:0:
366,352,337381,1,2,0:0:0:0:
511,203,337581,6,0,B|498:171|496:150|496:150|501:145|494:82,1,97.7500018644333,0|0,1:2|0:0,0:0:0:0:
414,10,337981,2,0,P|392:53|408:106,1,97.7500018644333,0|0,1:2|0:0,0:0:0:0:
204,342,338381,2,0,L|186:233,1,97.7500018644333,8|0,0:0|0:0,0:0:0:0:
107,285,338781,2,0,P|147:258|195:253,1,97.7500018644333,2|2,0:3|0:0,0:0:0:0:
240,76,339181,6,0,B|166:101|151:94|116:49|116:49|115:58|43:62,2,195.500003728867,0|0|8,1:2|1:2|0:0,0:0:0:0:
232,64,340081,1,2,0:3:0:0:
236,30,340181,1,2,0:0:0:0:
253,197,340381,5,2,0:0:0:0:
276,155,340481,1,2,0:3:0:0:
317,179,340581,1,8,0:0:0:0:
364,183,340681,1,8,0:0:0:0:
441,138,340781,5,4,0:0:0:0:
441,138,341581,2,0,B|444:230|451:244|451:244|456:250|456:250|447:262|456:329,1,195.500003728867,8|2,0:0|0:3,0:0:0:0:
310,348,342181,1,2,0:0:0:0:
349,142,342381,5,0,1:2:0:0:
156,264,342581,1,2,0:0:0:0:
359,365,342781,2,0,P|348:316|342:269,1,97.7500018644333,0|0,1:2|0:0,0:0:0:0:
123,162,343181,2,0,L|92:381,1,195.500003728867,8|2,0:0|0:3,0:0:0:0:
93,343,343781,1,2,0:0:0:0:
88,334,343881,1,8,0:0:0:0:
71,315,343981,6,0,P|23:312|1:354,1,97.7500018644333,0|0,1:2|0:0,0:0:0:0:
203,328,344381,1,0,1:2:0:0:
227,227,344581,2,0,B|254:159|307:166|307:166|319:157|354:167|396:202,1,195.500003728867,2|2,0:0|0:0,0:0:0:0:
451,337,345181,2,0,B|410:327|410:327|404:328|404:328|353:324,1,97.7500018644333,2|2,0:3|0:0,0:0:0:0:
141,257,345581,5,4,1:2:0:0:
141,257,345981,1,0,1:2:0:0:
164,130,346181,1,0,1:2:0:0:
157,145,346281,1,0,1:2:0:0:
159,174,346381,1,0,1:2:0:0:
102,67,346581,1,8,0:0:0:0:
377,61,346781,1,0,1:2:0:0:
248,299,346981,1,8,0:0:0:0:
194,116,347181,5,4,1:2:0:0:
199,114,347781,1,8,0:0:0:0:
192,135,347881,1,10,0:0:0:0:
197,171,347981,1,0,1:2:0:0:
202,163,348581,1,8,0:0:0:0:
182,142,348681,1,10,0:0:0:0:
142,133,348781,5,0,1:2:0:0:
92,63,349181,2,0,B|85:130|95:135|95:135|79:215,1,152.999995330811,8|8,0:0|0:0,0:0:0:0:
253,345,349981,1,8,0:0:0:0:
244,341,350047,1,10,0:0:0:0:
229,325,350114,6,0,L|219:287,4,25.4999992218018,8|8|8|8|0,0:0|0:0|0:0|0:0|1:2,0:0:0:0:
235,312,350981,1,8,0:0:0:0:
242,288,351081,1,10,0:0:0:0:
253,249,351181,1,0,1:2:0:0:
304,263,351781,1,8,0:0:0:0:
293,240,351881,1,10,0:0:0:0:
263,207,351981,5,0,1:2:0:0:
272,213,352381,2,0,P|310:218|376:224,1,76.4999976654053,8|0,0:0|0:0,0:0:0:0:
496,235,352781,1,8,0:0:0:0:
364,36,353181,1,8,0:0:0:0:
366,45,353247,1,10,0:0:0:0:
359,63,353314,6,0,L|361:106,4,25.4999992218018,8|8|8|8|0,0:0|0:0|0:0|0:0|1:2,0:0:0:0:
311,80,354181,2,0,L|306:127,2,38.2499988327027,8|10|0,0:0|0:0|1:2,0:0:0:0:
314,239,354981,6,0,L|309:192,2,38.2499988327027,8|10|0,0:0|0:0|1:2,0:0:0:0:
386,157,355581,2,0,L|202:166,1,152.999995330811,8|8,0:0|0:0,0:0:0:0:
55,258,356380,1,10,0:0:0:0:
49,252,356447,1,8,0:0:0:0:
47,237,356514,6,0,L|37:203,4,25.4999992218018,8|8|8|8|0,0:0|0:0|0:0|0:0|1:2,0:0:0:0:
58,231,357381,1,8,0:0:0:0:
69,210,357481,1,10,0:0:0:0:
75,171,357581,1,0,1:2:0:0:
145,201,358181,6,0,L|156:267,2,38.2499988327027,8|10|0,0:0|0:0|1:2,0:0:0:0:
86,294,358781,2,0,P|159:272|235:264,1,152.999995330811,8|8,0:0|0:0,0:0:0:0:
432,341,359581,1,8,0:0:0:0:
424,335,359647,1,10,0:0:0:0:
403,324,359714,6,0,L|374:320,4,25.4999992218018,8|8|8|8|0,0:0|0:0|0:0|0:0|1:2,0:0:0:0:
410,318,360581,1,8,0:0:0:0:
410,293,360681,1,10,0:0:0:0:
397,251,360781,1,0,1:2:0:0:
393,256,361381,1,8,0:0:0:0:
399,228,361481,1,10,0:0:0:0:
399,184,361581,5,0,1:2:0:0:
306,135,361981,2,0,B|338:163|345:156|373:146|373:146|374:132|448:126,1,152.999995330811,8|8,0:0|0:0,0:0:0:0:
242,58,362781,1,8,0:0:0:0:
233,61,362847,1,10,0:0:0:0:
206,63,362914,6,0,L|165:76,4,25.4999992218018,8|8|8|8|0,0:0|0:0|0:0|0:0|1:2,0:0:0:0:
213,54,363781,1,8,0:0:0:0:
186,51,363881,1,10,0:0:0:0:
160,23,363981,1,0,1:2:0:0:
160,32,364581,1,8,0:0:0:0:
134,41,364681,1,10,0:0:0:0:
94,35,364781,5,0,1:2:0:0:
100,34,365181,2,0,P|92:71|86:109,1,76.4999976654053,8|0,0:0|0:0,0:0:0:0:
117,278,365581,1,8,0:0:0:0:
256,151,365981,1,8,0:0:0:0:
245,149,366048,1,8,0:0:0:0:
221,152,366114,6,0,L|185:156,4,25.4999992218018,8|8|8|8|0,0:0|0:0|0:0|0:0|1:2,0:0:0:0:
212,103,366981,2,0,L|275:95,2,38.2499988327027,8|10|0,0:0|0:0|1:2,0:0:0:0:
375,103,367781,6,0,L|337:98,2,38.2499988327027,8|10|0,0:0|0:0|1:2,0:0:0:0:
293,26,368381,2,0,L|293:198,1,152.999995330811,8|8,0:0|0:0,0:0:0:0:
299,318,369181,1,8,0:0:0:0:
298,327,369247,1,10,0:0:0:0:
300,346,369314,6,0,L|302:386,4,25.4999992218018,8|8|8|8|0,0:0|0:0|0:0|0:0|1:2,0:0:0:0:
292,337,370181,1,8,0:0:0:0:
298,312,370281,1,10,0:0:0:0:
291,273,370381,1,0,1:2:0:0:
295,280,370981,1,8,0:0:0:0:
280,255,371081,1,10,0:0:0:0:
242,238,371181,5,0,1:2:0:0:
250,245,371581,2,0,L|263:145,1,76.4999976654053,8|0,1:2|0:0,0:0:0:0:
253,32,371981,1,8,0:0:0:0:
142,176,372381,1,8,0:0:0:0:
136,183,372447,1,8,0:0:0:0:
122,194,372514,6,0,L|138:213,4,25.4999992218018,8|8|8|8|0,0:0|0:0|0:0|0:0|1:2,0:0:0:0:
112,191,373381,1,8,0:0:0:0:
122,170,373481,1,10,0:0:0:0:
116,131,373581,1,0,1:2:0:0:
120,126,374181,1,8,0:0:0:0:
109,103,374281,1,10,0:0:0:0:
81,71,374381,5,0,1:2:0:0:
11,24,374781,2,0,B|65:18|83:31|83:31|87:28|87:28|189:35,1,152.999995330811,8|8,0:0|0:0,0:0:0:0:
345,136,375581,1,8,0:0:0:0:
352,131,375647,1,10,0:0:0:0:
366,120,375714,6,0,L|373:82,4,25.4999992218018,8|8|8|8|0,0:0|0:0|0:0|0:0|1:2,0:0:0:0:
357,112,376581,1,8,0:0:0:0:
340,91,376681,1,10,0:0:0:0:
328,59,376781,1,0,1:2:0:0:
335,57,377381,1,8,0:0:0:0:
327,83,377481,1,10,0:0:0:0:
312,120,377581,5,0,1:2:0:0:
316,113,377981,2,0,P|322:150|326:188,1,76.4999976654053,8|0,0:0|0:0,0:0:0:0:
335,335,378381,1,8,0:0:0:0:
158,254,378781,1,8,0:0:0:0:
151,250,378847,1,10,0:0:0:0:
128,241,378914,6,0,L|83:238,4,25.4999992218018,8|8|8|8|0,0:0|0:0|0:0|0:0|1:2,0:0:0:0:
126,186,379781,2,0,L|164:184,2,38.2499988327027,8|10|0,0:0|0:0|1:2,0:0:0:0:
289,185,380581,6,0,L|250:183,2,38.2499988327027,8|10|8,0:0|0:0|0:0,0:0:0:0:
207,260,381181,2,0,L|206:107,1,152.999995330811,8|8,0:0|0:0,0:0:0:0:
366,177,381980,1,10,0:0:0:0:
360,169,382047,1,8,0:0:0:0:
357,150,382114,6,0,L|351:125,4,25.4999992218018,8|8|8|8|0,0:0|0:0|0:0|0:0|1:2,0:0:0:0:
363,143,382981,1,8,0:0:0:0:
356,168,383081,1,10,0:0:0:0:
349,206,383181,1,0,1:2:0:0:
283,170,383781,6,0,L|277:125,2,38.2499988327027,8|10|0,0:0|0:0|1:2,0:0:0:0:
347,76,384381,2,0,P|272:91|195:97,1,152.999995330811,8|8,0:0|0:0,0:0:0:0:
5,72,385181,1,8,0:0:0:0:
12,69,385247,1,10,0:0:0:0:
31,71,385314,6,0,L|67:84,4,25.4999992218018,8|8|8|8|0,0:0|0:0|0:0|0:0|1:2,0:0:0:0:
39,62,386181,1,8,0:0:0:0:
67,55,386281,1,10,0:0:0:0:
95,26,386381,1,0,1:2:0:0:
91,21,386981,1,8,0:0:0:0:
82,50,387081,1,10,0:0:0:0:
93,85,387181,5,0,1:2:0:0:
30,152,387581,2,0,B|48:136|94:123|99:128|99:128|122:114|210:127,1,152.999995330811,8|8,0:0|0:0,0:0:0:0:
373,194,388381,1,8,0:0:0:0:
381,203,388447,1,10,0:0:0:0:
395,225,388514,6,0,L|406:270,4,25.4999992218018,8|8|8|8|0,0:0|0:0|0:0|0:0|1:2,0:0:0:0:
400,216,389381,1,8,0:0:0:0:
392,191,389481,1,10,0:0:0:0:
365,161,389581,1,0,1:2:0:0:
370,158,390181,1,8,0:0:0:0:
375,134,390281,1,10,0:0:0:0:
382,96,390381,5,0,1:2:0:0:
385,91,390781,2,0,P|349:101|311:106,1,76.4999976654053,8|0,0:0|0:0,0:0:0:0:
164,102,391181,1,8,0:0:0:0:
188,292,391580,1,10,0:0:0:0:
183,285,391647,1,8,0:0:0:0:
167,272,391714,6,0,L|139:250,4,25.4999992218018,8|8|8|8|0,0:0|0:0|0:0|0:0|1:2,0:0:0:0:
193,226,392581,2,0,L|186:171,2,38.2499988327027,8|10|0,0:0|0:0|1:2,0:0:0:0:
193,66,393381,6,0,L|186:121,2,38.2499988327027,8|10|0,0:0|0:0|1:2,0:0:0:0:
112,146,393981,2,0,L|265:146,1,152.999995330811,8|8,0:0|0:0,0:0:0:0:
453,144,394781,1,8,0:0:0:0:
461,138,394847,1,10,0:0:0:0:
472,119,394914,6,0,L|477:85,4,25.4999992218018,8|8|8|8|0,0:0|0:0|0:0|0:0|1:2,0:0:0:0:
462,124,395781,1,8,0:0:0:0:
468,152,395881,1,10,0:0:0:0:
471,188,395981,1,0,1:2:0:0:
465,184,396581,1,8,0:0:0:0:
446,167,396681,1,10,0:0:0:0:
411,152,396781,5,0,1:2:0:0:
211,121,397181,1,8,1:2:0:0:
346,267,397581,1,8,0:0:0:0:
321,180,397981,5,10,0:0:0:0:
316,174,398047,1,10,0:0:0:0:
313,167,398114,1,8,0:0:0:0:
311,161,398181,1,8,0:0:0:0:
310,154,398247,1,8,0:0:0:0:
310,146,398314,1,8,0:0:0:0:
321,116,398381,5,12,0:0:0:0:
