osu file format v14

[General]
AudioFilename: audio.ogg
AudioLeadIn: 0
PreviewTime: 151173
Countdown: 0
SampleSet: Normal
StackLeniency: 0.7
Mode: 1
LetterboxInBreaks: 0
WidescreenStoryboard: 1

[Editor]
Bookmarks: 9300,18476,27652,36827,55532,66825,89060,98237,107413,116942,128236,150468,158938,158939,176583,176671,176759,176847,176935,177024,177112,177200,177288,177377,177465,177553,177641,177730,177818,177906,177994,178083,178171,178259,178347,178435,178524,178612,178700,178788,178877,178965,179053,179141,179230,179318,179406,179494,179583,180995,192288,202171,202259,202347,202435,202524,202612,202700,202788,202877,202965,203053,203141,203230,203318,203406,203494,203583,203671,203759,203847,203935,204024,204112,204200,204288,204377,204465,204553,204641,204995,230051
DistanceSpacing: 1.1
BeatDivisor: 4
GridSize: 4
TimelineZoom: 1.2

[Metadata]
Title:rooms__
TitleUnicode:rooms__
Artist:Maison book girl
ArtistUnicode:Maison book girl
Creator:_gt
Version:oni__
Source:
Tags:japanese pop jpop j-pop idol 412 yume 夢 dream best album "fiction" 矢川葵 yagawa aoi 古正寺恵巳 コショージメグミ koshouji koshoji coshoji coshouji megumi 井上唯 inoue yui 和田輪 wada rin 空っぽ__
BeatmapID:3608425
BeatmapSetID:1762863

[Difficulty]
HPDrainRate:5.5
CircleSize:5
OverallDifficulty:5.5
ApproachRate:5
SliderMultiplier:1.4
SliderTickRate:1

[Events]
//Background and Video events
0,0,"89751717_p0 (2).jpg",0,100
//Break Periods
2,150665,157191
//Storyboard Layer 0 (Background)
//Storyboard Layer 1 (Fail)
//Storyboard Layer 2 (Pass)
//Storyboard Layer 3 (Foreground)
//Storyboard Layer 4 (Overlay)
//Storyboard Sound Samples

[TimingPoints]
-945,352.941176470588,3,1,0,50,1,8
113,352.941176470588,3,1,0,50,1,0
113,-125,3,1,0,50,0,0
3289,352.941176470588,4,1,0,50,1,0
3289,-125,4,1,0,50,0,0
4700,352.941176470588,3,1,0,50,1,8
4701,352.941176470588,3,1,0,50,1,0
4701,-125,3,1,0,50,0,0
7877,352.941176470588,4,1,0,50,1,0
7877,-125,4,1,0,50,0,0
9288,352.941176470588,3,1,0,60,1,8
9289,352.941176470588,3,1,0,60,1,0
9289,-117.647058823529,3,1,0,60,0,0
12465,352.941176470588,4,1,0,60,1,0
12465,-117.647058823529,4,1,0,60,0,0
13876,352.941176470588,3,1,0,60,1,8
13876,-117.647058823529,3,1,0,60,0,8
13877,352.941176470588,3,1,0,60,1,0
13877,-117.647058823529,3,1,0,60,0,0
17053,352.941176470588,4,1,0,60,1,0
17053,-117.647058823529,4,1,0,60,0,0
18464,352.941176470588,3,1,0,70,1,8
18464,-111.111111111111,3,1,0,70,0,8
18465,352.941176470588,3,1,0,70,1,0
18465,-111.111111111111,3,1,0,70,0,0
21641,352.941176470588,4,1,0,70,1,8
21641,-111.111111111111,4,1,0,70,0,8
21642,352.941176470588,4,1,0,70,1,0
21642,-111.111111111111,4,1,0,70,0,0
23053,352.941176470588,3,1,0,70,1,8
23054,352.941176470588,3,1,0,70,1,0
23054,-111.111111111111,3,1,0,70,0,0
26230,352.941176470588,4,1,0,70,1,0
26230,-111.111111111111,4,1,0,70,0,0
27641,352.941176470588,3,1,0,80,1,8
27641,-100,3,1,0,80,0,8
27642,352.941176470588,3,1,0,80,1,0
27642,-100,3,1,0,80,0,0
27818,-100.946384459563,4,1,0,80,0,8
27994,-101.900711279976,4,1,0,80,0,8
28171,-102.86302788253,4,1,0,80,0,8
28347,-103.833381602456,4,1,0,80,0,8
28524,-104.811819680325,4,1,0,80,0,8
28700,-105.798389253303,4,1,0,80,0,8
28876,-106.79313734626,4,1,0,80,0,8
29053,-107.796110862744,4,1,0,80,0,8
29229,-108.807356575807,4,1,0,80,0,8
29406,-109.826921118684,4,1,0,80,0,8
29582,-110.854850975341,4,1,0,80,0,8
29759,-111.891192470867,4,1,0,80,0,8
29935,-112.935991761729,4,1,0,80,0,8
30111,-113.989294825883,4,1,0,80,0,8
30288,-115.05114745274,4,1,0,80,0,8
30464,-116.121595232994,4,1,0,80,0,8
30641,-117.200683548299,4,1,0,80,0,8
30818,352.941176470588,4,1,0,80,1,0
30818,-118.288457560813,4,1,0,80,0,8
30993,-119.384962202594,4,1,0,80,0,8
31170,-120.490242164855,4,1,0,80,0,8
31346,-121.604341887082,4,1,0,80,0,8
31523,-122.727305546007,4,1,0,80,0,8
31699,-123.859177044448,4,1,0,80,0,8
31876,-125,4,1,0,80,0,8
32229,352.941176470588,3,1,0,80,1,8
32229,-100,3,1,0,80,0,8
32230,352.941176470588,3,1,0,80,1,0
32230,-100,4,1,0,80,0,8
32406,-100.946384459563,4,1,0,80,0,8
32582,-101.900711279976,4,1,0,80,0,8
32759,-102.86302788253,4,1,0,80,0,8
32935,-103.833381602456,4,1,0,80,0,8
33112,-104.811819680325,4,1,0,80,0,8
33288,-105.798389253303,4,1,0,80,0,8
33464,-106.79313734626,4,1,0,80,0,8
33641,-107.796110862744,4,1,0,80,0,8
33817,-108.807356575807,4,1,0,80,0,8
33994,-109.826921118684,4,1,0,80,0,8
34170,-110.854850975341,4,1,0,80,0,8
34347,-111.891192470867,4,1,0,80,0,8
34523,-112.935991761729,4,1,0,80,0,8
34699,-113.989294825883,4,1,0,80,0,8
34876,-115.05114745274,4,1,0,80,0,8
35052,-116.121595232994,4,1,0,80,0,8
35229,-117.200683548299,4,1,0,80,0,8
35406,352.941176470588,4,1,0,80,1,0
35406,-118.288457560813,4,1,0,80,0,8
35581,-119.384962202594,4,1,0,80,0,8
35758,-120.490242164855,4,1,0,80,0,8
35934,-121.604341887082,4,1,0,80,0,8
36022,-122.16471297398,4,1,0,80,0,8
36111,-122.727305546007,4,1,0,80,0,8
36287,-123.859177044448,4,1,0,80,0,8
36375,-124.428466875439,4,1,0,80,0,8
36464,-125,4,1,0,80,0,8
36817,352.941176470588,3,1,0,70,1,8
36818,352.941176470588,3,1,0,70,1,0
36818,-100,3,1,0,70,0,0
36906,-111.111111111111,3,1,0,70,0,0
39994,352.941176470588,4,1,0,70,1,8
39995,352.941176470588,4,1,0,70,1,0
39995,-111.111111111111,4,1,0,70,0,0
41406,352.941176470588,3,1,0,70,1,8
41406,-111.111111111111,3,1,0,70,0,8
41407,352.941176470588,3,1,0,70,1,0
41407,-100,3,1,0,70,0,0
41495,-111.111111111111,3,1,0,70,0,0
44583,352.941176470588,4,1,0,70,1,0
44583,-111.111111111111,4,1,0,70,0,0
45994,352.941176470588,3,1,0,70,1,8
45994,-111.111111111111,3,1,0,70,0,8
45995,352.941176470588,3,1,0,70,1,0
45995,-100,3,1,0,70,0,0
46083,-111.111111111111,3,1,0,70,0,0
49171,352.941176470588,4,1,0,70,1,0
49171,-111.111111111111,4,1,0,70,0,0
50582,352.941176470588,3,1,0,70,1,8
50582,-111.111111111111,3,1,0,70,0,8
50583,352.941176470588,3,1,0,70,1,0
50583,-100,3,1,0,70,0,0
50671,-111.111111111111,3,1,0,70,0,0
53759,352.941176470588,5,1,0,70,1,8
53760,352.941176470588,5,1,0,70,1,0
53760,-111.111111111111,5,1,0,70,0,0
55524,352.941176470588,4,1,0,70,1,0
55524,-100,4,1,0,70,0,0
55697,-117.647058823529,4,1,0,70,0,0
61169,-100,3,1,0,70,0,0
61345,-117.647058823529,3,1,0,70,0,0
66818,-76.9230769230769,4,1,0,100,0,1
66906,-90.9090909090909,4,1,0,100,0,1
70876,-90.9090909090909,4,1,0,90,0,0
71053,352.941176470588,3,1,0,20,1,8
72111,352.941176470588,4,1,0,100,1,9
72112,352.941176470588,4,1,0,100,1,1
72112,-76.9230769230769,4,1,0,100,0,1
72288,-90.9090909090909,4,1,0,100,0,1
76170,-90.9090909090909,4,1,0,100,0,0
76347,352.941176470588,5,1,0,20,1,8
77759,352.941176470588,4,1,0,100,1,1
77759,-76.9230769230769,4,1,0,100,0,1
77847,-90.9090909090909,4,1,0,100,0,1
87464,-90.9090909090909,4,1,0,90,0,0
88170,-111.111111111111,4,1,0,70,0,0
89053,352.941176470588,3,1,0,80,1,0
89053,-100,4,1,0,80,0,8
89229,-100.946384459563,4,1,0,80,0,8
89405,-101.900711279976,4,1,0,80,0,8
89582,-102.86302788253,4,1,0,80,0,8
89758,-103.833381602456,4,1,0,80,0,8
89935,-104.811819680325,4,1,0,80,0,8
90111,-105.798389253303,4,1,0,80,0,8
90287,-106.79313734626,4,1,0,80,0,8
90464,-107.796110862744,4,1,0,80,0,8
90640,-108.807356575807,4,1,0,80,0,8
90817,-109.826921118684,4,1,0,80,0,8
90993,-110.854850975341,4,1,0,80,0,8
91170,-111.891192470867,4,1,0,80,0,8
91346,-112.935991761729,4,1,0,80,0,8
91522,-113.989294825883,4,1,0,80,0,8
91699,-115.05114745274,4,1,0,80,0,8
91875,-116.121595232994,4,1,0,80,0,8
92052,-117.200683548299,4,1,0,80,0,8
92229,352.941176470588,4,1,0,80,1,0
92229,-118.288457560813,4,1,0,80,0,8
92404,-119.384962202594,4,1,0,80,0,8
92581,-120.490242164855,4,1,0,80,0,8
92757,-121.604341887082,4,1,0,80,0,8
92934,-122.727305546007,4,1,0,80,0,8
93110,-123.859177044448,4,1,0,80,0,8
93287,-125,4,1,0,80,0,8
93640,352.941176470588,3,1,0,80,1,8
93642,352.941176470588,3,1,0,80,1,0
93642,-100,4,1,0,80,0,8
93818,-100.946384459563,4,1,0,80,0,8
93994,-101.900711279976,4,1,0,80,0,8
94171,-102.86302788253,4,1,0,80,0,8
94347,-103.833381602456,4,1,0,80,0,8
94524,-104.811819680325,4,1,0,80,0,8
94700,-105.798389253303,4,1,0,80,0,8
94876,-106.79313734626,4,1,0,80,0,8
95053,-107.796110862744,4,1,0,80,0,8
95229,-108.807356575807,4,1,0,80,0,8
95406,-109.826921118684,4,1,0,80,0,8
95582,-110.854850975341,4,1,0,80,0,8
95759,-111.891192470867,4,1,0,80,0,8
95935,-112.935991761729,4,1,0,80,0,8
96111,-113.989294825883,4,1,0,80,0,8
96288,-115.05114745274,4,1,0,80,0,8
96464,-116.121595232994,4,1,0,80,0,8
96641,-117.200683548299,4,1,0,80,0,8
96818,352.941176470588,4,1,0,80,1,0
96818,-118.288457560813,4,1,0,80,0,8
96993,-119.384962202594,4,1,0,80,0,8
97170,-120.490242164855,4,1,0,80,0,8
97346,-121.604341887082,4,1,0,80,0,8
97523,-122.727305546007,4,1,0,80,0,8
97611,-123.29212508237,4,1,0,80,0,8
97699,-123.859177044448,4,1,0,80,0,8
97787,-124.428466875439,4,1,0,80,0,8
97876,-125,4,1,0,80,0,8
98053,-125.944584382872,4,1,0,80,0,8
98229,352.941176470588,3,1,0,70,1,8
98230,352.941176470588,3,1,0,70,1,0
98230,-117.647058823529,3,1,0,70,0,0
101406,352.941176470588,4,1,0,70,1,0
101406,-117.647058823529,4,1,0,70,0,0
102817,352.941176470588,3,1,0,70,1,8
102818,352.941176470588,3,1,0,70,1,0
102818,-117.647058823529,3,1,0,70,0,0
105994,352.941176470588,4,1,0,70,1,8
105995,352.941176470588,4,1,0,70,1,0
105995,-117.647058823529,4,1,0,70,0,0
107406,352.941176470588,3,1,0,70,1,8
107407,352.941176470588,3,1,0,70,1,0
107407,-100,3,1,0,70,0,0
107583,-111.111111111111,3,1,0,70,0,0
110583,352.941176470588,4,1,0,70,1,0
110583,-111.111111111111,4,1,0,70,0,0
111994,352.941176470588,3,1,0,70,1,8
111995,352.941176470588,3,1,0,70,1,0
111995,-100,3,1,0,70,0,0
112171,-111.111111111111,3,1,0,70,0,0
115171,352.941176470588,5,1,0,70,1,0
115171,-111.111111111111,5,1,0,70,0,0
116935,352.941176470588,4,1,0,70,1,8
116936,352.941176470588,4,1,0,70,1,0
116936,-100,4,1,0,70,0,0
117109,-117.647058823529,4,1,0,70,0,0
122581,-100,4,1,0,70,0,0
122757,-117.647058823529,4,1,0,70,0,0
128230,-76.9230769230769,4,1,0,100,0,1
128406,-90.9090909090909,4,1,0,100,0,1
132288,-90.9090909090909,4,1,0,100,0,0
132465,352.941176470588,6,1,0,20,1,8
134230,352.941176470588,4,1,0,100,1,1
134230,-76.9230769230769,4,1,0,100,0,1
134406,-90.9090909090909,4,1,0,100,0,1
138288,-90.9090909090909,4,1,0,100,0,0
138465,352.941176470588,6,1,0,20,1,8
140582,352.941176470588,4,1,0,100,1,8
140583,352.941176470588,4,1,0,100,1,1
140583,-76.9230769230769,4,1,0,100,0,1
140759,-90.9090909090909,4,1,0,100,0,1
150465,352.941176470588,69,1,0,100,1,0
150465,-83.3333333333333,69,1,0,100,0,0
150553,-66.6666666666667,69,1,0,5,0,0
158229,-125,69,1,0,70,0,0
158391,352.941176470588,69,1,0,70,1,8
158391,-125,69,1,0,70,0,0
158921,352.941176470588,3,1,0,90,1,0
158921,-90.9090909090909,4,1,0,90,0,8
159097,-92.257882896246,4,1,0,90,0,8
159273,-93.6246255811381,4,1,0,90,0,8
159450,-95.0094964891222,4,1,0,90,0,8
159626,-96.4126730580012,4,1,0,90,0,8
159803,-97.8343325722918,4,1,0,90,0,8
159979,-99.2746520955974,4,1,0,90,0,8
160155,-100.733808401072,4,1,0,90,0,8
160332,-102.211977899961,4,1,0,90,0,8
160508,-103.709336568211,4,1,0,90,0,8
160685,-105.22605987113,4,1,0,90,0,8
160861,-106.762322686098,4,1,0,90,0,8
161037,-108.31829922331,4,1,0,90,0,8
161214,-109.894162944558,4,1,0,90,0,8
161390,-111.490086480038,4,1,0,90,0,8
161567,-113.10624154318,4,1,0,90,0,8
161743,-114.742798843515,4,1,0,90,0,8
161919,-116.399927997555,4,1,0,90,0,8
162097,352.941176470588,4,1,0,90,1,0
162097,-118.077797437723,4,1,0,90,0,8
162272,-119.776574319306,4,1,0,90,0,8
162449,-121.496424425464,4,1,0,90,0,8
162625,-123.237512070301,4,1,0,90,0,8
162802,-125,4,1,0,90,0,8
163155,-100,4,1,0,90,0,8
163333,352.941176470588,3,1,0,90,1,0
163333,-90.9090909090909,4,1,0,90,0,8
163509,-92.257882896246,4,1,0,90,0,8
163685,-93.6246255811381,4,1,0,90,0,8
163862,-95.0094964891222,4,1,0,90,0,8
164038,-96.4126730580012,4,1,0,90,0,8
164215,-97.8343325722918,4,1,0,90,0,8
164391,-99.2746520955974,4,1,0,90,0,8
164567,-100.733808401072,4,1,0,90,0,8
164744,-102.211977899961,4,1,0,90,0,8
164920,-103.709336568211,4,1,0,90,0,8
165097,-105.22605987113,4,1,0,90,0,8
165273,-106.762322686098,4,1,0,90,0,8
165449,-108.31829922331,4,1,0,90,0,8
165626,-109.894162944558,4,1,0,90,0,8
165802,-111.490086480038,4,1,0,90,0,8
165979,-113.10624154318,4,1,0,90,0,8
166155,-114.742798843515,4,1,0,90,0,8
166331,-116.399927997555,4,1,0,90,0,8
166509,352.941176470588,4,1,0,90,1,0
166509,-118.077797437723,4,1,0,90,0,8
166684,-119.776574319306,4,1,0,90,0,8
166861,-121.496424425464,4,1,0,90,0,8
167037,-123.237512070301,4,1,0,90,0,8
167214,-125,4,1,0,90,0,8
167567,-100,4,1,0,90,0,8
167745,352.941176470588,3,1,0,90,1,0
167745,-90.9090909090909,4,1,0,90,0,8
167921,-92.257882896246,4,1,0,90,0,8
168097,-93.6246255811381,4,1,0,90,0,8
168274,-95.0094964891222,4,1,0,90,0,8
168450,-96.4126730580012,4,1,0,90,0,8
168627,-97.8343325722918,4,1,0,90,0,8
168803,-99.2746520955974,4,1,0,90,0,8
168979,-100.733808401072,4,1,0,90,0,8
169156,-102.211977899961,4,1,0,90,0,8
169332,-103.709336568211,4,1,0,90,0,8
169509,-105.22605987113,4,1,0,90,0,8
169685,-106.762322686098,4,1,0,90,0,8
169861,-108.31829922331,4,1,0,90,0,8
170038,-109.894162944558,4,1,0,90,0,8
170214,-111.490086480038,4,1,0,90,0,8
170391,-113.10624154318,4,1,0,90,0,8
170567,-114.742798843515,4,1,0,90,0,8
170743,-116.399927997555,4,1,0,90,0,8
170921,352.941176470588,4,1,0,90,1,0
170921,-118.077797437723,4,1,0,90,0,8
171096,-119.776574319306,4,1,0,90,0,8
171273,-121.496424425464,4,1,0,90,0,8
171449,-123.237512070301,4,1,0,90,0,8
171626,-125,4,1,0,90,0,8
171979,-100,4,1,0,90,0,8
172156,352.941176470588,3,1,0,90,1,0
172156,-90.9090909090909,4,1,0,90,0,8
172332,-92.257882896246,4,1,0,90,0,8
172508,-93.6246255811381,4,1,0,90,0,8
172685,-95.0094964891222,4,1,0,90,0,8
172861,-96.4126730580012,4,1,0,90,0,8
173038,-97.8343325722918,4,1,0,90,0,8
173214,-99.2746520955974,4,1,0,90,0,8
173390,-100.733808401072,4,1,0,90,0,8
173567,-102.211977899961,4,1,0,90,0,8
173743,-103.709336568211,4,1,0,90,0,8
173920,-105.22605987113,4,1,0,90,0,8
174096,-106.762322686098,4,1,0,90,0,8
174272,-108.31829922331,4,1,0,90,0,8
174449,-109.894162944558,4,1,0,90,0,8
174625,-111.490086480038,4,1,0,90,0,8
174802,-113.10624154318,4,1,0,90,0,8
174978,-114.742798843515,4,1,0,90,0,8
175154,-116.399927997555,4,1,0,90,0,8
175332,352.941176470588,4,1,0,90,1,8
175333,352.941176470588,4,1,0,90,1,0
175333,-118.077797437723,4,1,0,90,0,8
175508,-119.776574319306,4,1,0,90,0,8
175685,-121.496424425464,4,1,0,90,0,8
175861,-123.237512070301,4,1,0,90,0,8
176038,-125,4,1,0,90,0,8
176391,-100,4,1,0,90,0,8
176568,352.941176470588,10,1,0,100,1,1
176568,-50,1,1,0,100,0,1
176920,-45.8988639372124,4,1,0,100,0,9
177273,-42.1192001896925,4,1,0,100,0,9
177626,-38.638178354065,4,1,0,100,0,9
177979,-35.4342096995032,4,1,0,100,0,9
178332,-32.4869436172156,4,1,0,100,0,9
178685,-29.7772507449095,4,1,0,100,0,9
179038,-27.2871954481099,4,1,0,100,0,9
179391,-25,4,1,0,100,0,9
179567,352.941176470588,4,1,0,70,1,0
180978,-125,4,1,0,70,0,0
192272,-111.111111111111,4,1,0,70,0,0
197919,-105.263157894737,4,1,0,70,0,0
204978,-76.9230769230769,4,1,0,100,0,1
205155,-90.9090909090909,4,1,0,100,0,1
209037,-90.9090909090909,4,1,0,100,0,0
209214,352.941176470588,7,1,0,20,1,8
211683,352.941176470588,4,1,0,100,1,1
211683,-76.9230769230769,4,1,0,100,0,1
211859,-90.9090909090909,4,1,0,100,0,1
215741,-90.9090909090909,4,1,0,100,0,0
215918,352.941176470588,8,1,0,20,1,8
218741,352.941176470588,4,1,0,100,1,1
218741,-76.9230769230769,4,1,0,100,0,1
218917,-90.9090909090909,4,1,0,100,0,1
228446,-90.9090909090909,4,1,0,90,0,0
229152,-111.111111111111,4,1,0,70,0,0
230035,352.941176470588,3,1,0,80,1,8
230037,352.941176470588,3,1,0,80,1,0
230037,-100,4,1,0,80,0,8
230212,-100.946384459563,4,1,0,80,0,8
230388,-101.900711279976,4,1,0,80,0,8
230565,-102.86302788253,4,1,0,80,0,8
230741,-103.833381602456,4,1,0,80,0,8
230918,-104.811819680325,4,1,0,80,0,8
231094,-105.798389253303,4,1,0,80,0,8
231270,-106.79313734626,4,1,0,80,0,8
231447,-107.796110862744,4,1,0,80,0,8
231623,-108.807356575807,4,1,0,80,0,8
231800,-109.826921118684,4,1,0,80,0,8
231976,-110.854850975341,4,1,0,80,0,8
232153,-111.891192470867,4,1,0,80,0,8
232329,-112.935991761729,4,1,0,80,0,8
232505,-113.989294825883,4,1,0,80,0,8
232682,-115.05114745274,4,1,0,80,0,8
232858,-116.121595232994,4,1,0,80,0,8
233035,-117.200683548299,4,1,0,80,0,8
233213,352.941176470588,4,1,0,80,1,0
233213,-118.288457560813,4,1,0,80,0,8
233387,-119.384962202594,4,1,0,80,0,8
233564,-120.490242164855,4,1,0,80,0,8
233740,-121.604341887082,4,1,0,80,0,8
233917,-122.727305546007,4,1,0,80,0,8
234093,-123.859177044448,4,1,0,80,0,8
234270,-125,4,1,0,80,0,8
234624,352.941176470588,3,1,0,80,1,0
234624,-100,4,1,0,80,0,8
234798,-100.946384459563,4,1,0,80,0,8
234974,-101.900711279976,4,1,0,80,0,8
235151,-102.86302788253,4,1,0,80,0,8
235327,-103.833381602456,4,1,0,80,0,8
235504,-104.811819680325,4,1,0,80,0,8
235680,-105.798389253303,4,1,0,80,0,8
235856,-106.79313734626,4,1,0,80,0,8
236033,-107.796110862744,4,1,0,80,0,8
236209,-108.807356575807,4,1,0,80,0,8
236386,-109.826921118684,4,1,0,80,0,8
236562,-110.854850975341,4,1,0,80,0,8
236739,-111.891192470867,4,1,0,80,0,8
236915,-112.935991761729,4,1,0,80,0,8
237091,-113.989294825883,4,1,0,80,0,8
237268,-115.05114745274,4,1,0,80,0,8
237444,-116.121595232994,4,1,0,80,0,8
237621,-117.200683548299,4,1,0,80,0,8
237800,352.941176470588,4,1,0,80,1,0
237800,-118.288457560813,4,1,0,80,0,8
237973,-119.384962202594,4,1,0,80,0,8
238150,-111.111111111111,4,1,0,80,0,8
238858,-100,4,1,0,80,0,8

[HitObjects]
271,237,113,5,8,0:0:0:0:
271,237,642,1,8,0:0:0:0:
271,237,1171,1,0,0:0:0:0:
271,237,1701,1,0,0:0:0:0:
271,237,2230,1,8,0:0:0:0:
271,237,2760,1,8,0:0:0:0:
271,237,3289,1,0,0:0:0:0:
201,196,4347,1,0,0:0:0:0:
271,237,4701,1,8,0:0:0:0:
271,237,5230,1,8,0:0:0:0:
271,237,5759,1,0,0:0:0:0:
271,237,6289,1,0,0:0:0:0:
271,237,6818,1,8,0:0:0:0:
271,237,7348,1,8,0:0:0:0:
271,237,7877,1,0,0:0:0:0:
156,177,8935,1,0,0:0:0:0:
186,154,9465,1,0,0:0:0:0:
186,154,9641,1,8,0:0:0:0:
186,154,9994,1,8,0:0:0:0:
186,154,10171,1,0,0:0:0:0:
186,154,10524,1,0,0:0:0:0:
186,154,10700,1,8,0:0:0:0:
186,154,11053,1,8,0:0:0:0:
186,154,11230,1,8,0:0:0:0:
186,154,11583,1,8,0:0:0:0:
186,154,11759,1,0,0:0:0:0:
186,154,12112,1,0,0:0:0:0:
186,154,12288,1,8,0:0:0:0:
186,154,12641,1,8,0:0:0:0:
186,154,12817,1,0,0:0:0:0:
186,154,12994,1,8,0:0:0:0:
186,154,13170,1,0,0:0:0:0:
186,154,13347,1,0,0:0:0:0:
186,154,13523,1,8,0:0:0:0:
186,154,14053,1,0,0:0:0:0:
186,154,14229,1,8,0:0:0:0:
186,154,14582,1,8,0:0:0:0:
186,154,14759,1,0,0:0:0:0:
186,154,15112,1,0,0:0:0:0:
186,154,15288,1,8,0:0:0:0:
186,154,15641,1,8,0:0:0:0:
186,154,15818,1,8,0:0:0:0:
186,154,16171,1,8,0:0:0:0:
186,154,16347,1,0,0:0:0:0:
186,154,16700,1,0,0:0:0:0:
186,154,16877,1,8,0:0:0:0:
186,154,17229,1,8,0:0:0:0:
186,154,17405,1,0,0:0:0:0:
186,154,17582,1,8,0:0:0:0:
186,154,17758,1,0,0:0:0:0:
186,154,17935,1,0,0:0:0:0:
186,154,18111,1,8,0:0:0:0:
181,189,18465,5,0,1:0:0:0:
185,182,18641,1,0,1:0:0:0:
185,182,18817,1,8,1:0:0:0:
181,189,18994,1,0,1:0:0:0:
185,182,19170,1,8,1:0:0:0:
185,182,19347,1,0,1:0:0:0:
181,189,19523,1,0,1:0:0:0:
185,182,19700,1,0,1:0:0:0:
185,182,19876,1,8,1:0:0:0:
181,189,20053,1,0,1:0:0:0:
185,182,20229,1,8,1:0:0:0:
185,182,20406,1,8,1:0:0:0:
181,189,20582,1,0,1:0:0:0:
185,182,20759,1,8,1:0:0:0:
185,182,20935,1,0,1:0:0:0:
140,167,21112,1,0,1:0:0:0:
185,182,21288,1,0,1:0:0:0:
181,180,21465,1,8,1:0:0:0:
140,167,21642,1,0,1:0:0:0:
185,182,21818,1,8,1:0:0:0:
185,182,21994,1,0,1:0:0:0:
180,178,22171,1,8,1:0:0:0:
180,178,22347,1,0,1:0:0:0:
181,180,22524,1,0,1:0:0:0:
140,167,22700,1,8,1:0:0:0:
181,189,23054,5,0,1:0:0:0:
185,182,23230,1,0,1:0:0:0:
185,182,23406,1,8,1:0:0:0:
181,189,23583,1,0,1:0:0:0:
185,182,23759,1,8,1:0:0:0:
185,182,23936,1,0,1:0:0:0:
181,189,24112,1,0,1:0:0:0:
185,182,24289,1,0,1:0:0:0:
185,182,24465,1,8,1:0:0:0:
181,189,24642,1,0,1:0:0:0:
185,182,24818,1,8,1:0:0:0:
185,182,24995,1,8,1:0:0:0:
181,189,25171,1,0,1:0:0:0:
185,182,25348,1,8,1:0:0:0:
185,182,25524,1,0,1:0:0:0:
140,167,25701,1,0,1:0:0:0:
185,182,25877,1,0,1:0:0:0:
181,180,26054,1,8,1:0:0:0:
140,167,26230,1,0,1:0:0:0:
185,182,26406,1,8,1:0:0:0:
185,182,26582,1,0,1:0:0:0:
180,178,26759,1,8,1:0:0:0:
180,178,26935,1,0,1:0:0:0:
181,180,27112,1,0,1:0:0:0:
140,167,27288,1,8,1:0:0:0:
181,189,27642,5,12,1:0:0:0:
185,182,27818,1,0,1:0:0:0:
185,182,27994,1,8,1:0:0:0:
181,189,28171,1,0,1:0:0:0:
185,182,28347,1,8,1:0:0:0:
185,182,28524,1,0,1:0:0:0:
181,189,28700,1,0,1:0:0:0:
185,182,28877,1,0,1:0:0:0:
185,182,29053,1,8,1:0:0:0:
181,189,29230,1,0,1:0:0:0:
185,182,29406,1,8,1:0:0:0:
185,182,29583,1,8,1:0:0:0:
181,189,29759,1,0,1:0:0:0:
185,182,29936,1,8,1:0:0:0:
185,182,30112,1,0,1:0:0:0:
140,167,30289,1,0,1:0:0:0:
185,182,30465,1,0,1:0:0:0:
181,180,30642,1,8,1:0:0:0:
140,167,30818,1,0,1:0:0:0:
185,182,30994,1,8,1:0:0:0:
185,182,31170,1,0,1:0:0:0:
180,178,31347,1,8,1:0:0:0:
180,178,31523,1,0,1:0:0:0:
181,180,31700,1,0,1:0:0:0:
140,167,31876,1,8,1:0:0:0:
181,189,32230,5,12,1:0:0:0:
185,182,32406,1,0,1:0:0:0:
185,182,32582,1,8,1:0:0:0:
181,189,32759,1,0,1:0:0:0:
185,182,32935,1,8,1:0:0:0:
185,182,33112,1,0,1:0:0:0:
181,189,33288,1,0,1:0:0:0:
185,182,33465,1,0,1:0:0:0:
185,182,33641,1,8,1:0:0:0:
181,189,33818,1,0,1:0:0:0:
185,182,33994,1,8,1:0:0:0:
185,182,34171,1,8,1:0:0:0:
181,189,34347,1,0,1:0:0:0:
185,182,34524,1,8,1:0:0:0:
185,182,34700,1,0,1:0:0:0:
140,167,34877,5,0,1:0:0:0:
185,182,35053,1,0,1:0:0:0:
181,180,35230,1,8,1:0:0:0:
140,167,35406,1,0,1:0:0:0:
185,182,35582,1,8,1:0:0:0:
185,182,35758,1,0,1:0:0:0:
232,163,35935,1,0,0:0:0:0:
96,130,36023,1,0,0:0:0:0:
232,163,36111,1,8,0:0:0:0:
181,180,36288,1,0,1:0:0:0:
49,318,36376,1,0,0:0:0:0:
140,167,36464,1,8,1:0:0:0:
210,178,36818,1,12,1:0:0:0:
315,230,36994,1,0,1:0:0:0:
315,230,37170,1,8,1:0:0:0:
315,230,37347,1,0,1:0:0:0:
315,230,37523,1,0,1:0:0:0:
315,230,37700,1,0,1:0:0:0:
315,230,37876,1,8,1:0:0:0:
315,230,38406,1,8,1:0:0:0:
315,230,38759,1,8,1:0:0:0:
315,230,38935,1,0,1:0:0:0:
315,230,39112,1,0,1:0:0:0:
315,230,39288,1,0,1:0:0:0:
315,230,39465,1,8,1:0:0:0:
315,230,39818,1,8,1:0:0:0:
315,230,39995,1,0,1:0:0:0:
196,200,40347,1,8,1:0:0:0:
196,200,40524,1,0,1:0:0:0:
196,200,40700,1,8,1:0:0:0:
196,200,40877,1,0,1:0:0:0:
196,200,41053,1,8,1:0:0:0:
196,200,41230,1,0,1:0:0:0:
182,115,41407,5,12,1:0:0:0:
150,260,41583,1,0,1:0:0:0:
150,260,41759,1,0,1:0:0:0:
150,260,41936,1,8,1:0:0:0:
150,260,42112,1,0,1:0:0:0:
150,260,42289,1,0,1:0:0:0:
150,260,42465,1,8,1:0:0:0:
150,260,42995,1,8,1:0:0:0:
150,260,43348,1,8,1:0:0:0:
150,260,43524,1,0,1:0:0:0:
150,260,43877,1,8,1:0:0:0:
150,260,44054,1,8,1:0:0:0:
150,260,44407,1,8,1:0:0:0:
150,260,44583,1,0,1:0:0:0:
214,207,44935,1,8,1:0:0:0:
214,207,45112,1,0,1:0:0:0:
214,207,45288,1,8,1:0:0:0:
214,207,45465,1,0,1:0:0:0:
214,207,45641,1,8,1:0:0:0:
214,207,45730,1,0,1:0:0:0:
214,207,45818,1,0,1:0:0:0:
218,135,45906,1,0,1:0:0:0:
227,155,45995,5,12,1:0:0:0:
265,189,46347,1,0,1:0:0:0:
243,177,46524,1,0,1:0:0:0:
265,189,46877,1,0,1:0:0:0:
265,189,47053,1,8,1:0:0:0:
243,177,47583,1,8,1:0:0:0:
243,177,47936,1,8,1:0:0:0:
243,177,48112,1,0,1:0:0:0:
243,177,48289,1,0,1:0:0:0:
243,177,48465,1,0,1:0:0:0:
243,177,48642,1,0,1:0:0:0:
243,177,48995,1,8,1:0:0:0:
243,177,49171,1,0,1:0:0:0:
243,177,49523,1,8,1:0:0:0:
243,177,49700,1,0,1:0:0:0:
243,177,49876,1,8,1:0:0:0:
243,177,50053,1,0,1:0:0:0:
243,177,50229,1,8,1:0:0:0:
243,177,50406,1,0,1:0:0:0:
264,155,50583,5,12,1:0:0:0:
243,177,50759,1,0,1:0:0:0:
243,177,50935,1,8,1:0:0:0:
243,177,51112,1,0,1:0:0:0:
243,177,51465,1,8,1:0:0:0:
243,177,51641,1,8,1:0:0:0:
243,177,52171,1,8,1:0:0:0:
243,177,52524,1,8,1:0:0:0:
243,177,52700,1,0,1:0:0:0:
243,177,53053,1,8,1:0:0:0:
243,177,53230,1,8,1:0:0:0:
243,177,53583,1,0,1:0:0:0:
243,177,53760,1,8,1:0:0:0:
243,177,54112,1,8,1:0:0:0:
243,177,54289,1,0,1:0:0:0:
243,177,54465,1,8,1:0:0:0:
243,177,54642,1,0,1:0:0:0:
279,203,54818,1,0,1:0:0:0:
279,203,54907,1,0,1:0:0:0:
279,203,54995,1,0,1:0:0:0:
192,163,55083,1,0,1:0:0:0:
191,155,55171,1,8,1:0:0:0:
191,155,55348,1,8,1:0:0:0:
36,325,55524,1,12,0:0:0:0:
121,139,55700,1,0,0:0:0:0:
77,187,55876,1,0,0:0:0:0:
198,146,56053,1,8,0:0:0:0:
198,146,56141,1,0,0:0:0:0:
198,146,56229,1,0,0:0:0:0:
204,142,56582,1,0,0:0:0:0:
204,142,56759,1,8,0:0:0:0:
181,249,57112,1,8,0:0:0:0:
181,249,57288,1,0,0:0:0:0:
173,227,57553,1,8,0:0:0:0:
172,227,57641,1,0,0:0:0:0:
181,249,57818,1,0,0:0:0:0:
208,142,57994,1,0,0:0:0:0:
208,142,58171,1,0,0:0:0:0:
214,142,58347,1,8,0:0:0:0:
214,142,58524,1,8,0:0:0:0:
214,142,58700,1,0,0:0:0:0:
214,142,58876,1,8,0:0:0:0:
178,250,58965,1,0,0:0:0:0:
178,250,59053,1,0,0:0:0:0:
214,142,59406,1,8,0:0:0:0:
214,142,59582,1,0,0:0:0:0:
178,250,59935,1,8,0:0:0:0:
214,142,60112,1,0,0:0:0:0:
184,254,60376,1,8,0:0:0:0:
184,254,60465,1,0,0:0:0:0:
122,215,60641,1,0,0:0:0:0:
186,254,60818,1,8,0:0:0:0:
186,254,60994,1,8,0:0:0:0:
36,325,61171,1,12,0:0:0:0:
121,139,61347,1,0,0:0:0:0:
77,187,61524,1,0,0:0:0:0:
198,146,61700,1,8,0:0:0:0:
198,146,61788,1,0,0:0:0:0:
198,146,61876,1,0,0:0:0:0:
204,142,62229,1,0,0:0:0:0:
204,142,62406,1,8,0:0:0:0:
181,249,62759,1,8,0:0:0:0:
181,249,62935,1,0,0:0:0:0:
173,227,63200,1,8,0:0:0:0:
172,227,63288,1,0,0:0:0:0:
181,249,63465,1,0,0:0:0:0:
208,142,63641,1,0,0:0:0:0:
208,142,63818,1,0,0:0:0:0:
214,142,63994,1,8,0:0:0:0:
214,142,64171,1,8,0:0:0:0:
214,142,64347,1,0,0:0:0:0:
214,142,64523,1,8,0:0:0:0:
178,250,64612,1,0,0:0:0:0:
178,250,64700,1,0,0:0:0:0:
214,142,65053,5,0,0:0:0:0:
214,142,65229,1,8,0:0:0:0:
178,250,65582,1,8,0:0:0:0:
214,142,65759,1,0,0:0:0:0:
141,160,65935,1,8,0:0:0:0:
184,254,66112,1,0,0:0:0:0:
97,149,66288,5,0,0:0:0:0:
97,149,66465,1,8,0:0:0:0:
97,149,66641,1,8,0:0:0:0:
138,176,66818,5,12,0:0:0:0:
140,223,66994,1,0,0:0:0:0:
140,223,67082,1,0,0:0:0:0:
140,223,67171,1,8,0:0:0:0:
140,223,67347,1,8,0:0:0:0:
68,244,67524,1,0,0:0:0:0:
140,223,67700,1,8,0:0:0:0:
210,58,67876,1,8,0:0:0:0:
210,58,68053,1,0,0:0:0:0:
210,58,68406,1,8,0:0:0:0:
167,250,68582,1,0,0:0:0:0:
167,250,68759,1,8,0:0:0:0:
68,244,68935,1,8,0:0:0:0:
210,58,69112,1,0,0:0:0:0:
210,58,69200,1,0,0:0:0:0:
210,58,69288,1,8,0:0:0:0:
210,58,69465,1,0,0:0:0:0:
210,58,69641,1,8,0:0:0:0:
210,58,69994,1,8,0:0:0:0:
210,58,70171,1,0,0:0:0:0:
65,244,70347,1,8,0:0:0:0:
65,244,70523,1,0,0:0:0:0:
124,215,70612,1,0,0:0:0:0:
210,58,70700,1,0,0:0:0:0:
210,58,70876,1,8,0:0:0:0:
181,236,72112,1,12,0:0:0:0:
137,172,72288,1,0,0:0:0:0:
137,172,72376,1,8,0:0:0:0:
137,172,72464,1,8,0:0:0:0:
137,172,72641,1,0,0:0:0:0:
63,244,72817,1,0,0:0:0:0:
131,167,72994,1,8,0:0:0:0:
131,167,73170,1,0,0:0:0:0:
131,167,73347,1,8,0:0:0:0:
131,167,73700,1,8,0:0:0:0:
136,252,73876,1,8,0:0:0:0:
131,167,74053,1,0,0:0:0:0:
63,244,74229,1,8,0:0:0:0:
131,167,74406,1,0,0:0:0:0:
139,177,74494,1,0,0:0:0:0:
131,167,74582,1,0,0:0:0:0:
131,167,74759,1,8,0:0:0:0:
131,167,75112,1,0,0:0:0:0:
103,272,75288,1,0,0:0:0:0:
131,167,75464,1,8,0:0:0:0:
77,193,75641,1,0,0:0:0:0:
131,167,75817,1,8,0:0:0:0:
142,154,75906,1,0,0:0:0:0:
131,167,75994,1,8,0:0:0:0:
131,167,76170,1,0,0:0:0:0:
162,235,77759,1,12,0:0:0:0:
140,312,77935,1,0,0:0:0:0:
140,312,78023,1,0,0:0:0:0:
140,312,78111,1,8,0:0:0:0:
140,312,78288,1,0,0:0:0:0:
136,256,78464,1,0,0:0:0:0:
140,312,78641,1,8,0:0:0:0:
140,312,78817,1,8,0:0:0:0:
140,312,78994,1,0,0:0:0:0:
140,312,79347,1,8,0:0:0:0:
140,312,79523,1,0,0:0:0:0:
140,312,79700,1,8,0:0:0:0:
133,256,79876,1,0,0:0:0:0:
145,308,80053,1,0,0:0:0:0:
145,308,80141,1,0,0:0:0:0:
145,308,80229,1,8,0:0:0:0:
145,308,80406,1,0,0:0:0:0:
145,308,80582,1,8,0:0:0:0:
145,308,80935,1,8,0:0:0:0:
145,308,81111,1,0,0:0:0:0:
93,297,81288,1,0,0:0:0:0:
145,308,81464,1,8,0:0:0:0:
163,303,81553,1,0,0:0:0:0:
145,308,81641,1,0,0:0:0:0:
145,308,81817,1,8,0:0:0:0:
145,308,82170,1,0,0:0:0:0:
254,199,82347,1,8,0:0:0:0:
254,199,82700,1,0,0:0:0:0:
254,199,82876,1,0,0:0:0:0:
123,219,82964,1,0,0:0:0:0:
254,199,83053,1,8,0:0:0:0:
254,199,83229,1,8,0:0:0:0:
254,199,83582,1,8,0:0:0:0:
180,256,83759,1,8,0:0:0:0:
180,256,83935,1,0,0:0:0:0:
200,121,84023,1,0,0:0:0:0:
195,164,84111,1,0,0:0:0:0:
173,113,84288,1,8,0:0:0:0:
143,263,84464,1,0,0:0:0:0:
254,199,84641,1,8,0:0:0:0:
200,121,84994,1,0,0:0:0:0:
254,199,85170,1,8,0:0:0:0:
254,199,85347,1,0,0:0:0:0:
200,121,85523,1,0,0:0:0:0:
254,199,85700,1,8,0:0:0:0:
128,171,85788,1,0,0:0:0:0:
138,268,85876,1,0,0:0:0:0:
254,199,86053,1,8,0:0:0:0:
145,99,86229,1,8,0:0:0:0:
254,199,86406,1,0,0:0:0:0:
134,191,86582,1,0,0:0:0:0:
254,199,86759,1,8,0:0:0:0:
134,191,86935,1,0,0:0:0:0:
254,199,87111,1,8,0:0:0:0:
120,217,87200,1,8,0:0:0:0:
120,217,87288,1,8,0:0:0:0:
254,199,87464,1,0,0:0:0:0:
150,229,88170,1,0,0:0:0:0:
150,229,88259,1,0,0:0:0:0:
150,229,88347,1,8,0:0:0:0:
150,229,88523,1,0,0:0:0:0:
150,229,88700,1,8,0:0:0:0:
150,229,88876,1,0,0:0:0:0:
271,237,89053,1,12,0:0:0:0:
186,154,89229,1,0,0:0:0:0:
186,154,89405,1,8,0:0:0:0:
271,237,89582,1,0,0:0:0:0:
186,154,89758,1,8,0:0:0:0:
186,154,89935,1,0,0:0:0:0:
271,237,90111,1,0,0:0:0:0:
186,154,90288,1,0,0:0:0:0:
186,154,90464,1,8,0:0:0:0:
271,237,90641,1,0,0:0:0:0:
186,154,90817,1,8,0:0:0:0:
186,154,90994,1,8,0:0:0:0:
271,237,91170,1,0,0:0:0:0:
186,154,91347,1,8,0:0:0:0:
186,154,91523,1,0,0:0:0:0:
271,237,91700,1,0,0:0:0:0:
186,154,91876,1,0,0:0:0:0:
186,154,92053,1,8,0:0:0:0:
271,237,92229,1,0,0:0:0:0:
186,154,92405,1,8,0:0:0:0:
186,154,92581,1,0,0:0:0:0:
186,154,92758,1,8,0:0:0:0:
186,154,92934,1,0,0:0:0:0:
186,154,93111,1,0,0:0:0:0:
186,154,93287,1,8,0:0:0:0:
271,237,93642,1,12,0:0:0:0:
186,154,93818,1,0,0:0:0:0:
186,154,93994,1,8,0:0:0:0:
271,237,94171,1,0,0:0:0:0:
186,154,94347,1,8,0:0:0:0:
186,154,94524,1,0,0:0:0:0:
271,237,94700,1,0,0:0:0:0:
186,154,94877,1,0,0:0:0:0:
186,154,95053,1,8,0:0:0:0:
271,237,95230,1,0,0:0:0:0:
186,154,95406,1,8,0:0:0:0:
186,154,95583,1,8,0:0:0:0:
271,237,95759,1,0,0:0:0:0:
186,154,95936,1,8,0:0:0:0:
186,154,96112,1,0,0:0:0:0:
271,237,96289,1,0,0:0:0:0:
186,154,96465,1,0,0:0:0:0:
186,154,96642,1,8,0:0:0:0:
271,237,96818,1,0,0:0:0:0:
186,154,96994,1,8,0:0:0:0:
186,154,97170,1,0,0:0:0:0:
186,154,97347,1,8,0:0:0:0:
186,154,97523,1,0,0:0:0:0:
50,190,97612,1,0,0:0:0:0:
186,154,97700,1,0,0:0:0:0:
50,190,97788,1,0,0:0:0:0:
186,154,97876,1,8,0:0:0:0:
170,178,98053,1,0,0:0:0:0:
146,171,98230,1,8,0:0:0:0:
146,171,98759,1,0,0:0:0:0:
146,171,99288,1,0,0:0:0:0:
146,171,99818,1,8,0:0:0:0:
146,171,100347,1,8,0:0:0:0:
146,171,100877,1,8,0:0:0:0:
146,171,101406,1,0,0:0:0:0:
167,214,102464,1,0,0:0:0:0:
146,171,102818,1,8,0:0:0:0:
146,171,103347,1,0,0:0:0:0:
146,171,103876,1,0,0:0:0:0:
146,171,104406,1,8,0:0:0:0:
146,171,104935,1,8,0:0:0:0:
146,171,105465,1,8,0:0:0:0:
146,171,105995,1,0,0:0:0:0:
177,191,107053,1,0,0:0:0:0:
156,171,107407,1,12,0:0:0:0:
143,164,107583,1,0,0:0:0:0:
265,189,107759,1,0,1:0:0:0:
243,177,107936,1,0,1:0:0:0:
265,189,108289,1,0,1:0:0:0:
265,189,108465,1,8,1:0:0:0:
243,177,108995,1,8,1:0:0:0:
243,177,109348,1,8,1:0:0:0:
243,177,109524,1,0,1:0:0:0:
243,177,109877,1,0,1:0:0:0:
243,177,110054,1,0,1:0:0:0:
243,177,110407,1,8,1:0:0:0:
243,177,110583,1,0,1:0:0:0:
243,177,110935,1,8,1:0:0:0:
243,177,111112,1,0,1:0:0:0:
243,177,111288,1,8,1:0:0:0:
243,177,111465,1,0,1:0:0:0:
243,177,111641,1,8,1:0:0:0:
243,177,111818,1,0,1:0:0:0:
264,155,111995,5,12,1:0:0:0:
243,177,112171,1,0,1:0:0:0:
243,177,112347,1,8,1:0:0:0:
243,177,112524,1,0,1:0:0:0:
243,177,112877,1,0,1:0:0:0:
243,177,113053,1,8,1:0:0:0:
243,177,113583,1,8,1:0:0:0:
243,177,113936,1,8,1:0:0:0:
243,177,114112,1,0,1:0:0:0:
243,177,114465,1,8,1:0:0:0:
243,177,114642,1,8,1:0:0:0:
243,177,114995,1,0,1:0:0:0:
243,177,115171,1,8,1:0:0:0:
243,177,115523,1,8,1:0:0:0:
243,177,115700,1,0,1:0:0:0:
243,177,115876,1,8,1:0:0:0:
243,177,116053,1,0,1:0:0:0:
279,203,116229,1,0,1:0:0:0:
279,203,116318,1,0,1:0:0:0:
279,203,116406,1,0,1:0:0:0:
192,163,116494,1,0,1:0:0:0:
191,155,116582,1,8,1:0:0:0:
191,155,116759,1,8,1:0:0:0:
36,325,116936,1,12,0:0:0:0:
121,139,117112,1,0,0:0:0:0:
77,187,117288,1,0,0:0:0:0:
77,187,117465,1,8,0:0:0:0:
77,187,117553,1,0,0:0:0:0:
129,146,117641,1,8,0:0:0:0:
129,146,117994,1,0,0:0:0:0:
129,146,118171,1,0,0:0:0:0:
134,147,118524,1,0,0:0:0:0:
134,147,118700,1,0,0:0:0:0:
129,146,118965,1,0,0:0:0:0:
129,146,119053,1,0,0:0:0:0:
129,146,119230,1,0,0:0:0:0:
134,147,119406,1,8,0:0:0:0:
134,147,119583,1,8,0:0:0:0:
129,146,119759,1,8,0:0:0:0:
176,247,119936,1,0,0:0:0:0:
129,146,120112,1,8,0:0:0:0:
134,147,120288,1,0,0:0:0:0:
134,147,120377,1,8,0:0:0:0:
134,147,120465,1,0,0:0:0:0:
121,145,120818,1,0,0:0:0:0:
121,145,120994,1,0,0:0:0:0:
86,160,121347,1,0,0:0:0:0:
121,145,121524,1,0,0:0:0:0:
112,160,121788,1,8,0:0:0:0:
112,160,121877,1,0,0:0:0:0:
112,160,122053,1,0,0:0:0:0:
112,160,122230,1,0,0:0:0:0:
105,185,122406,1,0,0:0:0:0:
204,167,122583,5,12,0:0:0:0:
121,139,122759,1,0,0:0:0:0:
77,187,122936,1,0,0:0:0:0:
77,187,123112,1,8,0:0:0:0:
77,187,123200,1,0,0:0:0:0:
129,146,123288,1,8,0:0:0:0:
129,146,123641,1,0,0:0:0:0:
129,146,123818,1,0,0:0:0:0:
134,147,124171,1,0,0:0:0:0:
134,147,124347,1,0,0:0:0:0:
129,146,124612,1,0,0:0:0:0:
129,146,124700,1,8,0:0:0:0:
129,146,124877,1,0,0:0:0:0:
134,147,125053,1,8,0:0:0:0:
134,147,125230,1,8,0:0:0:0:
189,262,125406,1,0,0:0:0:0:
110,119,125583,1,0,0:0:0:0:
185,265,125759,1,8,0:0:0:0:
171,132,125936,1,0,0:0:0:0:
155,157,126024,1,8,0:0:0:0:
171,132,126112,1,0,0:0:0:0:
91,142,126465,1,8,0:0:0:0:
171,132,126641,1,8,0:0:0:0:
171,132,126994,1,8,0:0:0:0:
171,132,127171,1,0,0:0:0:0:
171,132,127347,1,8,0:0:0:0:
91,142,127524,1,0,0:0:0:0:
91,142,127700,1,0,0:0:0:0:
138,176,128230,5,12,0:0:0:0:
140,223,128406,1,0,0:0:0:0:
140,223,128494,1,0,0:0:0:0:
140,223,128583,1,8,0:0:0:0:
140,223,128759,1,8,0:0:0:0:
140,223,129112,1,8,0:0:0:0:
210,58,129288,1,8,0:0:0:0:
210,58,129465,1,0,0:0:0:0:
113,195,129553,1,0,0:0:0:0:
148,167,129641,1,0,0:0:0:0:
210,58,129818,1,8,0:0:0:0:
167,250,129994,1,0,0:0:0:0:
167,250,130171,1,8,0:0:0:0:
210,58,130524,1,0,0:0:0:0:
210,58,130612,1,0,0:0:0:0:
210,58,130700,1,8,0:0:0:0:
210,58,130877,1,0,0:0:0:0:
210,58,131053,1,8,0:0:0:0:
132,161,131230,1,8,0:0:0:0:
135,151,131406,1,0,0:0:0:0:
225,161,131583,1,8,0:0:0:0:
212,154,131759,1,0,0:0:0:0:
211,152,131936,1,8,0:0:0:0:
209,166,132024,1,0,0:0:0:0:
210,58,132112,1,0,0:0:0:0:
210,58,132288,1,8,0:0:0:0:
181,236,134230,1,12,0:0:0:0:
137,172,134406,1,0,0:0:0:0:
137,172,134494,1,8,0:0:0:0:
137,172,134582,1,8,0:0:0:0:
137,172,134759,1,0,0:0:0:0:
131,167,135112,1,8,0:0:0:0:
131,167,135288,1,0,0:0:0:0:
113,198,135465,1,8,0:0:0:0:
113,198,135553,1,8,0:0:0:0:
218,195,135641,1,8,0:0:0:0:
131,167,135818,1,0,0:0:0:0:
136,252,135994,1,0,0:0:0:0:
131,167,136171,1,8,0:0:0:0:
139,177,136524,1,8,0:0:0:0:
131,167,136700,1,0,0:0:0:0:
131,167,136877,1,8,0:0:0:0:
114,192,136965,1,8,0:0:0:0:
114,192,137053,1,0,0:0:0:0:
114,192,137230,1,8,0:0:0:0:
188,165,137406,1,0,0:0:0:0:
131,167,137582,1,8,0:0:0:0:
105,149,137759,1,8,0:0:0:0:
105,149,137935,1,0,0:0:0:0:
142,154,138024,1,0,0:0:0:0:
131,167,138112,1,8,0:0:0:0:
131,167,138288,1,0,0:0:0:0:
162,235,140583,1,12,0:0:0:0:
140,312,140759,1,0,0:0:0:0:
140,312,140847,1,0,0:0:0:0:
140,312,140935,1,8,0:0:0:0:
140,312,141112,1,0,0:0:0:0:
140,312,141465,1,8,0:0:0:0:
140,312,141641,1,8,0:0:0:0:
140,312,141818,1,0,0:0:0:0:
148,153,141906,1,0,0:0:0:0:
302,142,141994,1,0,0:0:0:0:
140,312,142171,1,8,0:0:0:0:
140,312,142347,1,0,0:0:0:0:
140,312,142524,1,8,0:0:0:0:
145,308,142877,1,0,0:0:0:0:
145,308,142965,1,0,0:0:0:0:
145,308,143053,1,8,0:0:0:0:
145,308,143230,1,0,0:0:0:0:
145,308,143406,1,8,0:0:0:0:
94,299,143583,1,8,0:0:0:0:
145,308,143759,1,0,0:0:0:0:
145,308,143935,1,8,0:0:0:0:
93,297,144112,1,0,0:0:0:0:
145,308,144288,1,8,0:0:0:0:
163,303,144377,1,0,0:0:0:0:
145,308,144465,1,0,0:0:0:0:
145,308,144641,1,8,0:0:0:0:
145,308,144994,1,0,0:0:0:0:
254,199,145171,1,8,0:0:0:0:
254,199,145524,1,0,0:0:0:0:
254,199,145700,1,0,0:0:0:0:
123,219,145788,1,0,0:0:0:0:
254,199,145877,1,8,0:0:0:0:
254,199,146053,1,8,0:0:0:0:
154,125,146230,1,0,0:0:0:0:
254,199,146406,1,8,0:0:0:0:
143,128,146494,1,8,0:0:0:0:
286,151,146583,1,8,0:0:0:0:
286,151,146759,1,0,0:0:0:0:
286,151,147112,1,8,0:0:0:0:
286,151,147288,1,0,0:0:0:0:
254,199,147465,1,8,0:0:0:0:
143,128,147553,1,8,0:0:0:0:
143,128,147641,1,8,0:0:0:0:
275,144,147818,1,0,0:0:0:0:
254,199,147994,1,8,0:0:0:0:
254,199,148171,1,0,0:0:0:0:
254,199,148524,1,8,0:0:0:0:
128,171,148612,1,0,0:0:0:0:
275,144,148700,1,0,0:0:0:0:
254,199,148877,1,8,0:0:0:0:
275,144,149053,1,8,0:0:0:0:
254,199,149230,1,0,0:0:0:0:
134,191,149406,1,0,0:0:0:0:
254,199,149583,1,8,0:0:0:0:
134,191,149759,1,0,0:0:0:0:
254,199,149935,1,8,0:0:0:0:
120,217,150024,1,8,0:0:0:0:
120,217,150112,1,8,0:0:0:0:
254,199,150288,1,8,0:0:0:0:
104,170,150465,1,4,0:0:0:0:
190,211,158391,5,0,0:0:0:0:
190,211,158479,1,0,0:0:0:0:
190,211,158567,1,8,0:0:0:0:
181,189,158921,5,12,1:0:0:0:
185,182,159097,1,8,1:0:0:0:
185,182,159273,1,0,1:0:0:0:
181,189,159450,1,0,1:0:0:0:
185,182,159626,1,8,1:0:0:0:
185,182,159803,1,0,1:0:0:0:
181,189,159979,1,0,1:0:0:0:
185,182,160156,1,0,1:0:0:0:
185,182,160332,1,8,1:0:0:0:
181,189,160509,1,0,1:0:0:0:
185,182,160685,1,8,1:0:0:0:
185,182,160862,1,8,1:0:0:0:
181,189,161038,1,0,1:0:0:0:
185,182,161215,1,8,1:0:0:0:
185,182,161391,1,0,1:0:0:0:
140,167,161568,1,0,1:0:0:0:
185,182,161744,1,0,1:0:0:0:
181,180,161921,1,8,1:0:0:0:
140,167,162097,1,0,1:0:0:0:
185,182,162273,1,8,1:0:0:0:
185,182,162449,1,0,1:0:0:0:
180,178,162626,1,8,1:0:0:0:
180,178,162802,1,0,1:0:0:0:
184,189,163155,1,8,1:0:0:0:
181,189,163333,5,12,1:0:0:0:
185,182,163509,1,8,1:0:0:0:
185,182,163685,1,0,1:0:0:0:
181,189,163862,1,0,1:0:0:0:
185,182,164038,1,8,1:0:0:0:
185,182,164215,1,0,1:0:0:0:
181,189,164391,1,0,1:0:0:0:
185,182,164568,1,0,1:0:0:0:
185,182,164744,1,8,1:0:0:0:
181,189,164921,1,0,1:0:0:0:
185,182,165097,1,8,1:0:0:0:
185,182,165274,1,8,1:0:0:0:
181,189,165450,1,0,1:0:0:0:
185,182,165627,1,8,1:0:0:0:
185,182,165803,1,0,1:0:0:0:
140,167,165980,1,0,1:0:0:0:
185,182,166156,1,0,1:0:0:0:
181,180,166333,1,8,1:0:0:0:
140,167,166509,1,0,1:0:0:0:
185,182,166685,1,8,1:0:0:0:
185,182,166861,1,0,1:0:0:0:
180,178,167038,1,8,1:0:0:0:
180,178,167214,1,0,1:0:0:0:
184,189,167567,1,8,1:0:0:0:
181,189,167745,5,12,1:0:0:0:
185,182,167921,1,8,1:0:0:0:
185,182,168097,1,0,1:0:0:0:
181,189,168274,1,0,1:0:0:0:
185,182,168450,1,8,1:0:0:0:
185,182,168627,1,0,1:0:0:0:
181,189,168803,1,0,1:0:0:0:
185,182,168980,1,0,1:0:0:0:
185,182,169156,1,8,1:0:0:0:
181,189,169333,1,0,1:0:0:0:
185,182,169509,1,8,1:0:0:0:
185,182,169686,1,8,1:0:0:0:
181,189,169862,1,0,1:0:0:0:
185,182,170039,1,8,1:0:0:0:
185,182,170215,1,0,1:0:0:0:
140,167,170392,1,0,1:0:0:0:
185,182,170568,1,0,1:0:0:0:
181,180,170745,1,8,1:0:0:0:
140,167,170921,1,0,1:0:0:0:
185,182,171097,1,8,1:0:0:0:
185,182,171273,1,0,1:0:0:0:
180,178,171450,1,8,1:0:0:0:
180,178,171626,1,0,1:0:0:0:
184,189,171979,1,8,1:0:0:0:
181,189,172156,5,12,1:0:0:0:
185,182,172332,1,8,1:0:0:0:
185,182,172508,1,0,1:0:0:0:
181,189,172685,1,0,1:0:0:0:
185,182,172861,1,8,1:0:0:0:
185,182,173038,1,0,1:0:0:0:
181,189,173214,1,0,1:0:0:0:
185,182,173391,1,0,1:0:0:0:
185,182,173567,1,8,1:0:0:0:
181,189,173744,1,0,1:0:0:0:
185,182,173920,1,8,1:0:0:0:
185,182,174097,1,8,1:0:0:0:
181,189,174273,1,0,1:0:0:0:
185,182,174450,1,8,1:0:0:0:
185,182,174626,1,0,1:0:0:0:
140,167,174803,1,0,1:0:0:0:
185,182,174979,1,0,1:0:0:0:
181,180,175156,1,8,1:0:0:0:
140,167,175333,1,0,1:0:0:0:
185,182,175509,1,8,1:0:0:0:
185,182,175685,1,0,1:0:0:0:
180,178,175862,1,8,1:0:0:0:
180,178,176038,1,0,1:0:0:0:
184,189,176391,1,8,1:0:0:0:
135,221,176568,2,4,L|208:190,33,70
196,180,180978,1,0,0:0:0:0:
196,180,181331,1,0,0:0:0:0:
196,180,181508,1,8,0:0:0:0:
196,180,181861,1,8,0:0:0:0:
196,180,182214,1,0,0:0:0:0:
196,180,182567,1,0,0:0:0:0:
196,180,182919,1,8,0:0:0:0:
196,180,183272,1,8,0:0:0:0:
196,180,183625,1,8,0:0:0:0:
196,180,183978,1,0,0:0:0:0:
196,180,184331,1,0,0:0:0:0:
196,180,184684,1,8,0:0:0:0:
196,180,185037,1,8,0:0:0:0:
196,180,186625,1,0,0:0:0:0:
196,180,186978,1,0,0:0:0:0:
196,180,187155,1,8,0:0:0:0:
196,180,187508,1,8,0:0:0:0:
196,180,187861,1,0,0:0:0:0:
196,180,188214,1,0,0:0:0:0:
196,180,188567,1,8,0:0:0:0:
196,180,188919,1,8,0:0:0:0:
196,180,189272,1,0,0:0:0:0:
196,180,189625,1,0,0:0:0:0:
196,180,189978,1,8,0:0:0:0:
196,180,190331,1,8,0:0:0:0:
196,180,190684,1,8,0:0:0:0:
223,197,192272,1,0,0:0:0:0:
223,197,192449,1,0,0:0:0:0:
223,197,192625,1,8,0:0:0:0:
223,197,192802,1,8,0:0:0:0:
223,197,193155,1,8,0:0:0:0:
223,197,193508,1,0,0:0:0:0:
223,197,193861,1,8,0:0:0:0:
223,197,194214,1,8,0:0:0:0:
223,197,194567,1,0,0:0:0:0:
223,197,194743,1,0,0:0:0:0:
223,197,194919,1,0,0:0:0:0:
223,197,195096,1,8,0:0:0:0:
223,197,195449,1,8,0:0:0:0:
223,197,195625,1,0,0:0:0:0:
223,197,195978,1,0,0:0:0:0:
223,197,196331,1,8,0:0:0:0:
218,182,196861,1,8,0:0:0:0:
145,192,197214,1,0,0:0:0:0:
145,192,197390,1,0,0:0:0:0:
145,192,197567,1,8,0:0:0:0:
145,192,197743,1,8,0:0:0:0:
145,192,198096,1,8,0:0:0:0:
145,192,198272,1,8,0:0:0:0:
145,192,198449,1,0,0:0:0:0:
145,192,198802,1,0,0:0:0:0:
145,192,199155,1,8,0:0:0:0:
145,192,199508,1,8,0:0:0:0:
145,192,199684,1,8,0:0:0:0:
145,192,199861,1,0,0:0:0:0:
145,192,200214,1,8,0:0:0:0:
145,192,200390,1,8,0:0:0:0:
145,192,200567,1,8,0:0:0:0:
145,192,200919,1,8,0:0:0:0:
145,192,201272,1,0,0:0:0:0:
145,192,201625,1,8,0:0:0:0:
145,192,201978,1,0,0:0:0:0:
118,222,202155,2,0,L|170:218,28,33.2499991121292
138,176,204978,5,12,0:0:0:0:
140,223,205155,1,0,0:0:0:0:
140,223,205243,1,0,0:0:0:0:
140,223,205331,1,8,0:0:0:0:
140,223,205508,1,8,0:0:0:0:
136,189,205684,1,0,0:0:0:0:
140,223,205861,1,8,0:0:0:0:
121,229,206037,1,0,0:0:0:0:
120,225,206214,1,0,0:0:0:0:
144,130,206390,1,0,0:0:0:0:
210,58,206566,1,8,0:0:0:0:
167,250,206743,1,0,0:0:0:0:
167,250,206919,1,8,0:0:0:0:
210,58,207272,1,0,0:0:0:0:
210,58,207361,1,0,0:0:0:0:
210,58,207449,1,8,0:0:0:0:
210,58,207625,1,0,0:0:0:0:
210,58,207802,1,8,0:0:0:0:
147,133,207978,1,0,0:0:0:0:
210,58,208155,1,8,0:0:0:0:
210,58,208331,1,8,0:0:0:0:
147,133,208508,1,0,0:0:0:0:
210,58,208684,1,8,0:0:0:0:
124,215,208772,1,0,0:0:0:0:
210,58,208861,1,0,0:0:0:0:
210,58,209037,1,8,0:0:0:0:
181,236,211683,1,12,0:0:0:0:
137,172,211859,1,0,0:0:0:0:
137,172,211947,1,8,0:0:0:0:
137,172,212035,1,8,0:0:0:0:
137,172,212212,1,0,0:0:0:0:
181,306,212388,1,0,0:0:0:0:
131,167,212565,1,8,0:0:0:0:
131,167,212741,1,0,0:0:0:0:
131,167,212918,1,8,0:0:0:0:
195,197,213094,1,0,0:0:0:0:
131,167,213271,1,8,0:0:0:0:
136,252,213447,1,8,0:0:0:0:
131,167,213624,1,0,0:0:0:0:
125,197,213800,1,8,0:0:0:0:
131,167,213977,1,0,0:0:0:0:
139,177,214065,1,0,0:0:0:0:
131,167,214153,1,0,0:0:0:0:
131,167,214330,1,8,0:0:0:0:
144,150,214683,1,8,0:0:0:0:
141,150,214859,1,0,0:0:0:0:
131,167,215035,1,8,0:0:0:0:
144,199,215212,1,0,0:0:0:0:
131,167,215388,1,8,0:0:0:0:
142,154,215477,1,0,0:0:0:0:
131,167,215565,1,8,0:0:0:0:
131,167,215741,1,0,0:0:0:0:
162,235,218741,1,12,0:0:0:0:
140,312,218917,1,0,0:0:0:0:
140,312,219005,1,0,0:0:0:0:
140,312,219093,1,8,0:0:0:0:
140,312,219270,1,0,0:0:0:0:
136,196,219446,1,0,0:0:0:0:
140,312,219623,1,8,0:0:0:0:
140,312,219799,1,8,0:0:0:0:
140,312,219976,1,0,0:0:0:0:
228,174,220152,1,0,0:0:0:0:
140,312,220329,1,8,0:0:0:0:
140,312,220505,1,0,0:0:0:0:
140,312,220682,1,8,0:0:0:0:
145,308,221035,1,8,0:0:0:0:
145,308,221123,1,8,0:0:0:0:
145,308,221211,1,0,0:0:0:0:
145,308,221388,1,0,0:0:0:0:
145,308,221564,1,8,0:0:0:0:
139,150,221741,1,0,0:0:0:0:
145,308,221917,1,8,0:0:0:0:
133,130,222093,1,8,0:0:0:0:
93,297,222270,1,0,0:0:0:0:
145,308,222446,1,8,0:0:0:0:
163,303,222535,1,0,0:0:0:0:
145,308,222623,1,0,0:0:0:0:
145,308,222799,1,8,0:0:0:0:
145,308,223152,1,0,0:0:0:0:
254,199,223329,1,8,0:0:0:0:
254,199,223682,1,0,0:0:0:0:
254,199,223858,1,0,0:0:0:0:
123,219,223946,1,0,0:0:0:0:
254,199,224035,1,8,0:0:0:0:
254,199,224211,1,8,0:0:0:0:
254,199,224564,1,8,0:0:0:0:
173,173,224741,1,8,0:0:0:0:
149,168,224917,1,0,0:0:0:0:
173,173,225005,1,0,0:0:0:0:
142,126,225093,1,0,0:0:0:0:
137,84,225270,1,8,0:0:0:0:
147,131,225446,1,0,0:0:0:0:
254,199,225623,1,8,0:0:0:0:
254,199,225976,1,0,0:0:0:0:
254,199,226152,1,8,0:0:0:0:
254,199,226329,1,0,0:0:0:0:
119,197,226505,1,0,0:0:0:0:
254,199,226682,1,8,0:0:0:0:
128,171,226770,1,0,0:0:0:0:
128,171,226858,1,0,0:0:0:0:
254,199,227035,1,8,0:0:0:0:
163,218,227211,1,8,0:0:0:0:
163,218,227388,1,0,0:0:0:0:
134,191,227564,1,0,0:0:0:0:
254,199,227741,1,8,0:0:0:0:
134,191,227917,1,0,0:0:0:0:
254,199,228093,1,8,0:0:0:0:
120,217,228182,1,8,0:0:0:0:
120,217,228270,1,8,0:0:0:0:
254,199,228446,1,0,0:0:0:0:
223,243,229152,1,0,0:0:0:0:
223,243,229241,1,0,0:0:0:0:
223,243,229329,1,8,0:0:0:0:
223,243,229505,1,0,0:0:0:0:
223,243,229682,1,8,0:0:0:0:
223,243,229858,1,0,0:0:0:0:
181,189,230037,5,12,1:0:0:0:
185,182,230213,1,0,1:0:0:0:
185,182,230389,1,8,1:0:0:0:
181,189,230566,1,0,1:0:0:0:
185,182,230742,1,8,1:0:0:0:
185,182,230919,1,0,1:0:0:0:
181,189,231095,1,0,1:0:0:0:
185,182,231272,1,0,1:0:0:0:
185,182,231448,1,8,1:0:0:0:
181,189,231625,1,0,1:0:0:0:
185,182,231801,1,8,1:0:0:0:
185,182,231978,1,8,1:0:0:0:
181,189,232154,1,0,1:0:0:0:
185,182,232331,1,8,1:0:0:0:
185,182,232507,1,0,1:0:0:0:
140,167,232684,1,0,1:0:0:0:
185,182,232860,1,0,1:0:0:0:
181,180,233037,1,8,1:0:0:0:
140,167,233213,1,0,1:0:0:0:
185,182,233389,1,8,1:0:0:0:
185,182,233565,1,0,1:0:0:0:
180,178,233742,1,8,1:0:0:0:
180,178,233918,1,0,1:0:0:0:
181,180,234095,1,0,1:0:0:0:
140,167,234271,1,8,1:0:0:0:
181,189,234624,5,12,1:0:0:0:
185,182,234800,1,0,1:0:0:0:
185,182,234976,1,8,1:0:0:0:
181,189,235153,1,0,1:0:0:0:
185,182,235329,1,8,1:0:0:0:
185,182,235506,1,0,1:0:0:0:
181,189,235682,1,0,1:0:0:0:
185,182,235859,1,0,1:0:0:0:
185,182,236035,1,8,1:0:0:0:
181,189,236212,1,0,1:0:0:0:
185,182,236388,1,8,1:0:0:0:
185,182,236565,1,8,1:0:0:0:
181,189,236741,1,0,1:0:0:0:
185,182,236918,1,8,1:0:0:0:
185,182,237094,1,0,1:0:0:0:
140,167,237271,5,0,1:0:0:0:
185,182,237447,1,0,1:0:0:0:
181,180,237624,1,8,1:0:0:0:
140,167,237800,1,0,1:0:0:0:
185,182,237976,1,8,1:0:0:0:
185,182,238152,1,0,1:0:0:0:
195,163,238329,1,0,0:0:0:0:
195,163,238505,1,0,0:0:0:0:
195,163,238682,1,0,0:0:0:0:
195,163,238858,1,8,0:0:0:0:
