osu file format v14

[General]
AudioFilename: audio.ogg
AudioLeadIn: 0
PreviewTime: 151173
Countdown: 0
SampleSet: Normal
StackLeniency: 0.7
Mode: 1
LetterboxInBreaks: 0
WidescreenStoryboard: 1

[Editor]
Bookmarks: 9300,18476,27652,36827,55532,66825,89060,98237,107413,116942,128236,150468,158938,158939,176583,176671,176759,176847,176935,177024,177112,177200,177288,177377,177465,177553,177641,177730,177818,177906,177994,178083,178171,178259,178347,178435,178524,178612,178700,178788,178877,178965,179053,179141,179230,179318,179406,179494,179583,180995,192288,202171,202259,202347,202435,202524,202612,202700,202788,202877,202965,203053,203141,203230,203318,203406,203494,203583,203671,203759,203847,203935,204024,204112,204200,204288,204377,204465,204553,204641,204995,230051
DistanceSpacing: 1.1
BeatDivisor: 4
GridSize: 4
TimelineZoom: 0.8000002

[Metadata]
Title:rooms__
TitleUnicode:rooms__
Artist:Maison book girl
ArtistUnicode:Maison book girl
Creator:_gt
Version:muzukashii__
Source:
Tags:japanese pop jpop j-pop idol 412 yume 夢 dream best album "fiction" 矢川葵 yagawa aoi 古正寺恵巳 コショージメグミ koshouji koshoji coshoji coshouji megumi 井上唯 inoue yui 和田輪 wada rin 空っぽ__
BeatmapID:3608424
BeatmapSetID:1762863

[Difficulty]
HPDrainRate:5.4
CircleSize:5
OverallDifficulty:4.6
ApproachRate:5
SliderMultiplier:1.4
SliderTickRate:1

[Events]
//Background and Video events
0,0,"89751717_p0 (2).jpg",0,100
//Break Periods
2,150665,157191
//Storyboard Layer 0 (Background)
//Storyboard Layer 1 (Fail)
//Storyboard Layer 2 (Pass)
//Storyboard Layer 3 (Foreground)
//Storyboard Layer 4 (Overlay)
//Storyboard Sound Samples

[TimingPoints]
-945,352.941176470588,3,1,0,50,1,8
113,352.941176470588,3,1,0,50,1,0
113,-113.636363636364,3,1,0,50,0,0
3289,352.941176470588,4,1,0,50,1,0
3289,-113.636363636364,4,1,0,50,0,0
4700,352.941176470588,3,1,0,50,1,8
4701,352.941176470588,3,1,0,50,1,0
4701,-113.636363636364,3,1,0,50,0,0
7877,352.941176470588,4,1,0,50,1,0
7877,-113.636363636364,4,1,0,50,0,0
9288,352.941176470588,3,1,0,60,1,8
9288,-108.695652173913,3,1,0,60,0,8
9289,352.941176470588,3,1,0,60,1,0
9289,-108.695652173913,3,1,0,60,0,0
12465,352.941176470588,4,1,0,60,1,0
12465,-108.695652173913,4,1,0,60,0,0
13876,352.941176470588,3,1,0,60,1,8
13876,-108.695652173913,3,1,0,60,0,8
13877,352.941176470588,3,1,0,60,1,0
13877,-108.695652173913,3,1,0,60,0,0
17053,352.941176470588,4,1,0,60,1,0
17053,-108.695652173913,4,1,0,60,0,0
18464,352.941176470588,3,1,0,70,1,8
18464,-104.166666666667,3,1,0,70,0,8
18465,352.941176470588,3,1,0,70,1,0
18465,-104.166666666667,3,1,0,70,0,0
21641,352.941176470588,4,1,0,70,1,8
21641,-104.166666666667,4,1,0,70,0,8
21642,352.941176470588,4,1,0,70,1,0
21642,-104.166666666667,4,1,0,70,0,0
23053,352.941176470588,3,1,0,70,1,8
23054,352.941176470588,3,1,0,70,1,0
23054,-104.166666666667,3,1,0,70,0,0
26230,352.941176470588,4,1,0,70,1,0
26230,-104.166666666667,4,1,0,70,0,0
27641,352.941176470588,3,1,0,80,1,8
27641,-100,3,1,0,80,0,8
27642,352.941176470588,3,1,0,80,1,0
27642,-100,3,1,0,80,0,0
30818,352.941176470588,4,1,0,80,1,0
30818,-100,4,1,0,80,0,0
32229,352.941176470588,3,1,0,80,1,8
32229,-100,3,1,0,80,0,8
32230,352.941176470588,3,1,0,80,1,0
32230,-100,3,1,0,80,0,0
35406,352.941176470588,4,1,0,80,1,0
35406,-100,4,1,0,80,0,0
36817,352.941176470588,3,1,0,70,1,8
36817,-100,3,1,0,70,0,8
36818,352.941176470588,3,1,0,70,1,0
36818,-105.263157894737,3,1,0,70,0,0
39994,352.941176470588,4,1,0,70,1,8
39995,352.941176470588,4,1,0,70,1,0
39995,-105.263157894737,4,1,0,70,0,0
41406,352.941176470588,3,1,0,70,1,8
41406,-105.263157894737,3,1,0,70,0,8
41407,352.941176470588,3,1,0,70,1,0
41407,-105.263157894737,3,1,0,70,0,0
44583,352.941176470588,4,1,0,70,1,0
44583,-105.263157894737,4,1,0,70,0,0
45994,352.941176470588,3,1,0,70,1,8
45994,-105.263157894737,3,1,0,70,0,8
45995,352.941176470588,3,1,0,70,1,0
45995,-105.263157894737,3,1,0,70,0,0
49171,352.941176470588,4,1,0,70,1,0
49171,-105.263157894737,4,1,0,70,0,0
50582,352.941176470588,3,1,0,70,1,8
50582,-105.263157894737,3,1,0,70,0,8
50583,352.941176470588,3,1,0,70,1,0
50583,-105.263157894737,3,1,0,70,0,0
53759,352.941176470588,5,1,0,70,1,8
53760,352.941176470588,5,1,0,70,1,0
53760,-105.263157894737,5,1,0,70,0,0
55524,352.941176470588,4,1,0,70,1,0
55524,-100,4,1,0,70,0,0
66818,-95.2380952380952,4,1,0,100,0,1
70876,-95.2380952380952,4,1,0,100,0,0
71053,352.941176470588,3,1,0,20,1,8
71053,-95.2380952380952,3,1,0,20,0,8
72111,352.941176470588,4,1,0,100,1,9
72111,-95.2380952380952,4,1,0,100,0,9
72112,352.941176470588,4,1,0,100,1,1
72112,-95.2380952380952,4,1,0,100,0,1
76170,-95.2380952380952,4,1,0,100,0,0
76347,352.941176470588,5,1,0,20,1,8
76347,-95.2380952380952,5,1,0,20,0,8
77759,352.941176470588,4,1,0,100,1,1
77759,-95.2380952380952,4,1,0,100,0,1
87464,-95.2380952380952,4,1,0,90,0,0
88170,-100,4,1,0,70,0,0
89053,352.941176470588,3,1,0,80,1,0
89053,-100,3,1,0,80,0,0
92229,352.941176470588,4,1,0,80,1,0
92229,-100,4,1,0,80,0,0
93640,352.941176470588,3,1,0,80,1,8
93640,-100,3,1,0,80,0,8
93642,352.941176470588,3,1,0,80,1,0
93642,-100,3,1,0,80,0,0
96818,352.941176470588,4,1,0,80,1,0
96818,-100,4,1,0,80,0,0
98229,352.941176470588,3,1,0,70,1,8
98230,352.941176470588,3,1,0,70,1,0
98230,-100,3,1,0,70,0,0
98759,-101.010101010101,3,1,0,70,0,0
99288,-102.040816326531,3,1,0,70,0,0
99818,-103.092783505155,3,1,0,70,0,0
100347,-104.166666666667,3,1,0,70,0,0
100877,-105.263157894737,3,1,0,70,0,0
101406,352.941176470588,4,1,0,70,1,0
101406,-106.382978723404,4,1,0,70,0,0
101935,-107.52688172043,4,1,0,70,0,0
102464,-108.695652173913,4,1,0,70,0,0
102817,352.941176470588,3,1,0,70,1,8
102817,-108.695652173913,3,1,0,70,0,8
102818,352.941176470588,3,1,0,70,1,0
102818,-108.695652173913,3,1,0,70,0,0
105994,352.941176470588,4,1,0,70,1,8
105995,352.941176470588,4,1,0,70,1,0
105995,-108.695652173913,4,1,0,70,0,0
107406,352.941176470588,3,1,0,70,1,8
107406,-105.263157894737,3,1,0,70,0,8
107407,352.941176470588,3,1,0,70,1,0
107407,-105.263157894737,3,1,0,70,0,0
110583,352.941176470588,4,1,0,70,1,0
110583,-105.263157894737,4,1,0,70,0,0
111994,352.941176470588,3,1,0,70,1,8
111994,-105.263157894737,3,1,0,70,0,8
111995,352.941176470588,3,1,0,70,1,0
111995,-105.263157894737,3,1,0,70,0,0
115171,352.941176470588,5,1,0,70,1,0
115171,-105.263157894737,5,1,0,70,0,0
116935,352.941176470588,4,1,0,70,1,8
116935,-100,4,1,0,70,0,8
116936,352.941176470588,4,1,0,70,1,0
116936,-100,4,1,0,70,0,0
128230,-95.2380952380952,4,1,0,100,0,1
132288,-95.2380952380952,4,1,0,90,0,0
132465,352.941176470588,6,1,0,20,1,8
132465,-95.2380952380952,6,1,0,20,0,8
134230,352.941176470588,4,1,0,100,1,1
134230,-95.2380952380952,4,1,0,100,0,1
138288,-95.2380952380952,4,1,0,90,0,0
138465,352.941176470588,6,1,0,20,1,8
138465,-95.2380952380952,6,1,0,20,0,8
140582,352.941176470588,4,1,0,100,1,8
140583,352.941176470588,4,1,0,100,1,1
140583,-95.2380952380952,4,1,0,100,0,1
150465,352.941176470588,69,1,0,100,1,0
150465,-95.2380952380952,69,1,0,100,0,0
150553,-66.6666666666667,69,1,0,5,0,0
158229,-100,69,1,0,70,0,0
158391,352.941176470588,69,1,0,70,1,8
158921,352.941176470588,3,1,0,80,1,0
158921,-100,3,1,0,80,0,0
162097,352.941176470588,4,1,0,80,1,0
162097,-100,4,1,0,80,0,0
163333,352.941176470588,3,1,0,80,1,0
163333,-100,3,1,0,80,0,0
166509,352.941176470588,4,1,0,80,1,0
166509,-100,4,1,0,80,0,0
167745,352.941176470588,3,1,0,80,1,0
167745,-100,3,1,0,80,0,0
170921,352.941176470588,4,1,0,80,1,0
170921,-100,4,1,0,80,0,0
172156,352.941176470588,3,1,0,80,1,0
172156,-100,3,1,0,80,0,0
175332,352.941176470588,4,1,0,90,1,8
175333,352.941176470588,4,1,0,80,1,0
175333,-100,4,1,0,80,0,0
176568,352.941176470588,10,1,0,100,1,1
176568,-100,1,1,0,100,0,1
176920,-84.6705113066718,4,1,0,100,0,9
177273,-71.5042546792423,4,1,0,100,0,9
177626,-60.2505849964419,4,1,0,100,0,9
177979,-50.6714114148434,4,1,0,100,0,9
178332,-42.5462684191549,4,1,0,100,0,9
178685,-35.6750286374418,4,1,0,100,0,9
179038,-29.8788666911805,4,1,0,100,0,9
179391,-25,4,1,0,100,0,9
179567,352.941176470588,4,1,0,70,1,0
179567,-100,4,1,0,70,0,0
180978,-105.263157894737,4,1,0,70,0,0
192272,-100,4,1,0,70,0,0
204978,-95.2380952380952,4,1,0,100,0,1
209214,352.941176470588,7,1,0,20,1,8
209214,-95.2380952380952,7,1,0,20,0,8
211683,352.941176470588,4,1,0,100,1,1
211683,-95.2380952380952,4,1,0,100,0,1
215918,352.941176470588,8,1,0,20,1,8
215918,-95.2380952380952,8,1,0,20,0,8
218741,352.941176470588,4,1,0,100,1,1
218741,-95.2380952380952,4,1,0,100,0,1
228446,-95.2380952380952,4,1,0,90,0,0
229152,-100,4,1,0,70,0,0
230035,352.941176470588,3,1,0,80,1,8
230037,352.941176470588,3,1,0,80,1,0
230037,-100,3,1,0,80,0,0
233213,352.941176470588,4,1,0,80,1,0
233213,-100,4,1,0,80,0,8
234624,352.941176470588,3,1,0,80,1,0
234624,-100,3,1,0,80,0,0
237800,352.941176470588,4,1,0,80,1,0
237800,-100,4,1,0,80,0,0

[HitObjects]
197,227,113,5,8,0:0:0:0:
163,216,642,1,8,0:0:0:0:
163,216,1171,1,0,0:0:0:0:
163,216,1701,1,0,0:0:0:0:
163,216,2230,1,8,0:0:0:0:
163,216,2760,1,8,0:0:0:0:
163,216,3289,1,0,0:0:0:0:
226,175,4347,1,0,0:0:0:0:
197,227,4701,1,8,0:0:0:0:
163,216,5230,1,8,0:0:0:0:
163,216,5759,1,0,0:0:0:0:
163,216,6289,1,0,0:0:0:0:
163,216,6818,1,8,0:0:0:0:
163,216,7348,1,8,0:0:0:0:
163,216,7877,1,0,0:0:0:0:
226,175,8935,1,0,0:0:0:0:
197,227,9289,1,8,0:0:0:0:
163,216,9818,1,8,0:0:0:0:
163,216,10347,1,0,0:0:0:0:
163,216,10877,1,0,0:0:0:0:
163,216,11406,1,8,0:0:0:0:
163,216,11936,1,8,0:0:0:0:
163,216,12465,1,0,0:0:0:0:
74,142,12817,1,0,0:0:0:0:
74,142,13170,1,0,0:0:0:0:
74,142,13347,1,8,0:0:0:0:
154,163,13523,1,8,0:0:0:0:
197,227,13877,1,8,0:0:0:0:
163,216,14406,1,8,0:0:0:0:
163,216,14935,1,0,0:0:0:0:
163,216,15465,1,0,0:0:0:0:
163,216,15994,1,8,0:0:0:0:
163,216,16524,1,8,0:0:0:0:
163,216,17053,1,0,0:0:0:0:
74,142,17405,1,0,0:0:0:0:
74,142,17758,1,0,0:0:0:0:
123,141,17935,1,8,0:0:0:0:
154,163,18111,1,8,0:0:0:0:
171,172,18641,1,0,0:0:0:0:
171,172,18817,1,0,0:0:0:0:
171,172,19170,1,8,0:0:0:0:
171,172,19347,1,8,0:0:0:0:
241,120,19700,1,0,0:0:0:0:
241,120,19876,1,0,0:0:0:0:
241,120,20229,1,8,0:0:0:0:
241,120,20406,1,8,0:0:0:0:
241,120,20759,1,0,0:0:0:0:
241,120,20935,1,0,0:0:0:0:
241,120,21288,1,8,0:0:0:0:
241,120,21465,1,8,0:0:0:0:
134,179,21818,1,0,0:0:0:0:
134,179,21994,1,0,0:0:0:0:
134,179,22347,1,0,0:0:0:0:
241,120,22700,1,8,0:0:0:0:
171,172,23230,1,0,0:0:0:0:
171,172,23406,1,0,0:0:0:0:
171,172,23759,1,8,0:0:0:0:
171,172,23936,1,8,0:0:0:0:
241,120,24289,1,0,0:0:0:0:
241,120,24465,1,0,0:0:0:0:
241,120,24818,1,8,0:0:0:0:
241,120,24995,1,8,0:0:0:0:
241,120,25348,5,0,0:0:0:0:
241,120,25524,1,0,0:0:0:0:
241,120,25877,1,8,0:0:0:0:
241,120,26054,1,8,0:0:0:0:
202,130,26406,1,0,0:0:0:0:
201,132,26582,1,0,0:0:0:0:
201,131,26935,1,0,0:0:0:0:
241,120,27288,1,8,0:0:0:0:
198,150,27641,1,12,0:0:0:0:
171,172,27818,1,0,0:0:0:0:
171,172,27994,1,8,0:0:0:0:
171,172,28347,1,8,0:0:0:0:
171,172,28524,1,0,0:0:0:0:
241,120,28877,1,0,0:0:0:0:
241,120,29053,1,8,0:0:0:0:
241,120,29406,1,8,0:0:0:0:
241,120,29583,1,8,0:0:0:0:
241,120,29936,5,8,0:0:0:0:
241,120,30112,1,0,0:0:0:0:
241,120,30465,1,0,0:0:0:0:
241,120,30642,1,8,0:0:0:0:
208,148,30818,1,0,0:0:0:0:
216,211,31170,1,8,0:0:0:0:
157,147,31523,1,0,0:0:0:0:
241,120,31876,1,8,0:0:0:0:
198,150,32229,1,12,0:0:0:0:
171,172,32406,1,0,0:0:0:0:
171,172,32582,1,8,0:0:0:0:
171,172,32935,1,8,0:0:0:0:
171,172,33112,1,0,0:0:0:0:
241,120,33465,1,0,0:0:0:0:
241,120,33641,1,8,0:0:0:0:
241,120,33994,1,8,0:0:0:0:
241,120,34171,1,8,0:0:0:0:
241,120,34524,5,8,0:0:0:0:
241,120,34700,1,0,0:0:0:0:
241,120,35053,1,0,0:0:0:0:
241,120,35230,1,8,0:0:0:0:
208,148,35406,1,0,0:0:0:0:
126,182,35758,1,8,0:0:0:0:
111,172,35935,1,0,0:0:0:0:
111,172,36023,1,0,0:0:0:0:
157,147,36111,1,0,0:0:0:0:
111,172,36288,1,0,0:0:0:0:
111,172,36376,1,0,0:0:0:0:
119,172,36464,1,0,0:0:0:0:
195,217,36818,5,12,0:0:0:0:
195,217,37170,1,8,0:0:0:0:
195,217,37347,1,0,0:0:0:0:
119,164,37523,1,0,0:0:0:0:
106,161,37700,1,0,0:0:0:0:
106,161,37876,1,8,0:0:0:0:
195,217,38406,1,8,0:0:0:0:
195,217,38759,1,8,0:0:0:0:
195,217,38935,1,0,0:0:0:0:
102,160,39112,1,0,0:0:0:0:
195,217,39288,1,0,0:0:0:0:
195,217,39465,1,8,0:0:0:0:
195,217,39818,1,8,0:0:0:0:
195,217,39995,1,0,0:0:0:0:
151,192,40347,1,8,0:0:0:0:
151,192,40524,1,0,0:0:0:0:
151,192,40700,1,8,0:0:0:0:
151,192,40877,1,0,0:0:0:0:
151,192,41053,1,8,0:0:0:0:
151,192,41230,1,0,0:0:0:0:
144,168,41407,1,12,0:0:0:0:
247,271,41759,1,0,0:0:0:0:
247,271,41936,1,8,0:0:0:0:
137,187,42112,1,0,0:0:0:0:
247,271,42289,1,0,0:0:0:0:
247,271,42465,1,8,0:0:0:0:
247,271,42995,1,8,0:0:0:0:
247,271,43348,1,8,0:0:0:0:
247,271,43524,1,0,0:0:0:0:
197,162,43877,1,8,0:0:0:0:
247,271,44054,1,8,0:0:0:0:
247,271,44407,1,8,0:0:0:0:
247,271,44583,1,0,0:0:0:0:
176,140,44935,1,8,0:0:0:0:
176,140,45112,1,0,0:0:0:0:
176,140,45288,1,8,0:0:0:0:
176,140,45465,1,0,0:0:0:0:
135,199,45641,1,0,0:0:0:0:
176,140,45730,1,0,0:0:0:0:
132,203,45818,1,0,0:0:0:0:
228,181,45995,1,12,0:0:0:0:
243,249,46347,1,0,0:0:0:0:
243,249,46524,1,0,0:0:0:0:
243,249,46877,1,0,0:0:0:0:
243,249,47053,1,8,0:0:0:0:
243,249,47583,1,8,0:0:0:0:
243,249,47936,1,8,0:0:0:0:
243,249,48112,1,0,0:0:0:0:
180,120,48289,1,0,0:0:0:0:
243,249,48465,1,0,0:0:0:0:
243,249,48642,1,0,0:0:0:0:
243,249,48995,1,8,0:0:0:0:
243,249,49171,1,0,0:0:0:0:
180,120,49523,1,8,0:0:0:0:
180,120,49700,1,0,0:0:0:0:
180,120,49876,1,8,0:0:0:0:
180,120,50053,1,0,0:0:0:0:
174,111,50229,1,8,0:0:0:0:
174,111,50406,1,0,0:0:0:0:
240,248,50583,1,12,0:0:0:0:
240,248,50935,1,8,0:0:0:0:
240,248,51112,1,0,0:0:0:0:
240,248,51465,1,8,0:0:0:0:
240,248,51641,1,8,0:0:0:0:
240,248,52171,1,8,0:0:0:0:
240,248,52524,1,8,0:0:0:0:
240,248,52700,1,0,0:0:0:0:
240,248,53053,1,8,0:0:0:0:
240,248,53230,1,8,0:0:0:0:
240,248,53583,1,0,0:0:0:0:
240,248,53760,1,8,0:0:0:0:
164,152,54112,1,8,0:0:0:0:
164,152,54289,1,0,0:0:0:0:
164,152,54465,1,8,0:0:0:0:
164,152,54642,1,0,0:0:0:0:
164,152,54818,1,0,0:0:0:0:
164,152,54907,1,0,0:0:0:0:
164,152,54995,1,0,0:0:0:0:
180,220,55171,1,8,0:0:0:0:
171,170,55524,1,12,0:0:0:0:
180,206,55700,1,0,0:0:0:0:
246,217,56053,1,8,0:0:0:0:
246,217,56229,1,0,0:0:0:0:
172,161,56582,1,0,0:0:0:0:
172,161,56759,1,8,0:0:0:0:
172,161,57112,1,8,0:0:0:0:
172,161,57288,1,0,0:0:0:0:
178,159,57641,1,0,0:0:0:0:
86,150,57994,1,8,0:0:0:0:
215,115,58347,1,0,0:0:0:0:
215,115,58524,1,8,0:0:0:0:
215,115,58876,1,0,0:0:0:0:
215,115,59053,1,8,0:0:0:0:
215,115,59406,1,8,0:0:0:0:
215,115,59582,1,0,0:0:0:0:
215,115,59935,1,8,0:0:0:0:
215,115,60112,1,0,0:0:0:0:
68,183,60465,1,0,0:0:0:0:
68,183,60818,1,8,0:0:0:0:
223,88,61171,1,12,0:0:0:0:
200,164,61347,1,0,0:0:0:0:
200,164,61700,1,8,0:0:0:0:
200,164,61876,1,0,0:0:0:0:
200,164,62229,1,0,0:0:0:0:
200,164,62406,1,8,0:0:0:0:
200,164,62759,1,8,0:0:0:0:
200,164,62935,1,0,0:0:0:0:
188,166,63288,1,0,0:0:0:0:
133,139,63641,1,8,0:0:0:0:
183,182,63994,1,0,0:0:0:0:
183,182,64171,1,8,0:0:0:0:
181,182,64523,1,0,0:0:0:0:
183,182,64700,1,8,0:0:0:0:
154,167,65053,1,8,0:0:0:0:
113,118,65229,1,8,0:0:0:0:
113,118,65582,1,8,0:0:0:0:
113,118,65759,1,0,0:0:0:0:
113,118,65935,1,8,0:0:0:0:
104,147,66112,1,0,0:0:0:0:
176,156,66288,1,0,0:0:0:0:
271,201,66818,5,12,0:0:0:0:
169,169,66994,1,0,0:0:0:0:
168,161,67171,1,8,0:0:0:0:
271,201,67347,1,8,0:0:0:0:
271,201,67700,1,8,0:0:0:0:
271,201,68053,1,0,0:0:0:0:
271,201,68406,1,8,0:0:0:0:
167,159,68582,1,0,0:0:0:0:
167,159,68759,1,8,0:0:0:0:
271,201,69112,1,8,0:0:0:0:
167,152,69288,1,0,0:0:0:0:
162,148,69376,1,0,0:0:0:0:
167,152,69465,1,0,0:0:0:0:
271,201,69641,1,8,0:0:0:0:
271,201,69994,1,8,0:0:0:0:
271,201,70171,1,0,0:0:0:0:
271,201,70523,1,0,0:0:0:0:
271,201,70876,1,8,0:0:0:0:
77,209,72112,1,12,0:0:0:0:
72,277,72288,1,0,0:0:0:0:
72,277,72464,1,8,0:0:0:0:
72,277,72641,1,0,0:0:0:0:
72,277,72994,1,0,0:0:0:0:
72,277,73347,1,8,0:0:0:0:
72,277,73700,1,8,0:0:0:0:
72,277,73876,1,0,0:0:0:0:
72,277,74053,1,8,0:0:0:0:
72,277,74406,1,8,0:0:0:0:
161,178,74494,1,8,0:0:0:0:
72,277,74582,1,8,0:0:0:0:
72,277,74759,1,0,0:0:0:0:
72,277,75112,1,0,0:0:0:0:
72,277,75464,1,8,0:0:0:0:
72,277,75817,1,8,0:0:0:0:
72,277,75994,1,0,0:0:0:0:
72,277,76170,1,0,0:0:0:0:
80,172,77759,1,12,0:0:0:0:
161,142,77935,1,0,0:0:0:0:
161,142,78111,1,8,0:0:0:0:
161,142,78288,1,8,0:0:0:0:
155,148,78641,1,8,0:0:0:0:
155,148,78994,1,0,0:0:0:0:
176,132,79347,1,0,0:0:0:0:
155,148,79523,1,0,0:0:0:0:
155,148,79700,1,8,0:0:0:0:
176,132,80053,1,8,0:0:0:0:
117,150,80229,1,0,0:0:0:0:
117,150,80317,1,0,0:0:0:0:
181,133,80406,1,0,0:0:0:0:
176,132,80582,1,8,0:0:0:0:
176,132,80935,1,8,0:0:0:0:
176,132,81111,1,0,0:0:0:0:
181,133,81464,1,0,0:0:0:0:
176,132,81817,1,8,0:0:0:0:
83,249,82700,1,0,0:0:0:0:
83,249,82876,1,0,0:0:0:0:
83,249,83053,1,8,0:0:0:0:
83,249,83229,1,8,0:0:0:0:
88,251,83582,1,8,0:0:0:0:
88,251,83759,1,8,0:0:0:0:
88,251,83935,1,0,0:0:0:0:
87,251,84288,1,0,0:0:0:0:
88,251,84641,1,8,0:0:0:0:
87,251,84994,1,8,0:0:0:0:
87,251,85170,1,0,0:0:0:0:
88,251,85347,1,0,0:0:0:0:
88,251,85700,1,8,0:0:0:0:
87,251,85788,1,8,0:0:0:0:
87,251,85876,1,8,0:0:0:0:
105,243,86053,1,0,0:0:0:0:
105,243,86406,1,8,0:0:0:0:
105,243,86759,1,0,0:0:0:0:
105,243,87111,1,8,0:0:0:0:
105,243,87464,1,0,0:0:0:0:
69,105,88170,5,0,0:0:0:0:
69,105,88347,1,8,0:0:0:0:
69,105,88523,1,0,0:0:0:0:
69,105,88700,1,8,0:0:0:0:
198,150,89053,1,12,0:0:0:0:
171,172,89229,1,0,0:0:0:0:
171,172,89405,1,8,0:0:0:0:
171,172,89758,1,8,0:0:0:0:
171,172,89935,1,0,0:0:0:0:
241,120,90288,1,0,0:0:0:0:
241,120,90464,1,8,0:0:0:0:
241,120,90817,1,8,0:0:0:0:
241,120,90994,1,8,0:0:0:0:
241,120,91347,5,8,0:0:0:0:
241,120,91523,1,0,0:0:0:0:
241,120,91876,1,0,0:0:0:0:
241,120,92053,1,8,0:0:0:0:
208,148,92229,1,0,0:0:0:0:
55,211,92581,1,8,0:0:0:0:
157,147,92934,1,0,0:0:0:0:
241,120,93287,1,8,0:0:0:0:
198,150,93640,1,12,0:0:0:0:
171,172,93818,1,0,0:0:0:0:
171,172,93994,1,8,0:0:0:0:
171,172,94347,1,8,0:0:0:0:
171,172,94524,1,0,0:0:0:0:
241,120,94877,1,0,0:0:0:0:
241,120,95053,1,8,0:0:0:0:
241,120,95406,1,8,0:0:0:0:
241,120,95583,1,8,0:0:0:0:
241,120,95936,5,8,0:0:0:0:
241,120,96112,1,0,0:0:0:0:
241,120,96465,1,0,0:0:0:0:
241,120,96642,1,8,0:0:0:0:
208,148,96818,1,0,0:0:0:0:
16,205,97170,1,8,0:0:0:0:
43,262,97523,1,8,0:0:0:0:
43,262,97612,1,8,0:0:0:0:
43,262,97700,1,8,0:0:0:0:
241,120,97876,1,8,0:0:0:0:
72,173,97965,1,8,0:0:0:0:
72,173,98053,1,8,0:0:0:0:
236,229,98229,1,8,0:0:0:0:
260,201,98759,1,0,0:0:0:0:
260,201,99288,1,0,0:0:0:0:
260,201,99818,1,8,0:0:0:0:
152,157,100347,1,8,0:0:0:0:
152,157,100877,1,8,0:0:0:0:
152,157,101406,1,0,0:0:0:0:
171,151,102464,1,0,0:0:0:0:
236,229,102818,1,8,0:0:0:0:
260,201,103347,1,0,0:0:0:0:
260,201,103876,1,0,0:0:0:0:
260,201,104406,1,8,0:0:0:0:
152,157,104935,1,8,0:0:0:0:
152,157,105465,1,8,0:0:0:0:
152,157,105995,1,0,0:0:0:0:
116,280,107053,1,0,0:0:0:0:
228,181,107407,1,12,0:0:0:0:
243,249,107759,1,0,0:0:0:0:
243,249,107936,1,8,0:0:0:0:
243,249,108289,1,0,0:0:0:0:
243,249,108465,1,8,0:0:0:0:
243,249,108995,1,8,0:0:0:0:
243,249,109348,1,8,0:0:0:0:
243,249,109524,1,0,0:0:0:0:
243,249,109877,1,0,0:0:0:0:
243,249,110054,1,8,0:0:0:0:
243,249,110407,1,8,0:0:0:0:
243,249,110583,1,0,0:0:0:0:
80,243,110935,1,8,0:0:0:0:
80,243,111112,1,0,0:0:0:0:
80,243,111288,1,8,0:0:0:0:
80,243,111465,1,0,0:0:0:0:
80,243,111641,1,8,0:0:0:0:
80,243,111818,1,0,0:0:0:0:
240,248,111995,1,12,0:0:0:0:
240,248,112347,1,0,0:0:0:0:
240,248,112524,1,8,0:0:0:0:
240,248,112877,1,8,0:0:0:0:
240,248,113053,1,8,0:0:0:0:
240,248,113583,1,8,0:0:0:0:
240,248,113936,1,8,0:0:0:0:
240,248,114112,1,0,0:0:0:0:
240,248,114465,1,8,0:0:0:0:
240,248,114642,1,8,0:0:0:0:
240,248,114995,1,0,0:0:0:0:
240,248,115171,1,8,0:0:0:0:
107,211,115523,1,8,0:0:0:0:
107,211,115700,1,0,0:0:0:0:
107,211,115876,1,8,0:0:0:0:
107,211,116053,1,0,0:0:0:0:
107,211,116229,1,0,0:0:0:0:
107,211,116318,1,0,0:0:0:0:
180,220,116406,1,0,0:0:0:0:
180,220,116582,1,8,0:0:0:0:
171,170,116936,1,12,0:0:0:0:
180,206,117112,1,0,0:0:0:0:
246,217,117465,1,0,0:0:0:0:
246,217,117641,1,0,0:0:0:0:
172,161,117994,1,0,0:0:0:0:
172,161,118171,1,0,0:0:0:0:
172,161,118524,1,0,0:0:0:0:
172,161,118700,1,0,0:0:0:0:
178,159,119053,1,0,0:0:0:0:
179,141,119406,1,8,0:0:0:0:
215,115,119759,1,0,0:0:0:0:
215,115,119936,1,0,0:0:0:0:
215,115,120288,1,0,0:0:0:0:
215,115,120465,1,0,0:0:0:0:
215,115,120818,1,0,0:0:0:0:
215,115,120994,1,0,0:0:0:0:
144,158,121347,1,0,0:0:0:0:
144,158,121524,1,0,0:0:0:0:
173,139,121877,1,0,0:0:0:0:
173,139,122230,1,0,0:0:0:0:
223,88,122583,1,12,0:0:0:0:
200,164,122759,1,0,0:0:0:0:
200,164,123112,1,0,0:0:0:0:
200,164,123288,1,0,0:0:0:0:
200,164,123641,1,0,0:0:0:0:
200,164,123818,1,0,0:0:0:0:
200,164,124171,1,0,0:0:0:0:
200,164,124347,1,0,0:0:0:0:
188,166,124700,1,0,0:0:0:0:
76,118,125053,1,8,0:0:0:0:
183,182,125406,1,0,0:0:0:0:
183,182,125583,1,0,0:0:0:0:
181,182,125936,1,0,0:0:0:0:
183,182,126112,1,0,0:0:0:0:
126,143,126465,1,8,0:0:0:0:
126,143,126641,1,8,0:0:0:0:
126,143,126818,1,0,0:0:0:0:
126,143,126994,1,8,0:0:0:0:
68,214,127171,1,0,0:0:0:0:
68,214,127347,1,8,0:0:0:0:
104,147,127524,1,0,0:0:0:0:
176,156,127700,1,0,0:0:0:0:
271,201,128230,5,12,0:0:0:0:
169,169,128406,1,0,0:0:0:0:
168,161,128583,1,8,0:0:0:0:
271,201,128759,1,8,0:0:0:0:
271,201,129112,1,8,0:0:0:0:
271,201,129465,1,0,0:0:0:0:
271,201,129818,1,8,0:0:0:0:
167,159,129994,1,0,0:0:0:0:
167,159,130171,1,8,0:0:0:0:
271,201,130524,1,8,0:0:0:0:
167,152,130700,1,0,0:0:0:0:
162,148,130788,1,0,0:0:0:0:
167,152,130877,1,0,0:0:0:0:
271,201,131053,1,8,0:0:0:0:
271,201,131406,1,8,0:0:0:0:
271,201,131583,1,0,0:0:0:0:
271,201,131935,1,0,0:0:0:0:
271,201,132288,1,8,0:0:0:0:
77,209,134230,1,12,0:0:0:0:
72,277,134406,1,0,0:0:0:0:
72,277,134582,1,8,0:0:0:0:
72,277,134759,1,0,0:0:0:0:
72,277,135112,1,0,0:0:0:0:
72,277,135465,1,8,0:0:0:0:
72,277,135818,1,8,0:0:0:0:
72,277,135994,1,0,0:0:0:0:
72,277,136171,1,8,0:0:0:0:
72,277,136524,1,8,0:0:0:0:
161,178,136612,1,8,0:0:0:0:
72,277,136700,1,8,0:0:0:0:
72,277,136877,1,0,0:0:0:0:
72,277,137230,1,0,0:0:0:0:
72,277,137582,1,8,0:0:0:0:
72,277,137935,1,8,0:0:0:0:
72,277,138112,1,0,0:0:0:0:
72,277,138288,1,0,0:0:0:0:
80,172,140583,5,12,0:0:0:0:
161,142,140759,1,0,0:0:0:0:
161,142,140935,1,8,0:0:0:0:
161,142,141112,1,8,0:0:0:0:
155,148,141465,1,8,0:0:0:0:
155,148,141818,1,0,0:0:0:0:
176,132,142171,1,0,0:0:0:0:
155,148,142347,1,0,0:0:0:0:
155,148,142524,1,8,0:0:0:0:
176,132,142877,1,8,0:0:0:0:
117,150,143053,1,0,0:0:0:0:
117,150,143141,1,0,0:0:0:0:
181,133,143230,1,0,0:0:0:0:
176,132,143406,1,8,0:0:0:0:
176,132,143759,1,8,0:0:0:0:
176,132,143935,1,0,0:0:0:0:
181,133,144288,1,0,0:0:0:0:
176,132,144641,1,8,0:0:0:0:
83,249,145524,1,0,0:0:0:0:
83,249,145700,1,0,0:0:0:0:
83,249,145877,1,8,0:0:0:0:
83,249,146053,1,8,0:0:0:0:
88,251,146406,1,8,0:0:0:0:
88,251,146583,1,8,0:0:0:0:
88,251,146759,1,0,0:0:0:0:
87,251,147112,1,0,0:0:0:0:
88,251,147465,1,8,0:0:0:0:
87,251,147818,1,8,0:0:0:0:
87,251,147994,1,0,0:0:0:0:
88,251,148171,1,0,0:0:0:0:
88,251,148524,1,8,0:0:0:0:
87,251,148612,1,8,0:0:0:0:
87,251,148700,1,8,0:0:0:0:
105,243,148877,1,0,0:0:0:0:
105,243,149230,1,8,0:0:0:0:
105,243,149583,1,0,0:0:0:0:
105,243,149935,1,8,0:0:0:0:
105,243,150288,1,8,0:0:0:0:
218,206,150465,5,4,0:0:0:0:
214,278,158391,5,0,0:0:0:0:
179,119,158479,1,0,0:0:0:0:
210,284,158567,1,8,0:0:0:0:
219,191,158921,1,12,0:0:0:0:
185,182,159097,1,0,0:0:0:0:
185,182,159273,1,0,0:0:0:0:
185,182,159626,1,8,0:0:0:0:
185,182,159803,1,0,0:0:0:0:
185,182,160156,1,0,0:0:0:0:
185,182,160332,1,8,0:0:0:0:
185,182,160685,1,8,0:0:0:0:
185,182,160862,1,8,0:0:0:0:
185,182,161215,1,8,0:0:0:0:
185,182,161391,1,0,0:0:0:0:
185,182,161744,1,0,0:0:0:0:
181,180,161921,1,8,0:0:0:0:
116,144,162097,1,0,0:0:0:0:
98,153,162449,1,8,0:0:0:0:
104,148,162802,1,0,0:0:0:0:
104,148,163155,1,8,0:0:0:0:
219,191,163333,1,12,0:0:0:0:
185,182,163509,1,0,0:0:0:0:
185,182,163685,1,0,0:0:0:0:
185,182,164038,1,8,0:0:0:0:
185,182,164215,1,0,0:0:0:0:
185,182,164568,1,0,0:0:0:0:
185,182,164744,1,8,0:0:0:0:
185,182,165097,1,8,0:0:0:0:
185,182,165274,1,8,0:0:0:0:
185,182,165627,1,8,0:0:0:0:
185,182,165803,1,0,0:0:0:0:
185,182,166156,1,0,0:0:0:0:
181,180,166333,1,8,0:0:0:0:
116,144,166509,1,0,0:0:0:0:
104,148,166861,1,8,0:0:0:0:
163,155,167214,1,0,0:0:0:0:
104,148,167567,1,8,0:0:0:0:
219,191,167745,1,12,0:0:0:0:
185,182,167921,1,0,0:0:0:0:
185,182,168097,1,0,0:0:0:0:
185,182,168450,1,8,0:0:0:0:
185,182,168627,1,0,0:0:0:0:
185,182,168980,1,0,0:0:0:0:
185,182,169156,1,8,0:0:0:0:
185,182,169509,1,8,0:0:0:0:
185,182,169686,1,8,0:0:0:0:
185,182,170039,1,8,0:0:0:0:
185,182,170215,1,0,0:0:0:0:
185,182,170568,1,0,0:0:0:0:
181,180,170745,1,8,0:0:0:0:
116,144,170921,1,0,0:0:0:0:
189,87,171273,1,8,0:0:0:0:
116,144,171626,1,0,0:0:0:0:
189,87,171979,1,8,0:0:0:0:
219,191,172156,1,12,0:0:0:0:
185,182,172332,1,0,0:0:0:0:
185,182,172508,1,0,0:0:0:0:
185,182,172861,1,8,0:0:0:0:
185,182,173038,1,0,0:0:0:0:
185,182,173391,1,0,0:0:0:0:
185,182,173567,1,8,0:0:0:0:
185,182,173920,1,8,0:0:0:0:
185,182,174097,1,8,0:0:0:0:
185,182,174450,1,8,0:0:0:0:
185,182,174626,1,0,0:0:0:0:
185,182,174979,1,0,0:0:0:0:
181,180,175156,1,8,0:0:0:0:
116,144,175333,1,0,0:0:0:0:
186,89,175685,1,8,0:0:0:0:
116,144,176038,1,0,0:0:0:0:
186,89,176391,1,8,0:0:0:0:
146,204,176568,2,4,L|203:184,33,35
210,272,180978,1,0,0:0:0:0:
210,272,181331,1,0,0:0:0:0:
210,272,181508,1,8,0:0:0:0:
210,272,181861,1,8,0:0:0:0:
210,272,182214,1,0,0:0:0:0:
210,272,182567,1,0,0:0:0:0:
210,272,182919,1,8,0:0:0:0:
210,272,183272,1,8,0:0:0:0:
210,272,183625,1,0,0:0:0:0:
210,272,183978,1,0,0:0:0:0:
210,272,184331,1,8,0:0:0:0:
210,272,184684,1,8,0:0:0:0:
210,272,185037,1,0,0:0:0:0:
210,272,186625,1,0,0:0:0:0:
210,272,186978,1,0,0:0:0:0:
210,272,187155,1,8,0:0:0:0:
210,272,187508,1,8,0:0:0:0:
210,272,187861,1,0,0:0:0:0:
210,272,188214,1,0,0:0:0:0:
210,272,188567,1,8,0:0:0:0:
210,272,188919,1,8,0:0:0:0:
210,272,189272,1,0,0:0:0:0:
210,272,189625,1,0,0:0:0:0:
210,272,189978,1,8,0:0:0:0:
210,272,190331,1,0,0:0:0:0:
210,272,190684,1,8,0:0:0:0:
210,167,192272,1,0,0:0:0:0:
210,167,192625,1,8,0:0:0:0:
210,167,192802,1,8,0:0:0:0:
210,167,193155,1,0,0:0:0:0:
210,167,193508,1,8,0:0:0:0:
210,167,193861,1,8,0:0:0:0:
210,167,194214,1,0,0:0:0:0:
210,167,194567,1,0,0:0:0:0:
210,167,194919,1,0,0:0:0:0:
210,167,195096,1,8,0:0:0:0:
210,167,195449,1,8,0:0:0:0:
210,167,195625,1,0,0:0:0:0:
210,167,195978,1,0,0:0:0:0:
210,167,196331,1,8,0:0:0:0:
316,226,197214,1,0,0:0:0:0:
316,226,197390,1,0,0:0:0:0:
316,226,197567,1,8,0:0:0:0:
316,226,197743,1,8,0:0:0:0:
316,226,198096,1,8,0:0:0:0:
316,226,198272,1,8,0:0:0:0:
316,226,198449,1,0,0:0:0:0:
316,226,198802,1,8,0:0:0:0:
316,226,199155,1,8,0:0:0:0:
316,226,199508,1,8,0:0:0:0:
316,226,199684,1,0,0:0:0:0:
316,226,199861,1,0,0:0:0:0:
316,226,200214,1,8,0:0:0:0:
316,226,200390,1,8,0:0:0:0:
316,226,200567,1,8,0:0:0:0:
316,226,200919,1,8,0:0:0:0:
316,226,201272,1,0,0:0:0:0:
316,226,201625,1,8,0:0:0:0:
316,226,201978,1,0,0:0:0:0:
177,229,202155,2,0,P|207:223|226:214,28,35
271,201,204978,5,12,0:0:0:0:
168,161,205331,1,8,0:0:0:0:
271,201,205508,1,0,0:0:0:0:
271,201,205861,1,8,0:0:0:0:
271,201,206214,1,0,0:0:0:0:
271,201,206566,1,8,0:0:0:0:
167,159,206743,1,0,0:0:0:0:
167,159,206919,1,8,0:0:0:0:
271,201,207272,1,8,0:0:0:0:
167,152,207449,1,0,0:0:0:0:
162,148,207537,1,0,0:0:0:0:
167,152,207625,1,0,0:0:0:0:
271,201,207802,1,8,0:0:0:0:
110,155,207978,1,0,0:0:0:0:
271,201,208155,1,8,0:0:0:0:
271,201,208331,1,0,0:0:0:0:
172,185,208684,1,0,0:0:0:0:
172,185,208861,1,0,0:0:0:0:
271,201,209037,1,8,0:0:0:0:
77,209,211683,1,12,0:0:0:0:
72,277,211859,1,0,0:0:0:0:
72,277,212035,1,8,0:0:0:0:
72,277,212212,1,0,0:0:0:0:
72,277,212565,1,0,0:0:0:0:
72,277,212918,1,8,0:0:0:0:
72,277,213271,1,8,0:0:0:0:
72,277,213447,1,0,0:0:0:0:
72,277,213624,1,8,0:0:0:0:
72,277,213977,1,8,0:0:0:0:
161,178,214065,1,8,0:0:0:0:
72,277,214153,1,8,0:0:0:0:
72,277,214330,1,0,0:0:0:0:
51,215,214506,1,0,0:0:0:0:
51,215,214683,1,8,0:0:0:0:
51,215,214859,1,0,0:0:0:0:
72,277,215035,1,8,0:0:0:0:
72,277,215388,1,8,0:0:0:0:
72,277,215565,1,0,0:0:0:0:
72,277,215741,1,0,0:0:0:0:
80,172,218741,5,12,0:0:0:0:
161,142,218917,1,0,0:0:0:0:
161,142,219093,1,8,0:0:0:0:
161,142,219270,1,8,0:0:0:0:
155,148,219623,1,8,0:0:0:0:
155,148,219976,1,0,0:0:0:0:
176,132,220329,1,0,0:0:0:0:
155,148,220505,1,0,0:0:0:0:
155,148,220682,1,8,0:0:0:0:
176,132,221035,1,8,0:0:0:0:
117,150,221211,1,0,0:0:0:0:
117,150,221299,1,0,0:0:0:0:
181,133,221388,1,0,0:0:0:0:
176,132,221564,1,8,0:0:0:0:
46,253,221741,1,0,0:0:0:0:
176,132,221917,1,8,0:0:0:0:
176,132,222093,1,0,0:0:0:0:
181,133,222446,1,0,0:0:0:0:
176,132,222799,1,8,0:0:0:0:
83,249,223682,1,0,0:0:0:0:
83,249,223858,1,0,0:0:0:0:
83,249,224035,1,8,0:0:0:0:
83,249,224211,1,8,0:0:0:0:
88,251,224564,1,8,0:0:0:0:
88,251,224741,1,8,0:0:0:0:
88,251,224917,1,0,0:0:0:0:
87,251,225270,1,0,0:0:0:0:
88,251,225623,1,8,0:0:0:0:
87,251,225976,1,8,0:0:0:0:
87,251,226152,1,0,0:0:0:0:
88,251,226329,1,0,0:0:0:0:
88,251,226682,1,8,0:0:0:0:
87,251,226770,1,8,0:0:0:0:
87,251,226858,1,8,0:0:0:0:
105,243,227035,1,0,0:0:0:0:
105,243,227388,1,8,0:0:0:0:
151,156,227564,1,8,0:0:0:0:
105,243,227741,1,0,0:0:0:0:
105,243,228093,1,8,0:0:0:0:
151,156,228270,1,0,0:0:0:0:
105,243,228446,1,0,0:0:0:0:
156,168,229152,5,0,0:0:0:0:
156,168,229329,1,8,0:0:0:0:
156,168,229505,1,0,0:0:0:0:
156,168,229682,1,8,0:0:0:0:
198,150,230037,5,12,0:0:0:0:
171,172,230213,1,0,0:0:0:0:
171,172,230389,1,8,0:0:0:0:
171,172,230742,1,8,0:0:0:0:
171,172,230919,1,0,0:0:0:0:
241,120,231272,1,0,0:0:0:0:
241,120,231448,1,8,0:0:0:0:
241,120,231801,1,8,0:0:0:0:
241,120,231978,1,8,0:0:0:0:
241,120,232331,5,8,0:0:0:0:
241,120,232507,1,0,0:0:0:0:
241,120,232860,1,0,0:0:0:0:
241,120,233037,1,8,0:0:0:0:
208,148,233213,1,0,0:0:0:0:
103,257,233565,1,8,0:0:0:0:
157,147,233918,1,0,0:0:0:0:
241,120,234271,1,8,0:0:0:0:
198,150,234624,1,12,0:0:0:0:
171,172,234800,1,0,0:0:0:0:
171,172,234976,1,8,0:0:0:0:
171,172,235329,1,8,0:0:0:0:
171,172,235506,1,0,0:0:0:0:
241,120,235859,1,0,0:0:0:0:
241,120,236035,1,8,0:0:0:0:
241,120,236388,1,8,0:0:0:0:
241,120,236565,1,8,0:0:0:0:
241,120,236918,5,8,0:0:0:0:
241,120,237094,1,0,0:0:0:0:
241,120,237447,1,0,0:0:0:0:
241,120,237624,1,8,0:0:0:0:
208,148,237800,1,0,0:0:0:0:
177,186,238152,1,0,0:0:0:0:
177,186,238329,1,0,0:0:0:0:
177,186,238505,1,0,0:0:0:0:
177,186,238682,1,0,0:0:0:0:
177,186,238858,1,8,0:0:0:0:
