osu file format v14

[General]
AudioFilename: audio.ogg
AudioLeadIn: 0
PreviewTime: 151173
Countdown: 0
SampleSet: Normal
StackLeniency: 0.7
Mode: 1
LetterboxInBreaks: 0
WidescreenStoryboard: 0

[Editor]
Bookmarks: 9300,18476,27652,36827,55532,66825,89060,98237,107413,116942,128236,150468,158938,158939,176583,176671,176759,176847,176935,177024,177112,177200,177288,177377,177465,177553,177641,177730,177818,177906,177994,178083,178171,178259,178347,178435,178524,178612,178700,178788,178877,178965,179053,179141,179230,179318,179406,179494,179583,180995,192288,202171,202259,202347,202435,202524,202612,202700,202788,202877,202965,203053,203141,203230,203318,203406,203494,203583,203671,203759,203847,203935,204024,204112,204200,204288,204377,204465,204553,204641,204995,230051
DistanceSpacing: 1.1
BeatDivisor: 4
GridSize: 4
TimelineZoom: 2.4

[Metadata]
Title:rooms__
TitleUnicode:rooms__
Artist:Maison book girl
ArtistUnicode:Maison book girl
Creator:_gt
Version:karappo__
Source:
Tags:japanese pop jpop j-pop idol 412 yume 夢 dream best album "fiction" 矢川葵 yagawa aoi 古正寺恵巳 コショージメグミ koshouji koshoji coshoji coshouji megumi 井上唯 inoue yui 和田輪 wada rin 空っぽ__
BeatmapID:3608200
BeatmapSetID:1762863

[Difficulty]
HPDrainRate:4.6
CircleSize:5
OverallDifficulty:6.4
ApproachRate:5
SliderMultiplier:1.4
SliderTickRate:1

[Events]
//Background and Video events
0,0,"89751717_p0 (2).jpg",0,100
//Break Periods
2,150665,157191
//Storyboard Layer 0 (Background)
//Storyboard Layer 1 (Fail)
//Storyboard Layer 2 (Pass)
//Storyboard Layer 3 (Foreground)
//Storyboard Layer 4 (Overlay)
//Storyboard Sound Samples

[TimingPoints]
-945,352.941176470588,3,1,0,50,1,8
-945,-20,3,1,0,50,0,0
113,352.941176470588,3,1,0,50,1,0
3289,352.941176470588,4,1,0,50,1,0
4700,352.941176470588,3,1,0,50,1,8
4701,352.941176470588,3,1,0,50,1,0
7877,352.941176470588,4,1,0,50,1,0
9288,352.941176470588,3,1,0,60,1,8
9289,352.941176470588,3,1,0,60,1,0
9465,-105.263157894737,3,1,0,60,0,0
9818,-100,3,1,0,60,0,0
9994,-105.263157894737,3,1,0,60,0,0
10347,-100,3,1,0,60,0,0
10502,-105.263157894737,3,1,0,60,0,0
10877,-100,3,1,0,60,0,0
11053,-105.263157894737,3,1,0,60,0,0
11406,-100,3,1,0,60,0,0
11561,-105.263157894737,3,1,0,60,0,0
11936,-100,3,1,0,60,0,0
12112,-105.263157894737,3,1,0,60,0,0
12465,352.941176470588,4,1,0,60,1,0
12641,-105.263157894737,4,1,0,60,0,0
13523,-100,4,1,0,60,0,0
13700,-105.263157894737,4,1,0,60,0,0
13876,352.941176470588,3,1,0,60,1,8
13877,352.941176470588,3,1,0,60,1,0
14053,-105.263157894737,3,1,0,60,0,0
14406,-100,3,1,0,60,0,0
14582,-105.263157894737,3,1,0,60,0,0
14935,-100,3,1,0,60,0,0
15090,-105.263157894737,3,1,0,60,0,0
15465,-100,3,1,0,60,0,0
15641,-105.263157894737,3,1,0,60,0,0
15994,-100,3,1,0,60,0,0
16149,-105.263157894737,3,1,0,60,0,0
16524,-100,3,1,0,60,0,0
16700,-105.263157894737,3,1,0,60,0,0
17053,352.941176470588,4,1,0,60,1,0
17229,-105.263157894737,4,1,0,60,0,0
18111,-100,4,1,0,60,0,0
18288,-105.263157894737,4,1,0,60,0,0
18464,352.941176470588,3,1,0,70,1,8
18465,352.941176470588,3,1,0,70,1,0
18641,-111.111111111111,3,1,0,70,0,0
18994,-100,3,1,0,70,0,0
19170,-111.111111111111,3,1,0,70,0,0
19523,-100,3,1,0,70,0,0
19678,-111.111111111111,3,1,0,70,0,0
20053,-100,3,1,0,70,0,0
20229,-111.111111111111,3,1,0,70,0,0
20582,-100,3,1,0,70,0,0
20737,-111.111111111111,3,1,0,70,0,0
21112,-100,3,1,0,70,0,0
21288,-111.111111111111,3,1,0,70,0,0
21641,352.941176470588,4,1,0,70,1,8
21642,352.941176470588,4,1,0,70,1,0
21796,-111.111111111111,4,1,0,70,0,0
22700,-100,4,1,0,70,0,0
22855,-111.111111111111,4,1,0,70,0,0
23053,352.941176470588,3,1,0,70,1,8
23054,352.941176470588,3,1,0,70,1,0
23230,-111.111111111111,3,1,0,70,0,0
23583,-100,3,1,0,70,0,0
23759,-111.111111111111,3,1,0,70,0,0
24112,-100,3,1,0,70,0,0
24267,-111.111111111111,3,1,0,70,0,0
24642,-100,3,1,0,70,0,0
24818,-111.111111111111,3,1,0,70,0,0
25171,-100,3,1,0,70,0,0
25326,-111.111111111111,3,1,0,70,0,0
25701,-100,3,1,0,70,0,0
25877,-111.111111111111,3,1,0,70,0,0
26230,352.941176470588,4,1,0,70,1,0
26406,-111.111111111111,4,1,0,70,0,0
27288,-100,4,1,0,70,0,0
27465,-111.111111111111,4,1,0,70,0,0
27641,352.941176470588,3,1,0,80,1,8
27642,352.941176470588,3,1,0,80,1,0
27642,-76.9230769230769,3,1,0,80,0,0
27818,-100.861937904414,3,1,0,80,0,0
27994,-101.731305178338,3,1,0,80,0,0
28171,-68.6162335892153,3,1,0,80,0,0
28347,-103.492584532882,3,1,0,80,0,0
28524,-104.384626347228,3,1,0,80,0,0
28700,-61.2064376556068,3,1,0,80,0,0
28877,-106.191842788566,3,1,0,80,0,0
29053,-107.107150532956,3,1,0,80,0,0
29230,-54.5968179034311,3,1,0,80,0,0
29406,-108.961502176504,3,1,0,80,0,0
29583,-109.900682664982,3,1,0,80,0,0
29759,-48.7009641363658,3,1,0,80,0,0
29936,-111.803398874989,3,1,0,80,0,0
30112,-112.767074748316,3,1,0,80,0,0
30289,-43.4417975056114,3,1,0,80,0,0
30465,-114.719416952894,3,1,0,80,0,0
30641,-115.708227091333,3,1,0,80,0,0
30818,352.941176470588,4,1,0,80,1,0
30818,-38.7505628273454,4,1,0,80,0,0
30994,-117.711489618729,4,1,0,80,0,0
31170,-118.726089565603,4,1,0,80,0,0
31347,-119.749434733997,4,1,0,80,0,0
31523,-120.78160050229,4,1,0,80,0,0
31700,-121.822662898577,4,1,0,80,0,0
31876,-30.8331908015507,4,1,0,80,0,0
32053,-123.931784969729,4,1,0,80,0,0
32141,-124.464746499626,4,1,0,80,0,0
32229,352.941176470588,3,1,0,80,1,8
32230,352.941176470588,3,1,0,80,1,0
32230,-76.9230769230769,3,1,0,80,0,0
32406,-100.861937904414,3,1,0,80,0,0
32582,-101.731305178338,3,1,0,80,0,0
32759,-68.6162335892153,3,1,0,80,0,0
32935,-103.492584532882,3,1,0,80,0,0
33112,-104.384626347228,3,1,0,80,0,0
33288,-61.2064376556068,3,1,0,80,0,0
33465,-106.191842788566,3,1,0,80,0,0
33641,-107.107150532956,3,1,0,80,0,0
33818,-54.5968179034311,3,1,0,80,0,0
33994,-108.961502176504,3,1,0,80,0,0
34171,-109.900682664982,3,1,0,80,0,0
34347,-48.7009641363658,3,1,0,80,0,0
34524,-111.803398874989,3,1,0,80,0,0
34700,-112.767074748316,3,1,0,80,0,0
34877,-43.4417975056114,3,1,0,80,0,0
35053,-114.719416952894,3,1,0,80,0,0
35230,-115.708227091333,3,1,0,80,0,0
35406,352.941176470588,4,1,0,80,1,0
35406,-38.7505628273454,4,1,0,80,0,0
35582,-117.711489618729,4,1,0,80,0,0
35670,-118.217701125397,4,1,0,80,0,0
35758,-118.726089565603,4,1,0,80,0,0
35935,-119.749434733997,4,1,0,80,0,0
36023,-120.264410306693,4,1,0,80,0,0
36111,-120.78160050229,4,1,0,80,0,0
36288,-121.822662898577,4,1,0,80,0,0
36464,-30.8331908015507,4,1,0,80,0,0
36641,-123.931784969729,4,1,0,80,0,0
36729,-124.464746499626,4,1,0,80,0,0
36817,352.941176470588,3,1,0,70,1,8
36818,352.941176470588,3,1,0,70,1,0
36818,-66.6666666666667,3,1,0,70,0,0
36994,-101.247402359611,3,1,0,70,0,0
37170,-102.51036484569,3,1,0,70,0,0
37347,-103.789081555621,3,1,0,70,0,0
37523,-105.083749007965,3,1,0,70,0,0
37700,-106.394566172658,3,1,0,70,0,0
37876,-107.721734501594,3,1,0,70,0,0
38053,-109.065457959581,3,1,0,70,0,0
38229,-110.42594305569,3,1,0,70,0,0
38406,-111.803398874989,3,1,0,70,0,0
38582,-113.198037110682,3,1,0,70,0,0
38759,-114.610072096634,3,1,0,70,0,0
38935,-116.039720840319,3,1,0,70,0,0
39112,-117.487203056168,3,1,0,70,0,0
39288,-118.952741199332,3,1,0,70,0,0
39465,-120.436560499875,3,1,0,70,0,0
39641,-121.938888997385,3,1,0,70,0,0
39818,-123.459957576022,3,1,0,70,0,0
39994,352.941176470588,4,1,0,70,1,8
39995,352.941176470588,4,1,0,70,1,0
39995,-125,4,1,0,70,0,0
40347,-90.9090909090909,4,1,0,70,0,0
41406,352.941176470588,3,1,0,70,1,8
41407,352.941176470588,3,1,0,70,1,0
41407,-66.6666666666667,3,1,0,70,0,0
41583,-126.450288869258,3,1,0,70,0,0
41759,-127.917404440951,3,1,0,70,0,0
41936,-129.401541943712,3,1,0,70,0,0
42112,-130.902898871278,3,1,0,70,0,0
42289,-132.421675008771,3,1,0,70,0,0
42465,-133.958072459281,3,1,0,70,0,0
42642,-135.512295670761,3,1,0,70,0,0
42818,-137.084551463232,3,1,0,70,0,0
42995,-138.675049056307,3,1,0,70,0,0
43171,-140.284000097029,3,1,0,70,0,0
43348,-141.911618688035,3,1,0,70,0,0
43524,-143.558121416048,3,1,0,70,0,0
43701,-145.223727380698,3,1,0,70,0,0
43877,-146.908658223678,3,1,0,70,0,0
44054,-148.613138158233,3,1,0,70,0,0
44230,-150.337393999005,3,1,0,70,0,0
44407,-152.081655192205,3,1,0,70,0,0
44583,352.941176470588,4,1,0,70,1,0
44583,-153.846153846154,4,1,0,70,0,0
44935,-90.9090909090909,4,1,0,70,0,0
45994,352.941176470588,3,1,0,70,1,8
45995,352.941176470588,3,1,0,70,1,0
45995,-66.6666666666667,3,1,0,70,0,0
46171,-155.60048566636,3,1,0,70,0,0
46347,-157.374822407446,3,1,0,70,0,0
46524,-159.169392188662,3,1,0,70,0,0
46700,-160.984425730538,3,1,0,70,0,0
46877,-162.820156384546,3,1,0,70,0,0
47053,-164.676820163102,3,1,0,70,0,0
47230,-166.554655769908,3,1,0,70,0,0
47406,-168.453904630642,3,1,0,70,0,0
47583,-170.374810923996,3,1,0,70,0,0
47759,-172.317621613072,3,1,0,70,0,0
47936,-174.282586477129,3,1,0,70,0,0
48112,-176.269958143699,3,1,0,70,0,0
48289,-178.279992121065,3,1,0,70,0,0
48465,-180.312946831112,3,1,0,70,0,0
48642,-182.369083642548,3,1,0,70,0,0
48818,-184.448666904511,3,1,0,70,0,0
48995,-186.551963980554,3,1,0,70,0,0
49171,352.941176470588,4,1,0,70,1,0
49171,-188.679245283019,4,1,0,70,0,0
49523,-90.9090909090909,4,1,0,70,0,0
50582,352.941176470588,3,1,0,70,1,8
50583,352.941176470588,3,1,0,70,1,0
50583,-66.6666666666667,3,1,0,70,0,0
50759,-191.38951025043,3,1,0,70,0,0
50935,-194.138706559666,3,1,0,70,0,0
51112,-196.927393436264,3,1,0,70,0,0
51288,-199.756138138699,3,1,0,70,0,0
51465,-202.625516073779,3,1,0,70,0,0
51641,-205.536110913685,3,1,0,70,0,0
51818,-208.488514714706,3,1,0,70,0,0
51994,-211.483328037661,3,1,0,70,0,0
52171,-214.521160070072,3,1,0,70,0,0
52347,-217.602628750075,3,1,0,70,0,0
52524,-220.728360892119,3,1,0,70,0,0
52700,-223.898992314471,3,1,0,70,0,0
52877,-227.115167968546,3,1,0,70,0,0
53053,-230.377542070103,3,1,0,70,0,0
53230,-233.686778232322,3,1,0,70,0,0
53406,-237.04354960079,3,1,0,70,0,0
53583,-240.448538990429,3,1,0,70,0,0
53759,352.941176470588,5,1,0,70,1,8
53760,352.941176470588,5,1,0,70,1,0
53760,-243.90243902439,5,1,0,70,0,8
54112,-90.9090909090909,5,1,0,70,0,8
55524,352.941176470588,4,1,0,70,1,0
55524,-66.6666666666667,4,1,0,70,0,0
55612,-100,4,1,0,70,0,0
61169,-66.6666666666667,3,1,0,70,0,0
61345,-100,3,1,0,70,0,0
66818,-66.6666666666667,4,1,0,100,0,1
66906,-90.9090909090909,4,1,0,100,0,1
70876,-90.9090909090909,4,1,0,100,0,0
71053,352.941176470588,3,1,0,20,1,8
71758,-10000,3,1,0,70,0,8
72111,352.941176470588,4,1,0,100,1,9
72112,352.941176470588,4,1,0,100,1,1
72112,-66.6666666666667,4,1,0,100,0,1
72200,-90.9090909090909,4,1,0,100,0,1
76170,-90.9090909090909,4,1,0,100,0,0
76347,352.941176470588,5,1,0,20,1,8
77405,-10000,5,1,0,70,0,8
77759,352.941176470588,4,1,0,100,1,1
77759,-66.6666666666667,4,1,0,100,0,1
77847,-90.9090909090909,4,1,0,100,0,1
82347,-33.3333333333333,4,1,0,70,0,1
82700,-90.9090909090909,4,1,0,100,0,1
87464,-90.9090909090909,4,1,0,70,0,0
87641,-100,4,1,0,70,0,0
89053,352.941176470588,3,1,0,80,1,0
89053,-76.9230769230769,3,1,0,80,0,0
89229,-100.861937904414,3,1,0,80,0,0
89405,-101.731305178338,3,1,0,80,0,0
89582,-68.6162335892153,3,1,0,80,0,0
89758,-103.492584532882,3,1,0,80,0,0
89935,-104.384626347228,3,1,0,80,0,0
90111,-61.2064376556068,3,1,0,80,0,0
90288,-106.191842788566,3,1,0,80,0,0
90464,-107.107150532956,3,1,0,80,0,0
90641,-54.5968179034311,3,1,0,80,0,0
90817,-108.961502176504,3,1,0,80,0,0
90994,-109.900682664982,3,1,0,80,0,0
91170,-48.7009641363658,3,1,0,80,0,0
91347,-111.803398874989,3,1,0,80,0,0
91523,-112.767074748316,3,1,0,80,0,0
91700,-43.4417975056114,3,1,0,80,0,0
91876,-114.719416952894,3,1,0,80,0,0
92053,-115.708227091333,3,1,0,80,0,0
92229,352.941176470588,4,1,0,80,1,0
92229,-38.7505628273454,4,1,0,80,0,0
92405,-117.711489618729,4,1,0,80,0,0
92581,-118.726089565603,4,1,0,80,0,0
92758,-119.749434733997,4,1,0,80,0,0
92934,-120.78160050229,4,1,0,80,0,0
93111,-121.822662898577,4,1,0,80,0,0
93287,-30.8331908015507,4,1,0,80,0,0
93464,-123.931784969729,4,1,0,80,0,0
93552,-124.464746499626,4,1,0,80,0,0
93640,352.941176470588,3,1,0,80,1,8
93642,352.941176470588,3,1,0,80,1,0
93642,-76.9230769230769,3,1,0,80,0,0
93818,-100.861937904414,3,1,0,80,0,0
93994,-101.731305178338,3,1,0,80,0,0
94171,-68.6162335892153,3,1,0,80,0,0
94347,-103.492584532882,3,1,0,80,0,0
94524,-104.384626347228,3,1,0,80,0,0
94700,-61.2064376556068,3,1,0,80,0,0
94877,-106.191842788566,3,1,0,80,0,0
95053,-107.107150532956,3,1,0,80,0,0
95230,-54.5968179034311,3,1,0,80,0,0
95406,-108.961502176504,3,1,0,80,0,0
95583,-109.900682664982,3,1,0,80,0,0
95759,-48.7009641363658,3,1,0,80,0,0
95936,-111.803398874989,3,1,0,80,0,0
96112,-112.767074748316,3,1,0,80,0,0
96267,-43.4417975056114,3,1,0,80,0,0
96465,-114.719416952894,3,1,0,80,0,0
96642,-115.708227091333,3,1,0,80,0,0
96818,352.941176470588,4,1,0,80,1,0
96818,-38.7505628273454,4,1,0,80,0,0
96994,-117.711489618729,4,1,0,80,0,0
97170,-118.726089565603,4,1,0,80,0,0
97347,-119.749434733997,4,1,0,80,0,0
97523,-120.78160050229,4,1,0,80,0,0
97612,-121.301014844646,4,1,0,80,0,0
97700,-121.822662898577,4,1,0,80,0,0
97876,-30.8331908015507,4,1,0,80,0,0
98053,-123.931784969729,4,1,0,80,0,0
98141,-124.464746499626,4,1,0,80,0,0
98229,352.941176470588,3,1,0,70,1,8
98230,352.941176470588,3,1,0,70,1,0
98230,-125,3,1,0,70,0,0
101406,352.941176470588,4,1,0,70,1,0
101406,-125,4,1,0,70,0,0
101758,-90.9090909090909,4,1,0,70,0,0
102817,352.941176470588,3,1,0,70,1,8
102818,352.941176470588,3,1,0,70,1,0
102818,-125,3,1,0,70,0,0
105994,352.941176470588,4,1,0,70,1,8
105995,352.941176470588,4,1,0,70,1,0
105995,-125,4,1,0,70,0,0
106347,-90.9090909090909,4,1,0,70,0,0
107406,352.941176470588,3,1,0,70,1,8
107407,352.941176470588,3,1,0,70,1,0
107407,-66.6666666666667,3,1,0,70,0,0
107583,-170.463576970046,3,1,0,70,0,0
107759,-174.346986440536,3,1,0,70,0,0
107936,-178.31886565561,3,1,0,70,0,0
108112,-182.381230085378,3,1,0,70,0,0
108289,-186.536141115303,3,1,0,70,0,0
108465,-190.785707092222,3,1,0,70,0,0
108642,-195.132084394197,3,1,0,70,0,0
108818,-199.577478524734,3,1,0,70,0,0
108995,-204.124145231931,3,1,0,70,0,0
109171,-208.774391653129,3,1,0,70,0,0
109348,-213.530577485625,3,1,0,70,0,0
109524,-218.395116184075,3,1,0,70,0,0
109701,-223.370476185156,3,1,0,70,0,0
109877,-228.459182160145,3,1,0,70,0,0
110054,-233.663816296017,3,1,0,70,0,0
110230,-238.987019605744,3,1,0,70,0,0
110407,-244.431493268433,3,1,0,70,0,0
110583,352.941176470588,4,1,0,70,1,0
110583,-250,4,1,0,70,0,0
110935,-90.9090909090909,4,1,0,70,0,0
111994,352.941176470588,3,1,0,70,1,8
111995,352.941176470588,3,1,0,70,1,0
111995,-66.6666666666667,3,1,0,70,0,0
112171,-256.613799912761,3,1,0,70,0,0
112347,-263.402569222666,3,1,0,70,0,0
112524,-270.37093678005,3,1,0,70,0,0
112700,-277.523653892406,3,1,0,70,0,0
112877,-284.865597564017,3,1,0,70,0,0
113053,-292.401773821287,3,1,0,70,0,0
113230,-300.137321126048,3,1,0,70,0,0
113406,-308.077513879167,3,1,0,70,0,0
113583,-316.227766016838,3,1,0,70,0,0
113759,-324.593634702017,3,1,0,70,0,0
113914,-333.180824113517,3,1,0,70,0,0
114112,-341.995189335339,3,1,0,70,0,0
114267,-351.042740348902,3,1,0,70,0,0
114465,-360.329646130882,3,1,0,70,0,0
114620,-369.862238859465,3,1,0,70,0,0
114818,-379.647018231874,3,1,0,70,0,0
114995,-389.690655896122,3,1,0,70,0,0
115171,352.941176470588,5,1,0,70,1,0
115171,-400,5,1,0,70,0,0
115523,-90.9090909090909,5,1,0,70,0,0
116935,352.941176470588,4,1,0,70,1,8
116936,352.941176470588,4,1,0,70,1,0
116936,-66.6666666666667,4,1,0,70,0,0
117112,-100,4,1,0,70,0,0
122581,-66.6666666666667,4,1,0,70,0,0
122757,-100,4,1,0,70,0,0
127875,-33.3333333333333,4,1,0,70,0,0
128230,-66.6666666666667,4,1,0,100,0,1
128406,-90.9090909090909,4,1,0,100,0,1
132288,-90.9090909090909,4,1,0,100,0,0
132465,352.941176470588,6,1,0,20,1,8
133876,-10000,6,1,0,70,0,8
134230,352.941176470588,4,1,0,100,1,1
134230,-44.4444444444445,4,1,0,100,0,1
134318,-90.9090909090909,4,1,0,100,0,1
138288,-90.9090909090909,4,1,0,100,0,0
138465,352.941176470588,6,1,0,20,1,8
140229,-10000,6,1,0,70,0,8
140582,352.941176470588,4,1,0,100,1,8
140583,352.941176470588,4,1,0,100,1,1
140583,-44.4444444444445,4,1,0,100,0,1
140671,-90.9090909090909,4,1,0,100,0,1
145171,-33.3333333333333,4,1,0,100,0,1
145524,-90.9090909090909,4,1,0,100,0,1
150465,352.941176470588,69,1,0,100,1,0
150465,-66.6666666666667,69,1,0,100,0,0
150553,-66.6666666666667,69,1,0,5,0,0
158141,-100,69,1,0,70,0,0
158391,352.941176470588,69,1,0,70,1,8
158921,352.941176470588,3,1,0,90,1,0
158921,-66.6666666666667,3,1,0,90,0,0
159097,-100.89656952704,3,1,0,90,0,0
159273,-101.801177423248,3,1,0,90,0,0
159450,-61.3458433749917,3,1,0,90,0,0
159626,-103.634797247596,3,1,0,90,0,0
159803,-104.563955259127,3,1,0,90,0,0
159979,-56.4496874908351,3,1,0,90,0,0
160156,-106.44733761411,3,1,0,90,0,0
160332,-107.401712005503,3,1,0,90,0,0
160509,-51.9443053107,3,1,0,90,0,0
160685,-109.336207394328,3,1,0,90,0,0
160862,-110.316482511846,3,1,0,90,0,0
161038,-47.7985082671942,3,1,0,90,0,0
161215,-112.303478088971,3,1,0,90,0,0
161391,-113.310356851323,3,1,0,90,0,0
161568,-43.9835970257631,3,1,0,90,0,0
161744,-115.35127741713,3,1,0,90,0,0
161920,-116.385481819503,3,1,0,90,0,0
162097,352.941176470588,4,1,0,90,1,0
162097,-40.4731628131682,4,1,0,90,0,8
162273,-118.481790841974,4,1,0,90,0,8
162449,-119.544062473755,4,1,0,90,0,8
162626,-120.61585810928,4,1,0,90,0,8
162802,-121.697263137865,4,1,0,90,0,8
162979,-35.2339346853793,4,1,0,90,0,8
163155,-123.889246766215,4,1,0,90,0,8
163333,352.941176470588,3,1,0,90,1,0
163333,-66.6666666666667,3,1,0,90,0,0
163509,-102.064320832476,3,1,0,90,0,0
163685,-104.171255869945,3,1,0,90,0,0
163862,-57.6983364087407,3,1,0,90,0,0
164038,-108.516505495217,3,1,0,90,0,0
164215,-110.756634324829,3,1,0,90,0,0
164391,-49.9364703650431,3,1,0,90,0,0
164568,-115.376576935457,3,1,0,90,0,0
164744,-117.758319648934,3,1,0,90,0,0
164921,-43.2187689928105,3,1,0,90,0,0
165097,-122.670320469639,3,1,0,90,0,0
165274,-125.202629450358,3,1,0,90,0,0
165450,-37.4047660877825,3,1,0,90,0,0
165627,-130.425151480633,3,1,0,90,0,0
165803,-133.117545053435,3,1,0,90,0,0
165980,-32.3728916553469,3,1,0,90,0,0
166156,-138.670218465404,3,1,0,90,0,0
166332,-141.532816673625,3,1,0,90,0,0
166509,352.941176470588,4,1,0,90,1,0
166509,-28.0179298988088,4,1,0,90,0,8
166685,-147.436512597023,4,1,0,90,0,8
166861,-150.480075241239,4,1,0,90,0,8
167038,-153.586466783169,4,1,0,90,0,8
167214,-156.756984212838,4,1,0,90,0,8
167391,-22.0221793524936,4,1,0,90,0,8
167567,-163.295719118365,4,1,0,90,0,8
167745,352.941176470588,3,1,0,90,1,0
167745,-66.6666666666667,3,1,0,90,0,0
167921,-103.733158192915,3,1,0,90,0,0
168097,-107.605681086763,3,1,0,90,0,0
168274,-54.5341933499111,3,1,0,90,0,0
168450,-115.789826021461,3,1,0,90,0,0
168627,-120.112443398143,3,1,0,90,0,0
168803,-44.6096736648823,3,1,0,90,0,0
168980,-129.247812788524,3,1,0,90,0,0
169156,-134.072838100802,3,1,0,90,0,0
169333,-36.4912885337569,3,1,0,90,0,0
169509,-144.269990590721,3,1,0,90,0,0
169686,-149.655817564376,3,1,0,90,0,0
169862,-29.8503447673094,3,1,0,90,0,0
170039,-161.03816177611,3,1,0,90,0,0
170215,-167.049971106175,3,1,0,90,0,0
170392,-24.4179670965294,3,1,0,90,0,0
170568,-179.75525916404,3,1,0,90,0,0
170744,-186.465807348717,3,1,0,90,0,0
170921,352.941176470588,4,1,0,90,1,0
170921,-19.9742120828085,4,1,0,90,0,8
171097,-200.647801991518,4,1,0,90,0,8
171273,-208.138301850468,4,1,0,90,0,8
171450,-215.908433918593,4,1,0,90,0,8
171626,-223.968637308619,4,1,0,90,0,8
171803,-14.291239954969,4,1,0,90,0,8
171979,-241.002977596681,4,1,0,90,0,8
172156,352.941176470588,3,1,0,90,1,0
172156,-66.6666666666667,3,1,0,90,0,0
172332,-106.649494220837,3,1,0,90,0,0
172508,-113.741146175603,3,1,0,90,0,0
172685,-53.0932966249228,3,1,0,90,0,0
172861,-129.370483333399,3,1,0,90,0,0
173038,-137.972966146121,3,1,0,90,0,0
173214,-42.2834721975305,3,1,0,90,0,0
173391,-156.932033107075,3,1,0,90,0,0
173567,-167.367219579172,3,1,0,90,0,0
173744,-33.6745339757275,3,1,0,90,0,0
173920,-190.365393871588,3,1,0,90,0,0
174097,-203.023729735552,3,1,0,90,0,0
174273,-26.8183803161901,3,1,0,90,0,0
174450,-230.921517209675,3,1,0,90,0,0
174626,-246.276630151201,3,1,0,90,0,0
174803,-21.358143316912,3,1,0,90,0,0
174979,-280.117861896627,3,1,0,90,0,0
175155,-298.744282934974,3,1,0,90,0,0
175332,352.941176470588,4,1,0,90,1,8
175333,352.941176470588,4,1,0,90,1,0
175333,-17.0096135772363,4,1,0,90,0,8
175509,-339.795171544326,4,1,0,90,0,8
175685,-362.389831838848,4,1,0,90,0,8
175862,-386.486922763872,4,1,0,90,0,8
176038,-412.186348357345,4,1,0,90,0,8
176215,-11.638920434032,4,1,0,90,0,8
176391,-468.825477001008,4,1,0,90,0,8
176568,352.941176470588,10,1,0,100,1,1
176568,-1250,1,1,0,100,0,1
176569,-10,1,1,0,100,0,1
176920,-1250,1,1,0,100,0,1
179567,352.941176470588,4,1,0,70,1,0
179567,-500,4,1,0,70,0,0
180625,-10000,4,1,0,70,0,0
180978,-100,4,1,0,70,0,0
185214,-111.111111111111,4,1,0,70,0,0
186625,-100,4,1,0,70,0,0
190861,-111.111111111111,4,1,0,70,0,0
192272,-100,4,1,0,70,0,0
196861,-76.9230769230769,4,1,0,70,0,0
197214,-125,4,1,0,70,0,0
197919,-125,4,1,0,85,0,0
198095,-114.934160242366,4,1,0,85,0,0
198272,-105.678889524943,4,1,0,85,0,0
198448,-97.168915383161,4,1,0,85,0,0
198625,-89.3442215298011,4,1,0,85,0,0
198801,-82.149624592285,4,1,0,85,0,0
198978,-75.5343849339192,4,1,0,85,0,0
199154,-69.4518488144291,4,1,0,85,0,0
199331,-63.8591193661294,4,1,0,85,0,0
199507,-58.7167540653048,4,1,0,85,0,0
199684,-53.9884865652268,4,1,0,85,0,0
199860,-49.6409709290449,4,1,0,85,0,0
200037,-45.6435464587638,4,1,0,85,0,0
200213,-41.9680214617716,4,1,0,85,0,0
200390,-38.5884744299385,4,1,0,85,0,0
200566,-35.481071229112,4,1,0,85,0,0
200743,-32.6238970097405,4,1,0,85,0,0
200919,-29.9968016531837,4,1,0,85,0,0
201096,-27.5812576637239,4,1,0,85,0,0
201272,-25.3602295040675,4,1,0,85,0,0
201449,-23.3180534528294,4,1,0,85,0,0
201625,-21.4403271367004,4,1,0,85,0,0
201802,-19.7138079582262,4,1,0,85,0,0
201978,-18.126319702864,4,1,0,85,0,0
202155,-100,4,1,0,70,0,0
204625,-10000,4,1,0,70,0,0
204978,-66.6666666666667,4,1,0,100,0,1
205066,-90.9090909090909,4,1,0,100,0,1
209037,-90.9090909090909,4,1,0,100,0,0
209214,352.941176470588,7,1,0,20,1,8
211331,-10000,7,1,0,70,0,8
211683,352.941176470588,4,1,0,100,1,1
211683,-33.3333333333333,4,1,0,100,0,1
211793,-90.9090909090909,4,1,0,100,0,1
215741,-90.9090909090909,4,1,0,100,0,0
215918,352.941176470588,8,1,0,20,1,8
218388,-10000,8,1,0,70,0,8
218741,352.941176470588,4,1,0,100,1,1
218741,-33.3333333333333,4,1,0,100,0,1
218851,-90.9090909090909,4,1,0,100,0,1
223329,-33.3333333333333,4,1,0,100,0,1
223682,-90.9090909090909,4,1,0,100,0,1
228446,-90.9090909090909,4,1,0,70,0,0
228623,-100,4,1,0,70,0,0
230035,352.941176470588,3,1,0,80,1,8
230037,352.941176470588,3,1,0,80,1,0
230037,-76.9230769230769,3,1,0,80,0,0
230213,-100.861937904414,3,1,0,80,0,0
230389,-101.731305178338,3,1,0,80,0,0
230566,-68.6162335892153,3,1,0,80,0,0
230742,-103.492584532882,3,1,0,80,0,0
230919,-104.384626347228,3,1,0,80,0,0
231095,-61.2064376556068,3,1,0,80,0,0
231272,-106.191842788566,3,1,0,80,0,0
231448,-107.107150532956,3,1,0,80,0,0
231625,-54.5968179034311,3,1,0,80,0,0
231801,-108.961502176504,3,1,0,80,0,0
231978,-109.900682664982,3,1,0,80,0,0
232154,-48.7009641363658,3,1,0,80,0,0
232331,-111.803398874989,3,1,0,80,0,0
232507,-112.767074748316,3,1,0,80,0,0
232684,-43.4417975056114,3,1,0,80,0,0
232860,-114.719416952894,3,1,0,80,0,0
233036,-115.708227091333,3,1,0,80,0,0
233213,352.941176470588,4,1,0,80,1,0
233213,-38.7505628273454,4,1,0,80,0,8
233389,-117.711489618729,4,1,0,80,0,8
233565,-118.726089565603,4,1,0,80,0,8
233742,-119.749434733997,4,1,0,80,0,8
233918,-120.78160050229,4,1,0,80,0,8
234095,-121.822662898577,4,1,0,80,0,8
234271,-30.8331908015507,4,1,0,80,0,8
234448,-123.931784969729,4,1,0,80,0,8
234536,-124.464746499626,4,1,0,80,0,8
234624,352.941176470588,3,1,0,80,1,0
234624,-76.9230769230769,3,1,0,80,0,0
234800,-100.861937904414,3,1,0,80,0,0
234976,-101.731305178338,3,1,0,80,0,0
235153,-68.6162335892153,3,1,0,80,0,0
235329,-103.492584532882,3,1,0,80,0,0
235506,-104.384626347228,3,1,0,80,0,0
235682,-61.2064376556068,3,1,0,80,0,0
235859,-106.191842788566,3,1,0,80,0,0
236035,-107.107150532956,3,1,0,80,0,0
236212,-54.5968179034311,3,1,0,80,0,0
236388,-108.961502176504,3,1,0,80,0,0
236565,-109.900682664982,3,1,0,80,0,0
236741,-48.7009641363658,3,1,0,80,0,0
236918,-111.803398874989,3,1,0,80,0,0
237094,-112.767074748316,3,1,0,80,0,0
237271,-43.4417975056114,3,1,0,80,0,0
237447,-114.719416952894,3,1,0,80,0,0
237623,-115.708227091333,3,1,0,80,0,0
237800,352.941176470588,4,1,0,80,1,0
237800,-38.7505628273454,4,1,0,80,0,8
237955,-117.711489618729,4,1,0,80,0,8
238131,-66.6666666666667,4,1,0,100,0,8
238837,-27.2575892289557,4,1,0,100,0,8

[HitObjects]
146,215,113,5,0,1:0:0:0:
146,215,642,1,0,1:0:0:0:
146,215,1171,1,0,1:0:0:0:
146,215,1701,1,0,1:0:0:0:
146,215,2230,1,0,1:0:0:0:
146,215,2760,1,0,1:0:0:0:
146,215,3289,1,0,1:0:0:0:
146,215,4347,1,0,1:0:0:0:
146,215,4701,1,0,1:0:0:0:
146,215,5230,1,0,1:0:0:0:
146,215,5759,1,0,1:0:0:0:
146,215,6289,1,0,1:0:0:0:
146,215,6818,1,0,1:0:0:0:
146,215,7348,1,0,1:0:0:0:
146,215,7877,1,0,1:0:0:0:
146,215,8935,1,0,1:0:0:0:
181,189,9289,1,0,1:0:0:0:
185,182,9465,1,0,1:0:0:0:
185,182,9641,1,8,1:0:0:0:
181,189,9818,1,0,1:0:0:0:
185,182,9994,1,8,1:0:0:0:
185,182,10171,1,0,1:0:0:0:
181,189,10347,1,0,1:0:0:0:
185,182,10524,1,0,1:0:0:0:
185,182,10700,1,8,1:0:0:0:
181,189,10877,1,0,1:0:0:0:
185,182,11053,1,8,1:0:0:0:
185,182,11230,1,8,1:0:0:0:
181,189,11406,1,0,1:0:0:0:
185,182,11583,1,8,1:0:0:0:
185,182,11759,1,0,1:0:0:0:
140,167,11936,1,0,1:0:0:0:
185,182,12112,1,0,1:0:0:0:
181,180,12288,1,8,1:0:0:0:
140,167,12465,1,0,1:0:0:0:
185,182,12641,1,8,1:0:0:0:
185,182,12817,1,0,1:0:0:0:
180,178,12994,1,8,1:0:0:0:
180,178,13170,1,0,1:0:0:0:
181,180,13347,1,0,1:0:0:0:
140,167,13523,1,0,1:0:0:0:
181,189,13877,1,0,1:0:0:0:
185,182,14053,1,0,1:0:0:0:
185,182,14229,1,8,1:0:0:0:
181,189,14406,1,0,1:0:0:0:
185,182,14582,1,8,1:0:0:0:
185,182,14759,1,0,1:0:0:0:
181,189,14935,1,0,1:0:0:0:
185,182,15112,1,0,1:0:0:0:
185,182,15288,1,8,1:0:0:0:
181,189,15465,1,0,1:0:0:0:
185,182,15641,1,8,1:0:0:0:
185,182,15818,1,8,1:0:0:0:
181,189,15994,1,0,1:0:0:0:
185,182,16171,1,8,1:0:0:0:
185,182,16347,1,0,1:0:0:0:
140,167,16524,1,0,1:0:0:0:
185,182,16700,1,0,1:0:0:0:
181,180,16876,1,8,1:0:0:0:
140,167,17053,1,0,1:0:0:0:
185,182,17229,1,8,1:0:0:0:
185,182,17405,1,0,1:0:0:0:
180,178,17582,1,8,1:0:0:0:
180,178,17758,1,0,1:0:0:0:
181,180,17935,1,0,1:0:0:0:
140,167,18111,1,0,1:0:0:0:
181,189,18465,1,4,1:0:0:0:
185,182,18641,1,0,1:0:0:0:
185,182,18817,1,8,1:0:0:0:
181,189,18994,1,4,1:0:0:0:
185,182,19170,1,8,1:0:0:0:
185,182,19347,1,0,1:0:0:0:
181,189,19523,1,4,1:0:0:0:
185,182,19700,1,0,1:0:0:0:
185,182,19876,1,8,1:0:0:0:
181,189,20053,1,4,1:0:0:0:
185,182,20229,1,8,1:0:0:0:
185,182,20406,1,8,1:0:0:0:
181,189,20582,1,4,1:0:0:0:
185,182,20759,1,8,1:0:0:0:
185,182,20935,1,0,1:0:0:0:
140,167,21112,1,4,1:0:0:0:
185,182,21288,1,0,1:0:0:0:
181,180,21464,1,8,1:0:0:0:
140,167,21642,1,4,1:0:0:0:
185,182,21818,1,8,1:0:0:0:
185,182,21994,1,0,1:0:0:0:
180,178,22171,1,8,1:0:0:0:
180,178,22347,1,0,1:0:0:0:
181,180,22524,1,0,1:0:0:0:
140,167,22700,1,4,1:0:0:0:
181,189,23054,1,4,1:0:0:0:
185,182,23230,1,0,1:0:0:0:
185,182,23406,1,8,1:0:0:0:
181,189,23583,1,4,1:0:0:0:
185,182,23759,1,8,1:0:0:0:
185,182,23936,1,0,1:0:0:0:
181,189,24112,1,4,1:0:0:0:
185,182,24289,1,0,1:0:0:0:
185,182,24465,1,8,1:0:0:0:
181,189,24642,1,4,1:0:0:0:
185,182,24818,1,8,1:0:0:0:
185,182,24995,1,8,1:0:0:0:
181,189,25171,1,4,1:0:0:0:
185,182,25348,1,8,1:0:0:0:
185,182,25524,1,0,1:0:0:0:
140,167,25701,1,4,1:0:0:0:
185,182,25877,1,0,1:0:0:0:
181,180,26053,1,8,1:0:0:0:
140,167,26230,1,4,1:0:0:0:
185,182,26406,1,8,1:0:0:0:
185,182,26582,1,0,1:0:0:0:
180,178,26759,1,8,1:0:0:0:
180,178,26935,1,0,1:0:0:0:
181,180,27112,1,0,1:0:0:0:
140,167,27288,1,4,1:0:0:0:
181,189,27642,1,12,1:0:0:0:
185,182,27818,1,0,1:0:0:0:
185,182,27994,1,8,1:0:0:0:
181,189,28171,1,4,1:0:0:0:
185,182,28347,1,8,1:0:0:0:
185,182,28524,1,0,1:0:0:0:
181,189,28700,1,4,1:0:0:0:
185,182,28877,1,0,1:0:0:0:
185,182,29053,1,8,1:0:0:0:
181,189,29230,1,4,1:0:0:0:
185,182,29406,1,8,1:0:0:0:
185,182,29583,1,8,1:0:0:0:
181,189,29759,1,4,1:0:0:0:
185,182,29936,1,8,1:0:0:0:
185,182,30112,1,0,1:0:0:0:
140,167,30289,1,4,1:0:0:0:
185,182,30465,1,0,1:0:0:0:
181,180,30641,1,8,1:0:0:0:
140,167,30818,1,4,1:0:0:0:
185,182,30994,1,8,1:0:0:0:
185,182,31170,1,0,1:0:0:0:
180,178,31347,1,8,1:0:0:0:
180,178,31523,1,0,1:0:0:0:
181,180,31700,1,0,1:0:0:0:
140,167,31876,1,4,1:0:0:0:
197,190,32053,1,0,1:0:0:0:
197,190,32141,1,0,1:0:0:0:
153,188,32230,1,12,1:0:0:0:
185,182,32406,1,0,1:0:0:0:
185,182,32582,1,8,1:0:0:0:
181,189,32759,1,4,1:0:0:0:
185,182,32935,1,8,1:0:0:0:
185,182,33112,1,0,1:0:0:0:
181,189,33288,1,4,1:0:0:0:
185,182,33465,1,0,1:0:0:0:
185,182,33641,1,8,1:0:0:0:
181,189,33818,1,4,1:0:0:0:
185,182,33994,1,8,1:0:0:0:
185,182,34171,1,8,1:0:0:0:
181,189,34347,1,4,1:0:0:0:
185,182,34524,1,8,1:0:0:0:
185,182,34700,1,0,1:0:0:0:
140,167,34877,1,4,1:0:0:0:
185,182,35053,1,0,1:0:0:0:
181,180,35230,1,8,1:0:0:0:
140,167,35406,1,4,1:0:0:0:
297,182,35582,1,0,1:0:0:0:
297,182,35670,1,0,1:0:0:0:
297,182,35758,1,8,1:0:0:0:
297,182,35935,1,0,1:0:0:0:
297,182,36023,1,0,1:0:0:0:
297,182,36111,1,8,1:0:0:0:
181,180,36288,1,0,1:0:0:0:
140,167,36464,1,4,1:0:0:0:
197,190,36641,1,0,1:0:0:0:
197,190,36729,1,0,1:0:0:0:
210,178,36818,1,12,1:0:0:0:
315,230,36994,1,0,1:0:0:0:
315,230,37170,1,8,1:0:0:0:
315,230,37347,1,0,1:0:0:0:
315,230,37523,1,0,1:0:0:0:
315,230,37700,1,0,1:0:0:0:
315,230,37876,1,8,1:0:0:0:
315,230,38406,1,8,1:0:0:0:
315,230,38759,1,8,1:0:0:0:
315,230,38935,1,0,1:0:0:0:
315,230,39112,1,0,1:0:0:0:
315,230,39288,1,0,1:0:0:0:
315,230,39465,1,8,1:0:0:0:
315,230,39818,1,8,1:0:0:0:
315,230,39995,1,0,1:0:0:0:
196,200,40347,1,8,1:0:0:0:
196,200,40524,1,0,1:0:0:0:
196,200,40700,1,8,1:0:0:0:
196,200,40877,1,0,1:0:0:0:
196,200,41053,1,8,1:0:0:0:
196,200,41230,1,0,1:0:0:0:
182,115,41407,1,12,1:0:0:0:
150,260,41583,1,0,1:0:0:0:
150,260,41759,1,0,1:0:0:0:
150,260,41936,1,8,1:0:0:0:
150,260,42112,1,0,1:0:0:0:
150,260,42289,1,0,1:0:0:0:
150,260,42465,1,8,1:0:0:0:
150,260,42995,1,8,1:0:0:0:
150,260,43348,1,8,1:0:0:0:
150,260,43524,1,0,1:0:0:0:
150,260,43877,1,8,1:0:0:0:
150,260,44054,1,8,1:0:0:0:
150,260,44407,1,8,1:0:0:0:
150,260,44583,1,0,1:0:0:0:
214,207,44935,1,8,1:0:0:0:
214,207,45112,1,0,1:0:0:0:
214,207,45288,1,8,1:0:0:0:
214,207,45465,1,0,1:0:0:0:
214,207,45641,1,8,1:0:0:0:
214,207,45730,1,0,1:0:0:0:
214,207,45818,1,0,1:0:0:0:
218,135,45906,1,0,1:0:0:0:
227,155,45995,1,12,1:0:0:0:
265,189,46347,1,0,1:0:0:0:
243,177,46524,1,0,1:0:0:0:
265,189,46877,1,0,1:0:0:0:
265,189,47053,1,8,1:0:0:0:
243,177,47583,1,8,1:0:0:0:
243,177,47936,1,8,1:0:0:0:
243,177,48112,1,0,1:0:0:0:
243,177,48289,1,0,1:0:0:0:
243,177,48465,1,0,1:0:0:0:
243,177,48642,1,0,1:0:0:0:
243,177,48995,1,8,1:0:0:0:
243,177,49171,1,0,1:0:0:0:
243,177,49523,1,8,1:0:0:0:
243,177,49700,1,0,1:0:0:0:
243,177,49876,1,8,1:0:0:0:
243,177,50053,1,0,1:0:0:0:
243,177,50229,1,8,1:0:0:0:
243,177,50406,1,0,1:0:0:0:
264,155,50583,1,12,1:0:0:0:
243,177,50759,1,0,1:0:0:0:
243,177,50935,1,8,1:0:0:0:
243,177,51112,1,0,1:0:0:0:
243,177,51465,1,8,1:0:0:0:
243,177,51641,1,8,1:0:0:0:
243,177,52171,1,8,1:0:0:0:
243,177,52524,1,8,1:0:0:0:
243,177,52700,1,0,1:0:0:0:
243,177,53053,1,8,1:0:0:0:
243,177,53230,1,8,1:0:0:0:
243,177,53583,1,0,1:0:0:0:
243,177,53760,1,8,1:0:0:0:
243,177,54112,1,8,1:0:0:0:
243,177,54289,1,0,1:0:0:0:
243,177,54465,1,8,1:0:0:0:
243,177,54642,1,0,1:0:0:0:
279,203,54818,1,0,1:0:0:0:
279,203,54907,1,0,1:0:0:0:
279,203,54995,1,0,1:0:0:0:
192,163,55083,1,0,1:0:0:0:
191,155,55171,1,8,1:0:0:0:
191,155,55348,1,8,1:0:0:0:
264,153,55524,1,12,1:0:0:0:
188,193,55700,1,0,1:0:0:0:
289,232,55876,1,8,1:0:0:0:
161,184,56053,1,0,1:0:0:0:
284,230,56141,1,8,1:0:0:0:
284,230,56229,1,0,1:0:0:0:
288,224,56582,1,0,1:0:0:0:
288,224,56759,1,8,1:0:0:0:
288,224,57112,1,8,1:0:0:0:
288,224,57288,1,0,1:0:0:0:
288,224,57553,1,8,1:0:0:0:
288,224,57641,1,0,1:0:0:0:
97,209,57818,1,0,1:0:0:0:
166,127,57994,1,8,1:0:0:0:
219,212,58171,1,8,1:0:0:0:
131,252,58347,1,0,0:0:0:0:
161,207,58524,1,0,1:0:0:0:
219,212,58700,1,8,1:0:0:0:
219,212,58876,1,0,1:0:0:0:
219,212,58965,1,8,1:0:0:0:
193,175,59053,1,0,1:0:0:0:
193,175,59406,1,8,1:0:0:0:
193,175,59582,1,0,1:0:0:0:
193,175,59935,1,8,1:0:0:0:
193,175,60112,1,0,1:0:0:0:
193,175,60376,1,8,1:0:0:0:
193,175,60465,1,0,1:0:0:0:
193,175,60641,1,0,1:0:0:0:
193,175,60818,1,8,1:0:0:0:
193,175,60994,1,8,1:0:0:0:
193,175,61171,1,12,1:0:0:0:
188,193,61347,1,0,1:0:0:0:
289,232,61524,1,8,1:0:0:0:
161,184,61700,1,0,1:0:0:0:
284,230,61788,1,8,1:0:0:0:
284,230,61876,1,0,1:0:0:0:
288,224,62229,1,0,1:0:0:0:
288,224,62406,1,8,1:0:0:0:
288,224,62759,1,8,1:0:0:0:
288,224,62935,1,0,1:0:0:0:
288,224,63200,1,8,1:0:0:0:
288,224,63288,1,0,1:0:0:0:
97,209,63465,1,0,1:0:0:0:
97,209,63641,1,8,1:0:0:0:
219,212,63818,1,8,1:0:0:0:
134,237,63994,1,0,0:0:0:0:
161,207,64171,1,0,1:0:0:0:
219,212,64347,1,8,1:0:0:0:
219,212,64523,1,0,1:0:0:0:
219,212,64612,1,8,1:0:0:0:
193,175,64700,1,0,1:0:0:0:
193,175,65053,1,8,1:0:0:0:
193,175,65229,1,8,1:0:0:0:
193,175,65582,1,8,1:0:0:0:
193,175,65759,1,0,1:0:0:0:
193,175,65935,1,8,1:0:0:0:
193,175,66112,1,0,1:0:0:0:
308,198,66288,1,0,1:0:0:0:
219,205,66465,1,8,1:0:0:0:
219,205,66641,1,8,1:0:0:0:
207,296,66818,1,12,1:0:0:0:
203,289,66994,1,0,1:0:0:0:
203,289,67171,1,8,1:0:0:0:
201,184,67347,1,0,1:0:0:0:
266,120,67435,1,0,1:0:0:0:
201,184,67524,1,8,1:0:0:0:
201,184,67700,1,0,1:0:0:0:
201,184,67876,1,8,1:0:0:0:
201,184,68053,1,8,1:0:0:0:
201,184,68141,1,8,1:0:0:0:
201,184,68229,1,0,1:0:0:0:
201,184,68406,1,8,1:0:0:0:
201,184,68582,1,0,1:0:0:0:
201,184,68759,1,8,1:0:0:0:
201,184,68847,1,0,1:0:0:0:
201,184,68935,1,0,1:0:0:0:
201,184,69112,1,8,1:0:0:0:
134,208,69200,1,0,0:0:0:0:
201,184,69288,1,8,1:0:0:0:
134,208,69376,1,8,0:0:0:0:
201,184,69465,1,0,1:0:0:0:
201,184,69641,1,8,1:0:0:0:
201,184,69729,1,0,1:0:0:0:
201,184,69818,1,0,1:0:0:0:
201,184,69994,1,8,1:0:0:0:
201,184,70171,1,8,1:0:0:0:
201,184,70259,1,8,1:0:0:0:
201,184,70347,1,0,1:0:0:0:
201,184,70523,1,8,1:0:0:0:
201,184,70700,1,0,1:0:0:0:
174,194,70788,1,0,0:0:0:0:
201,184,70876,1,8,1:0:0:0:
256,192,71758,8,0,71935,1:0:0:0:
233,162,72112,5,12,1:0:0:0:
234,126,72288,1,0,1:0:0:0:
234,126,72464,1,8,1:0:0:0:
234,126,72641,1,8,1:0:0:0:
234,126,72729,1,0,1:0:0:0:
234,126,72817,1,0,1:0:0:0:
258,62,72994,1,8,1:0:0:0:
216,112,73170,1,0,1:0:0:0:
216,112,73347,1,8,1:0:0:0:
216,112,73435,1,8,1:0:0:0:
216,112,73523,1,0,1:0:0:0:
216,112,73700,1,0,1:0:0:0:
216,112,73876,1,8,1:0:0:0:
189,196,74053,1,8,1:0:0:0:
189,196,74141,1,0,1:0:0:0:
189,196,74229,1,0,1:0:0:0:
189,196,74406,1,0,1:0:0:0:
189,196,74582,1,8,1:0:0:0:
189,196,74759,1,8,1:0:0:0:
189,196,74847,1,8,1:0:0:0:
189,196,74935,1,0,1:0:0:0:
189,196,75112,1,8,1:0:0:0:
189,196,75288,1,8,1:0:0:0:
246,191,75464,1,0,1:0:0:0:
216,189,75553,1,0,1:0:0:0:
216,189,75641,1,8,1:0:0:0:
246,191,75817,1,8,1:0:0:0:
247,182,75994,1,8,1:0:0:0:
185,191,76082,1,8,0:0:0:0:
247,182,76170,1,0,1:0:0:0:
256,192,77405,8,12,77582,1:0:0:0:
241,121,77759,5,12,1:0:0:0:
263,216,77935,1,0,1:0:0:0:
263,216,78111,1,8,1:0:0:0:
263,216,78288,1,0,1:0:0:0:
263,216,78376,1,0,1:0:0:0:
263,216,78464,1,0,1:0:0:0:
263,216,78641,1,8,1:0:0:0:
263,216,78817,1,0,1:0:0:0:
263,216,78994,1,8,1:0:0:0:
263,216,79082,1,8,1:0:0:0:
268,174,79170,1,0,1:0:0:0:
263,216,79347,1,0,1:0:0:0:
263,216,79523,1,8,1:0:0:0:
263,171,79700,1,0,1:0:0:0:
263,171,79788,1,0,1:0:0:0:
261,170,79876,1,8,1:0:0:0:
263,216,80053,1,8,1:0:0:0:
110,180,80141,1,0,0:0:0:0:
263,216,80229,1,8,1:0:0:0:
111,185,80317,1,8,0:0:0:0:
193,191,80406,1,0,1:0:0:0:
239,184,80582,1,8,1:0:0:0:
208,186,80670,1,0,1:0:0:0:
208,186,80759,1,0,1:0:0:0:
270,181,80935,1,0,1:0:0:0:
267,171,81111,1,8,1:0:0:0:
267,171,81200,1,8,1:0:0:0:
267,171,81288,1,0,1:0:0:0:
267,171,81464,1,8,1:0:0:0:
267,171,81641,1,0,1:0:0:0:
177,187,81729,1,0,0:0:0:0:
267,171,81817,1,8,1:0:0:0:
267,171,82170,1,0,1:0:0:0:
256,192,82347,8,0,82523,1:0:0:0:
267,171,82700,5,8,1:0:0:0:
267,171,82876,1,8,1:0:0:0:
267,171,83053,1,0,1:0:0:0:
267,171,83229,1,8,1:0:0:0:
247,157,83317,1,0,1:0:0:0:
247,157,83406,1,0,1:0:0:0:
247,157,83582,1,0,1:0:0:0:
247,157,83759,1,8,1:0:0:0:
247,157,83935,1,0,1:0:0:0:
271,149,84023,1,8,1:0:0:0:
247,157,84111,1,8,1:0:0:0:
247,157,84288,1,8,1:0:0:0:
247,157,84464,1,0,1:0:0:0:
247,157,84641,1,8,1:0:0:0:
247,157,84729,1,8,1:0:0:0:
247,157,84817,1,8,1:0:0:0:
247,157,84994,1,0,1:0:0:0:
247,157,85170,1,8,1:0:0:0:
247,157,85347,1,0,1:0:0:0:
247,157,85435,1,0,1:0:0:0:
247,157,85523,1,0,1:0:0:0:
226,211,85700,1,8,1:0:0:0:
226,211,85876,1,0,1:0:0:0:
226,211,86053,1,8,1:0:0:0:
226,211,86141,1,8,1:0:0:0:
226,211,86229,1,0,1:0:0:0:
226,211,86406,1,0,1:0:0:0:
226,211,86582,1,8,1:0:0:0:
226,211,86759,1,0,1:0:0:0:
190,119,86847,1,0,1:0:0:0:
226,211,86935,1,8,1:0:0:0:
226,211,87111,1,8,1:0:0:0:
226,211,87288,1,0,1:0:0:0:
226,211,87464,1,8,1:0:0:0:
130,284,88170,1,0,1:0:0:0:
130,284,88259,1,0,1:0:0:0:
130,284,88347,1,8,1:0:0:0:
130,284,88523,1,0,1:0:0:0:
130,284,88700,1,8,1:0:0:0:
130,284,88876,1,0,1:0:0:0:
181,189,89053,1,12,1:0:0:0:
185,182,89229,1,0,1:0:0:0:
185,182,89405,1,8,1:0:0:0:
181,189,89582,1,4,1:0:0:0:
185,182,89758,1,8,1:0:0:0:
185,182,89935,1,0,1:0:0:0:
181,189,90111,1,4,1:0:0:0:
185,182,90288,1,0,1:0:0:0:
185,182,90464,1,8,1:0:0:0:
181,189,90641,1,4,1:0:0:0:
185,182,90817,1,8,1:0:0:0:
185,182,90994,1,8,1:0:0:0:
181,189,91170,1,4,1:0:0:0:
185,182,91347,1,8,1:0:0:0:
185,182,91523,1,0,1:0:0:0:
140,167,91700,1,4,1:0:0:0:
185,182,91876,1,0,1:0:0:0:
181,180,92053,1,8,1:0:0:0:
140,167,92229,1,4,1:0:0:0:
185,182,92405,1,8,1:0:0:0:
185,182,92581,1,0,1:0:0:0:
180,178,92758,1,8,1:0:0:0:
180,178,92934,1,0,1:0:0:0:
181,180,93111,1,0,1:0:0:0:
140,167,93287,1,4,1:0:0:0:
197,190,93464,1,0,1:0:0:0:
197,190,93552,1,0,1:0:0:0:
153,188,93642,1,12,1:0:0:0:
185,182,93818,1,0,1:0:0:0:
185,182,93994,1,8,1:0:0:0:
181,189,94171,1,4,1:0:0:0:
185,182,94347,1,8,1:0:0:0:
185,182,94524,1,0,1:0:0:0:
181,189,94700,1,4,1:0:0:0:
185,182,94877,1,0,1:0:0:0:
185,182,95053,1,8,1:0:0:0:
181,189,95230,1,4,1:0:0:0:
185,182,95406,1,8,1:0:0:0:
185,182,95583,1,8,1:0:0:0:
181,189,95759,1,4,1:0:0:0:
185,182,95936,1,8,1:0:0:0:
185,182,96112,1,0,1:0:0:0:
140,167,96289,1,4,1:0:0:0:
185,182,96465,1,0,1:0:0:0:
181,180,96642,1,8,1:0:0:0:
140,167,96818,1,4,1:0:0:0:
185,182,96994,1,8,1:0:0:0:
185,182,97170,1,0,1:0:0:0:
180,178,97347,1,8,1:0:0:0:
161,151,97523,1,8,1:0:0:0:
161,151,97612,1,8,1:0:0:0:
161,151,97700,1,8,1:0:0:0:
140,167,97876,1,4,1:0:0:0:
175,170,98053,1,8,1:0:0:0:
175,170,98141,1,8,1:0:0:0:
149,189,98230,1,8,1:0:0:0:
108,287,98759,1,0,1:0:0:0:
108,287,99288,1,0,1:0:0:0:
108,287,99818,1,8,1:0:0:0:
108,287,100347,1,8,1:0:0:0:
108,287,100877,1,8,1:0:0:0:
108,287,101406,1,0,1:0:0:0:
115,273,101758,1,8,1:0:0:0:
115,273,101935,1,0,1:0:0:0:
115,273,102111,1,8,1:0:0:0:
115,273,102288,1,0,1:0:0:0:
115,273,102464,1,8,1:0:0:0:
115,273,102641,1,0,1:0:0:0:
115,273,102818,1,8,1:0:0:0:
115,273,103347,1,0,1:0:0:0:
115,273,103876,1,0,1:0:0:0:
115,273,104406,1,8,1:0:0:0:
115,273,104935,1,8,1:0:0:0:
115,273,105465,1,8,1:0:0:0:
115,273,105995,1,0,1:0:0:0:
246,237,106347,1,8,1:0:0:0:
246,237,106524,1,0,1:0:0:0:
246,237,106700,1,8,1:0:0:0:
246,237,106877,1,0,1:0:0:0:
246,237,107053,1,8,1:0:0:0:
246,237,107230,1,0,1:0:0:0:
188,202,107407,1,12,1:0:0:0:
161,197,107583,1,0,1:0:0:0:
161,197,107759,1,8,1:0:0:0:
161,197,107936,1,0,1:0:0:0:
161,197,108289,1,0,1:0:0:0:
161,197,108465,1,8,1:0:0:0:
161,197,108995,1,8,1:0:0:0:
161,197,109348,1,8,1:0:0:0:
161,197,109524,1,0,1:0:0:0:
161,197,109877,1,0,1:0:0:0:
209,230,110054,1,0,1:0:0:0:
209,230,110407,1,8,1:0:0:0:
209,230,110583,1,0,1:0:0:0:
209,230,110935,1,8,1:0:0:0:
209,230,111112,1,0,1:0:0:0:
209,230,111288,1,8,1:0:0:0:
209,230,111465,1,0,1:0:0:0:
209,230,111641,1,8,1:0:0:0:
209,230,111818,1,0,1:0:0:0:
184,165,111906,1,0,1:0:0:0:
184,165,111995,1,12,1:0:0:0:
184,165,112171,1,0,1:0:0:0:
184,165,112347,1,8,1:0:0:0:
184,165,112524,1,0,1:0:0:0:
184,165,112877,1,0,1:0:0:0:
184,165,113053,1,8,1:0:0:0:
184,165,113583,1,8,1:0:0:0:
184,165,113936,1,8,1:0:0:0:
184,165,114112,1,0,1:0:0:0:
184,165,114465,1,8,1:0:0:0:
184,165,114642,1,8,1:0:0:0:
184,165,114995,1,0,1:0:0:0:
184,165,115171,1,8,1:0:0:0:
184,165,115523,1,8,1:0:0:0:
184,165,115700,1,0,1:0:0:0:
184,165,115876,1,8,1:0:0:0:
184,165,116053,1,0,1:0:0:0:
170,160,116229,1,0,1:0:0:0:
170,160,116318,1,0,1:0:0:0:
170,160,116406,1,0,1:0:0:0:
170,160,116494,1,0,1:0:0:0:
170,160,116582,1,8,1:0:0:0:
111,253,116759,1,8,1:0:0:0:
111,253,116936,1,12,1:0:0:0:
188,193,117112,1,0,1:0:0:0:
289,232,117288,1,8,1:0:0:0:
161,184,117465,1,0,1:0:0:0:
284,230,117553,1,8,1:0:0:0:
284,230,117641,1,0,1:0:0:0:
288,224,117994,1,0,1:0:0:0:
288,224,118171,1,0,1:0:0:0:
288,224,118524,1,0,1:0:0:0:
288,224,118700,1,0,1:0:0:0:
288,224,118965,1,8,1:0:0:0:
288,224,119053,1,0,1:0:0:0:
97,209,119230,1,0,1:0:0:0:
166,127,119406,1,8,1:0:0:0:
219,212,119583,1,8,1:0:0:0:
180,134,119759,1,0,0:0:0:0:
161,207,119936,1,0,1:0:0:0:
219,212,120112,1,8,1:0:0:0:
219,212,120288,1,0,1:0:0:0:
219,212,120377,1,8,1:0:0:0:
193,175,120465,1,0,1:0:0:0:
193,175,120818,1,0,1:0:0:0:
193,175,120994,1,0,1:0:0:0:
193,175,121347,1,0,1:0:0:0:
193,175,121524,1,0,1:0:0:0:
193,175,121788,1,8,1:0:0:0:
193,175,121877,1,0,1:0:0:0:
193,175,122053,1,0,1:0:0:0:
193,175,122230,1,8,1:0:0:0:
193,175,122406,1,8,1:0:0:0:
193,175,122583,1,12,1:0:0:0:
188,193,122759,1,0,1:0:0:0:
289,232,122936,1,8,1:0:0:0:
161,184,123112,1,0,1:0:0:0:
284,230,123200,1,8,1:0:0:0:
284,230,123288,1,0,1:0:0:0:
288,224,123641,1,0,1:0:0:0:
288,224,123818,1,0,1:0:0:0:
288,224,124171,1,0,1:0:0:0:
288,224,124347,1,0,1:0:0:0:
288,224,124612,1,8,1:0:0:0:
288,224,124700,1,0,1:0:0:0:
97,209,124877,1,0,1:0:0:0:
97,209,125053,1,8,1:0:0:0:
219,212,125230,1,8,1:0:0:0:
219,212,125406,1,0,1:0:0:0:
161,207,125583,1,0,1:0:0:0:
219,212,125759,1,8,1:0:0:0:
219,212,125936,1,0,1:0:0:0:
219,212,126024,1,8,1:0:0:0:
193,175,126112,1,0,1:0:0:0:
193,175,126465,1,8,1:0:0:0:
193,175,126641,1,8,1:0:0:0:
193,175,126994,1,8,1:0:0:0:
193,175,127171,1,0,1:0:0:0:
193,175,127347,1,8,1:0:0:0:
193,175,127524,1,0,1:0:0:0:
308,198,127700,1,0,1:0:0:0:
256,192,127877,8,0,128054,1:0:0:0:
212,264,128230,5,12,1:0:0:0:
215,236,128406,1,0,1:0:0:0:
215,236,128583,1,0,1:0:0:0:
215,236,128759,1,8,1:0:0:0:
215,236,128847,1,0,1:0:0:0:
215,236,128936,1,0,1:0:0:0:
215,236,129112,1,8,1:0:0:0:
215,236,129288,1,0,1:0:0:0:
215,236,129465,1,8,1:0:0:0:
215,236,129553,1,8,1:0:0:0:
204,186,129641,1,0,1:0:0:0:
215,236,129818,1,0,1:0:0:0:
215,236,129994,1,8,1:0:0:0:
215,236,130171,1,0,1:0:0:0:
215,236,130259,1,0,1:0:0:0:
215,236,130347,1,8,1:0:0:0:
215,236,130524,1,0,1:0:0:0:
157,230,130612,1,0,0:0:0:0:
215,236,130700,1,8,1:0:0:0:
157,230,130788,1,0,0:0:0:0:
215,236,130877,1,8,1:0:0:0:
205,218,131053,1,8,1:0:0:0:
205,218,131141,1,8,1:0:0:0:
205,218,131230,1,0,1:0:0:0:
205,218,131406,1,0,1:0:0:0:
205,218,131583,1,8,1:0:0:0:
205,218,131671,1,0,1:0:0:0:
205,218,131759,1,0,1:0:0:0:
205,218,131936,1,8,1:0:0:0:
205,218,132112,1,0,1:0:0:0:
157,230,132200,1,0,0:0:0:0:
205,218,132288,1,8,1:0:0:0:
256,192,133876,8,0,134053,1:0:0:0:
197,215,134230,5,12,1:0:0:0:
326,293,134406,1,0,1:0:0:0:
326,293,134582,1,8,1:0:0:0:
326,293,134759,1,0,1:0:0:0:
326,293,134847,1,0,1:0:0:0:
326,293,134935,1,8,1:0:0:0:
326,293,135112,1,0,1:0:0:0:
326,293,135288,1,8,1:0:0:0:
326,293,135465,1,8,1:0:0:0:
326,293,135553,1,8,1:0:0:0:
291,264,135641,1,8,1:0:0:0:
326,293,135818,1,0,1:0:0:0:
326,293,135994,1,8,1:0:0:0:
218,208,136171,1,8,1:0:0:0:
218,208,136259,1,0,1:0:0:0:
218,208,136347,1,0,1:0:0:0:
218,208,136524,1,0,1:0:0:0:
218,208,136700,1,8,1:0:0:0:
218,208,136877,1,0,1:0:0:0:
140,245,136965,1,8,1:0:0:0:
140,245,137053,1,8,1:0:0:0:
140,245,137230,1,0,1:0:0:0:
140,245,137406,1,0,1:0:0:0:
140,245,137582,1,8,1:0:0:0:
140,245,137671,1,0,1:0:0:0:
140,245,137759,1,0,1:0:0:0:
140,245,137935,1,8,1:0:0:0:
140,245,138112,1,8,1:0:0:0:
157,229,138200,1,8,0:0:0:0:
157,229,138288,1,0,0:0:0:0:
256,192,140229,8,0,140406,1:0:0:0:
235,216,140583,5,12,1:0:0:0:
255,236,140759,1,0,1:0:0:0:
255,236,140935,1,8,1:0:0:0:
255,236,141112,1,8,1:0:0:0:
255,236,141200,1,8,1:0:0:0:
255,236,141288,1,0,1:0:0:0:
255,236,141465,1,8,1:0:0:0:
255,236,141641,1,0,1:0:0:0:
255,236,141818,1,0,1:0:0:0:
255,236,141906,1,0,1:0:0:0:
255,236,141994,1,0,1:0:0:0:
255,236,142171,1,8,1:0:0:0:
255,236,142347,1,0,1:0:0:0:
255,236,142524,1,8,1:0:0:0:
255,236,142612,1,8,1:0:0:0:
255,236,142700,1,8,1:0:0:0:
255,236,142877,1,0,1:0:0:0:
157,229,142965,1,8,0:0:0:0:
255,236,143053,1,8,1:0:0:0:
157,229,143141,1,8,0:0:0:0:
255,236,143230,1,0,1:0:0:0:
255,236,143406,1,8,1:0:0:0:
255,236,143494,1,0,1:0:0:0:
255,236,143583,1,0,1:0:0:0:
255,236,143759,1,0,1:0:0:0:
255,236,143935,1,8,1:0:0:0:
255,236,144024,1,0,1:0:0:0:
255,236,144112,1,0,1:0:0:0:
255,236,144288,1,8,1:0:0:0:
255,236,144465,1,0,1:0:0:0:
157,229,144553,1,0,0:0:0:0:
255,236,144641,1,8,1:0:0:0:
255,236,144994,1,0,1:0:0:0:
256,192,145171,8,0,145347,1:0:0:0:
119,231,145524,5,0,1:0:0:0:
119,231,145700,1,8,1:0:0:0:
119,231,145877,1,8,1:0:0:0:
119,231,146053,1,0,1:0:0:0:
119,231,146141,1,8,1:0:0:0:
119,231,146230,1,0,1:0:0:0:
119,231,146406,1,0,1:0:0:0:
119,231,146583,1,0,1:0:0:0:
119,231,146759,1,8,1:0:0:0:
119,231,146847,1,0,1:0:0:0:
119,231,146935,1,8,1:0:0:0:
119,231,147112,1,0,1:0:0:0:
119,231,147288,1,0,1:0:0:0:
119,231,147465,1,8,1:0:0:0:
119,231,147553,1,8,1:0:0:0:
119,231,147641,1,8,1:0:0:0:
119,231,147818,1,8,1:0:0:0:
119,231,147994,1,8,1:0:0:0:
119,231,148171,1,0,1:0:0:0:
119,231,148259,1,0,1:0:0:0:
119,231,148347,1,0,1:0:0:0:
119,231,148524,1,8,1:0:0:0:
177,199,148700,1,8,1:0:0:0:
177,199,148877,1,8,1:0:0:0:
177,199,148965,1,8,1:0:0:0:
177,199,149053,1,0,1:0:0:0:
177,199,149230,1,0,1:0:0:0:
177,199,149406,1,0,1:0:0:0:
177,199,149583,1,0,1:0:0:0:
177,199,149671,1,0,1:0:0:0:
177,199,149759,1,8,1:0:0:0:
177,199,149935,1,8,1:0:0:0:
177,199,150112,1,0,1:0:0:0:
177,199,150288,1,8,1:0:0:0:
118,190,150465,1,4,1:0:0:0:
163,176,158391,5,0,1:0:0:0:
163,176,158479,1,0,1:0:0:0:
163,176,158567,1,8,1:0:0:0:
181,189,158921,1,12,1:0:0:0:
185,182,159097,1,8,1:0:0:0:
185,182,159273,1,0,1:0:0:0:
181,189,159450,1,4,1:0:0:0:
185,182,159626,1,8,1:0:0:0:
185,182,159803,1,0,1:0:0:0:
181,189,159979,1,4,1:0:0:0:
185,182,160156,1,0,1:0:0:0:
185,182,160332,1,8,1:0:0:0:
181,189,160509,1,4,1:0:0:0:
185,182,160685,1,8,1:0:0:0:
185,182,160862,1,8,1:0:0:0:
181,189,161038,1,4,1:0:0:0:
185,182,161215,1,8,1:0:0:0:
185,182,161391,1,0,1:0:0:0:
140,167,161568,1,4,1:0:0:0:
185,182,161744,1,0,1:0:0:0:
181,180,161921,1,8,1:0:0:0:
140,167,162097,1,4,1:0:0:0:
185,182,162273,1,8,1:0:0:0:
185,182,162449,1,0,1:0:0:0:
180,178,162626,1,8,1:0:0:0:
180,178,162802,1,0,1:0:0:0:
185,190,162979,1,4,1:0:0:0:
184,189,163155,1,8,1:0:0:0:
181,189,163333,1,12,1:0:0:0:
185,182,163509,1,8,1:0:0:0:
185,182,163685,1,0,1:0:0:0:
181,189,163862,1,4,1:0:0:0:
185,182,164038,1,8,1:0:0:0:
185,182,164215,1,0,1:0:0:0:
181,189,164391,1,4,1:0:0:0:
185,182,164568,1,0,1:0:0:0:
185,182,164744,1,8,1:0:0:0:
181,189,164921,1,4,1:0:0:0:
185,182,165097,1,8,1:0:0:0:
185,182,165274,1,8,1:0:0:0:
181,189,165450,1,4,1:0:0:0:
185,182,165627,1,8,1:0:0:0:
185,182,165803,1,0,1:0:0:0:
140,167,165980,1,4,1:0:0:0:
185,182,166156,1,0,1:0:0:0:
181,180,166333,1,8,1:0:0:0:
140,167,166509,1,4,1:0:0:0:
185,182,166685,1,8,1:0:0:0:
185,182,166861,1,0,1:0:0:0:
180,178,167038,1,8,1:0:0:0:
180,178,167214,1,0,1:0:0:0:
185,190,167391,1,4,1:0:0:0:
184,189,167567,1,8,1:0:0:0:
181,189,167745,1,12,1:0:0:0:
185,182,167921,1,8,1:0:0:0:
185,182,168097,1,0,1:0:0:0:
181,189,168274,1,4,1:0:0:0:
185,182,168450,1,8,1:0:0:0:
185,182,168627,1,0,1:0:0:0:
181,189,168803,1,4,1:0:0:0:
185,182,168980,1,0,1:0:0:0:
185,182,169156,1,8,1:0:0:0:
181,189,169333,1,4,1:0:0:0:
185,182,169509,1,8,1:0:0:0:
185,182,169686,1,8,1:0:0:0:
181,189,169862,1,4,1:0:0:0:
185,182,170039,1,8,1:0:0:0:
185,182,170215,1,0,1:0:0:0:
140,167,170392,1,4,1:0:0:0:
185,182,170568,1,0,1:0:0:0:
181,180,170745,1,8,1:0:0:0:
140,167,170921,1,4,1:0:0:0:
185,182,171097,1,8,1:0:0:0:
185,182,171273,1,0,1:0:0:0:
180,178,171450,1,8,1:0:0:0:
180,178,171626,1,0,1:0:0:0:
185,190,171803,1,4,1:0:0:0:
184,189,171979,1,8,1:0:0:0:
181,189,172156,1,12,1:0:0:0:
185,182,172332,1,8,1:0:0:0:
185,182,172508,1,0,1:0:0:0:
181,189,172685,1,4,1:0:0:0:
185,182,172861,1,8,1:0:0:0:
185,182,173038,1,0,1:0:0:0:
181,189,173214,1,4,1:0:0:0:
185,182,173391,1,0,1:0:0:0:
185,182,173567,1,8,1:0:0:0:
181,189,173744,1,4,1:0:0:0:
185,182,173920,1,8,1:0:0:0:
185,182,174097,1,8,1:0:0:0:
181,189,174273,1,4,1:0:0:0:
185,182,174450,1,8,1:0:0:0:
185,182,174626,1,0,1:0:0:0:
140,167,174803,1,4,1:0:0:0:
185,182,174979,1,0,1:0:0:0:
181,180,175156,1,8,1:0:0:0:
140,167,175333,1,4,1:0:0:0:
185,182,175509,1,8,1:0:0:0:
185,182,175685,1,0,1:0:0:0:
180,178,175862,1,8,1:0:0:0:
180,178,176038,1,0,1:0:0:0:
185,190,176215,1,4,1:0:0:0:
184,189,176391,1,8,1:0:0:0:
25,158,176569,2,4,B|86:155|86:155|78:42|78:42|85:154|85:154|145:145|145:145|85:156|85:156|93:312|93:312|231:156|259:72|259:72|177:110|222:288|222:288|215:181|215:181|283:170|283:170|145:191,8,1400
217,162,179567,1,8,1:0:0:0:
161,179,179743,1,8,1:0:0:0:
256,192,180625,8,0,180802,1:0:0:0:
210,272,180978,5,0,1:0:0:0:
210,272,181331,1,0,1:0:0:0:
210,272,181508,1,8,1:0:0:0:
210,272,181861,1,8,1:0:0:0:
210,272,182214,1,0,1:0:0:0:
210,272,182567,1,0,1:0:0:0:
210,272,182919,1,8,1:0:0:0:
210,272,183272,1,8,1:0:0:0:
210,272,183625,1,0,1:0:0:0:
210,272,183978,1,0,1:0:0:0:
210,272,184331,1,8,1:0:0:0:
210,272,184684,1,8,1:0:0:0:
210,272,185037,1,0,1:0:0:0:
233,220,185214,1,8,1:0:0:0:
233,220,185390,1,0,1:0:0:0:
233,220,185567,1,8,1:0:0:0:
233,220,185743,1,0,1:0:0:0:
233,220,185919,1,0,1:0:0:0:
233,220,186184,1,0,1:0:0:0:
233,220,186449,1,8,1:0:0:0:
281,235,186625,1,0,1:0:0:0:
281,235,186978,1,0,1:0:0:0:
281,235,187155,1,8,1:0:0:0:
281,235,187508,1,8,1:0:0:0:
281,235,187861,1,0,1:0:0:0:
281,235,188214,1,0,1:0:0:0:
281,235,188567,1,8,1:0:0:0:
281,235,188919,1,8,1:0:0:0:
255,221,189272,1,0,1:0:0:0:
255,221,189625,1,0,1:0:0:0:
255,221,189978,1,8,1:0:0:0:
255,221,190331,1,8,1:0:0:0:
255,221,190684,1,0,1:0:0:0:
157,272,190861,1,0,1:0:0:0:
157,272,191037,1,0,1:0:0:0:
157,272,191214,1,8,1:0:0:0:
157,272,191390,1,8,1:0:0:0:
157,272,191567,1,0,1:0:0:0:
157,272,191831,1,8,1:0:0:0:
162,271,192096,1,0,1:0:0:0:
173,203,192272,1,0,1:0:0:0:
173,203,192449,1,0,1:0:0:0:
173,203,192625,1,8,1:0:0:0:
173,203,192802,1,0,1:0:0:0:
173,203,193155,1,0,1:0:0:0:
173,203,193508,1,8,1:0:0:0:
173,203,193861,1,8,1:0:0:0:
173,203,194214,1,0,1:0:0:0:
238,180,194567,1,0,1:0:0:0:
238,180,194743,1,0,1:0:0:0:
238,180,194919,1,0,1:0:0:0:
238,180,195096,1,8,1:0:0:0:
238,180,195449,1,8,1:0:0:0:
238,180,195625,1,0,1:0:0:0:
238,180,195978,1,0,1:0:0:0:
238,180,196331,1,8,1:0:0:0:
175,169,196684,1,0,0:0:0:0:
256,192,196861,8,0,197037,1:0:0:0:
238,180,197214,5,0,1:0:0:0:
238,180,197390,1,0,1:0:0:0:
238,180,197567,1,8,1:0:0:0:
238,180,197743,1,8,1:0:0:0:
238,180,197919,5,0,1:0:0:0:
225,181,198096,1,0,1:0:0:0:
238,180,198272,1,8,1:0:0:0:
225,181,198449,1,0,1:0:0:0:
238,180,198625,1,0,1:0:0:0:
225,181,198802,1,0,1:0:0:0:
238,180,198978,1,8,1:0:0:0:
225,181,199155,1,0,1:0:0:0:
238,180,199331,1,0,1:0:0:0:
225,181,199508,1,0,1:0:0:0:
238,180,199684,1,8,1:0:0:0:
225,181,199861,1,0,1:0:0:0:
238,180,200037,1,0,1:0:0:0:
225,181,200214,1,0,1:0:0:0:
238,180,200390,1,8,1:0:0:0:
225,181,200567,1,0,1:0:0:0:
238,180,200743,1,0,1:0:0:0:
225,181,200919,1,0,1:0:0:0:
238,180,201096,1,8,1:0:0:0:
225,181,201272,1,0,1:0:0:0:
238,180,201449,1,0,1:0:0:0:
225,181,201625,1,0,1:0:0:0:
238,180,201802,1,8,1:0:0:0:
88,180,201978,1,0,1:0:0:0:
26,267,202155,6,0,P|256:79|27:268,1,910
256,192,204625,8,0,204802,1:0:0:0:
156,203,204978,5,12,1:0:0:0:
203,223,205155,1,0,1:0:0:0:
203,223,205331,1,8,1:0:0:0:
203,223,205508,1,0,1:0:0:0:
203,223,205596,1,0,1:0:0:0:
203,223,205684,1,0,1:0:0:0:
203,223,205861,1,8,1:0:0:0:
203,223,206037,1,8,1:0:0:0:
203,223,206214,1,0,1:0:0:0:
203,223,206302,1,8,1:0:0:0:
203,223,206390,1,0,1:0:0:0:
203,223,206566,1,8,1:0:0:0:
203,223,206743,1,0,1:0:0:0:
203,223,206919,1,8,1:0:0:0:
203,223,207008,1,8,1:0:0:0:
203,223,207096,1,0,1:0:0:0:
203,223,207272,1,0,1:0:0:0:
88,159,207361,1,0,0:0:0:0:
203,223,207449,1,8,1:0:0:0:
88,159,207537,1,0,0:0:0:0:
203,223,207625,1,0,1:0:0:0:
203,223,207802,1,8,1:0:0:0:
126,133,207890,1,8,1:0:0:0:
203,223,207978,1,0,1:0:0:0:
203,223,208155,1,0,1:0:0:0:
203,223,208331,1,8,1:0:0:0:
126,133,208419,1,0,1:0:0:0:
203,223,208508,1,0,1:0:0:0:
203,223,208684,1,8,1:0:0:0:
203,223,208861,1,0,1:0:0:0:
142,156,208949,1,0,0:0:0:0:
232,278,209037,1,8,1:0:0:0:
256,192,211331,8,0,211508,1:0:0:0:
205,125,211683,5,12,1:0:0:0:
311,175,211859,1,0,1:0:0:0:
311,175,212035,1,8,1:0:0:0:
162,207,212212,1,8,1:0:0:0:
201,216,212300,1,0,1:0:0:0:
201,216,212388,1,0,1:0:0:0:
162,207,212565,1,8,1:0:0:0:
162,207,212741,1,0,1:0:0:0:
162,207,212918,1,8,1:0:0:0:
162,207,213006,1,8,1:0:0:0:
152,206,213094,1,0,1:0:0:0:
162,207,213271,1,0,1:0:0:0:
162,207,213447,1,8,1:0:0:0:
162,207,213624,1,0,1:0:0:0:
162,207,213712,1,8,1:0:0:0:
152,206,213800,1,8,1:0:0:0:
137,201,213977,1,8,1:0:0:0:
137,201,214153,1,0,1:0:0:0:
137,201,214330,1,8,1:0:0:0:
137,201,214418,1,0,1:0:0:0:
137,201,214506,1,0,1:0:0:0:
137,201,214683,1,8,1:0:0:0:
137,201,214859,1,0,1:0:0:0:
137,201,215035,1,8,1:0:0:0:
137,201,215124,1,0,1:0:0:0:
137,201,215212,1,8,1:0:0:0:
137,201,215388,1,8,1:0:0:0:
137,201,215565,1,8,1:0:0:0:
226,193,215653,1,0,0:0:0:0:
137,201,215741,1,0,1:0:0:0:
256,192,218388,8,0,218565,1:0:0:0:
208,145,218741,5,12,1:0:0:0:
199,185,218917,1,0,1:0:0:0:
199,185,219093,1,8,1:0:0:0:
199,185,219270,1,8,1:0:0:0:
199,185,219358,1,0,1:0:0:0:
199,185,219446,1,0,1:0:0:0:
199,185,219623,1,8,1:0:0:0:
199,185,219799,1,8,1:0:0:0:
199,185,219976,1,8,1:0:0:0:
199,185,220064,1,8,1:0:0:0:
199,185,220152,1,0,1:0:0:0:
199,185,220329,1,8,1:0:0:0:
199,185,220505,1,0,1:0:0:0:
199,185,220682,1,0,1:0:0:0:
199,185,220770,1,0,1:0:0:0:
199,185,220858,1,8,1:0:0:0:
199,185,221035,1,0,1:0:0:0:
144,166,221123,1,0,0:0:0:0:
199,185,221211,1,8,1:0:0:0:
144,166,221299,1,0,0:0:0:0:
199,185,221388,1,8,1:0:0:0:
190,187,221564,1,8,1:0:0:0:
190,187,221652,1,0,1:0:0:0:
190,187,221741,1,0,1:0:0:0:
190,187,221917,1,0,1:0:0:0:
190,187,222093,1,8,1:0:0:0:
190,187,222182,1,0,1:0:0:0:
190,187,222270,1,0,1:0:0:0:
190,187,222446,1,8,1:0:0:0:
190,187,222623,1,0,1:0:0:0:
143,169,222711,1,0,0:0:0:0:
194,131,222799,1,8,1:0:0:0:
190,187,223152,1,0,1:0:0:0:
256,192,223329,8,8,223505,1:0:0:0:
144,228,223682,5,0,1:0:0:0:
165,216,223858,1,0,1:0:0:0:
144,228,224035,1,8,1:0:0:0:
144,228,224211,1,8,1:0:0:0:
144,228,224299,1,8,1:0:0:0:
165,216,224388,1,0,1:0:0:0:
165,216,224564,1,8,1:0:0:0:
165,216,224741,1,0,1:0:0:0:
165,216,224917,1,0,1:0:0:0:
165,216,225005,1,0,1:0:0:0:
165,216,225093,1,8,1:0:0:0:
165,216,225270,1,0,1:0:0:0:
165,216,225446,1,8,1:0:0:0:
165,216,225623,1,8,1:0:0:0:
165,216,225711,1,8,1:0:0:0:
165,216,225799,1,8,1:0:0:0:
165,216,225976,1,8,1:0:0:0:
165,216,226152,1,0,1:0:0:0:
165,216,226329,1,0,1:0:0:0:
165,216,226417,1,0,1:0:0:0:
165,216,226505,1,0,1:0:0:0:
282,245,226682,1,8,1:0:0:0:
282,245,226858,1,8,1:0:0:0:
282,245,227035,1,8,1:0:0:0:
282,245,227123,1,8,1:0:0:0:
282,245,227211,1,0,1:0:0:0:
192,192,227388,1,0,1:0:0:0:
282,245,227564,1,0,1:0:0:0:
192,192,227741,1,0,1:0:0:0:
192,192,227829,1,0,1:0:0:0:
192,192,227917,1,8,1:0:0:0:
192,192,228093,1,8,1:0:0:0:
192,192,228270,1,0,1:0:0:0:
192,192,228446,1,8,1:0:0:0:
161,131,229152,1,0,1:0:0:0:
161,131,229241,1,0,1:0:0:0:
161,131,229329,1,8,1:0:0:0:
161,131,229505,1,0,1:0:0:0:
161,131,229682,1,8,1:0:0:0:
161,131,229858,1,0,1:0:0:0:
181,189,230037,1,12,1:0:0:0:
185,182,230213,1,0,1:0:0:0:
185,182,230389,1,8,1:0:0:0:
181,189,230566,1,4,1:0:0:0:
185,182,230742,1,8,1:0:0:0:
185,182,230919,1,0,1:0:0:0:
181,189,231095,1,4,1:0:0:0:
185,182,231272,1,0,1:0:0:0:
185,182,231448,1,8,1:0:0:0:
181,189,231625,1,4,1:0:0:0:
185,182,231801,1,8,1:0:0:0:
185,182,231978,1,8,1:0:0:0:
181,189,232154,1,4,1:0:0:0:
185,182,232331,1,8,1:0:0:0:
185,182,232507,1,0,1:0:0:0:
140,167,232684,1,4,1:0:0:0:
185,182,232860,1,0,1:0:0:0:
181,180,233037,1,8,1:0:0:0:
140,167,233213,1,4,1:0:0:0:
185,182,233389,1,8,1:0:0:0:
185,182,233565,1,0,1:0:0:0:
180,178,233742,1,8,1:0:0:0:
180,178,233918,1,0,1:0:0:0:
181,180,234095,1,0,1:0:0:0:
140,167,234271,1,4,1:0:0:0:
197,190,234448,1,0,1:0:0:0:
197,190,234536,1,0,1:0:0:0:
153,188,234624,1,12,1:0:0:0:
185,182,234800,1,0,1:0:0:0:
185,182,234976,1,8,1:0:0:0:
181,189,235153,1,4,1:0:0:0:
185,182,235329,1,8,1:0:0:0:
185,182,235506,1,0,1:0:0:0:
181,189,235682,1,4,1:0:0:0:
185,182,235859,1,0,1:0:0:0:
185,182,236035,1,8,1:0:0:0:
181,189,236212,1,4,1:0:0:0:
185,182,236388,1,8,1:0:0:0:
185,182,236565,1,8,1:0:0:0:
181,189,236741,1,4,1:0:0:0:
185,182,236918,1,8,1:0:0:0:
185,182,237094,1,0,1:0:0:0:
140,167,237271,1,4,1:0:0:0:
185,182,237447,1,0,1:0:0:0:
181,180,237624,1,8,1:0:0:0:
140,167,237800,1,4,1:0:0:0:
185,182,237976,1,8,1:0:0:0:
185,182,238152,1,4,1:0:0:0:
185,182,238329,1,4,1:0:0:0:
185,182,238505,1,4,1:0:0:0:
185,182,238682,1,4,1:0:0:0:
247,117,238858,1,12,1:0:0:0:
