osu file format v14

[General]
AudioFilename: audio.ogg
AudioLeadIn: 0
PreviewTime: 151173
Countdown: 0
SampleSet: Normal
StackLeniency: 0.7
Mode: 1
LetterboxInBreaks: 0
WidescreenStoryboard: 1

[Editor]
Bookmarks: 9300,18476,27652,36827,55532,66825,89060,98237,107413,116942,128236,150468,158938,158939,176583,176671,176759,176847,176935,177024,177112,177200,177288,177377,177465,177553,177641,177730,177818,177906,177994,178083,178171,178259,178347,178435,178524,178612,178700,178788,178877,178965,179053,179141,179230,179318,179406,179494,179583,180995,192288,202171,202259,202347,202435,202524,202612,202700,202788,202877,202965,203053,203141,203230,203318,203406,203494,203583,203671,203759,203847,203935,204024,204112,204200,204288,204377,204465,204553,204641,204995,230051
DistanceSpacing: 1.1
BeatDivisor: 4
GridSize: 4
TimelineZoom: 1.2

[Metadata]
Title:rooms__
TitleUnicode:rooms__
Artist:Maison book girl
ArtistUnicode:Maison book girl
Creator:_gt
Version:futsuu__
Source:
Tags:japanese pop jpop j-pop idol 412 yume 夢 dream best album "fiction" 矢川葵 yagawa aoi 古正寺恵巳 コショージメグミ koshouji koshoji coshoji coshouji megumi 井上唯 inoue yui 和田輪 wada rin 空っぽ__
BeatmapID:3608423
BeatmapSetID:1762863

[Difficulty]
HPDrainRate:6.8
CircleSize:5
OverallDifficulty:3.2
ApproachRate:5
SliderMultiplier:1.4
SliderTickRate:1

[Events]
//Background and Video events
0,0,"89751717_p0 (2).jpg",0,100
//Break Periods
2,150665,157191
//Storyboard Layer 0 (Background)
//Storyboard Layer 1 (Fail)
//Storyboard Layer 2 (Pass)
//Storyboard Layer 3 (Foreground)
//Storyboard Layer 4 (Overlay)
//Storyboard Sound Samples

[TimingPoints]
-945,352.941176470588,3,1,0,50,1,8
113,352.941176470588,3,1,0,50,1,0
113,-113.636363636364,3,1,0,50,0,0
3289,352.941176470588,4,1,0,50,1,0
3289,-113.636363636364,4,1,0,50,0,0
4700,352.941176470588,3,1,0,50,1,8
4701,352.941176470588,3,1,0,50,1,0
4701,-113.636363636364,3,1,0,50,0,0
7877,352.941176470588,4,1,0,50,1,0
7877,-113.636363636364,4,1,0,50,0,0
9288,352.941176470588,3,1,0,60,1,8
9288,-108.695652173913,3,1,0,60,0,8
9289,352.941176470588,3,1,0,60,1,0
9289,-108.695652173913,3,1,0,60,0,0
12465,352.941176470588,4,1,0,60,1,0
12465,-108.695652173913,4,1,0,60,0,0
13876,352.941176470588,3,1,0,60,1,8
13876,-108.695652173913,3,1,0,60,0,8
13877,352.941176470588,3,1,0,60,1,0
13877,-108.695652173913,3,1,0,60,0,0
17053,352.941176470588,4,1,0,60,1,0
17053,-108.695652173913,4,1,0,60,0,0
18464,352.941176470588,3,1,0,70,1,8
18464,-104.166666666667,3,1,0,70,0,8
18465,352.941176470588,3,1,0,70,1,0
18465,-104.166666666667,3,1,0,70,0,0
21641,352.941176470588,4,1,0,70,1,8
21641,-104.166666666667,4,1,0,70,0,8
21642,352.941176470588,4,1,0,70,1,0
21642,-104.166666666667,4,1,0,70,0,0
23053,352.941176470588,3,1,0,70,1,8
23054,352.941176470588,3,1,0,70,1,0
23054,-104.166666666667,3,1,0,70,0,0
26230,352.941176470588,4,1,0,70,1,0
26230,-104.166666666667,4,1,0,70,0,0
27641,352.941176470588,3,1,0,80,1,8
27641,-100,3,1,0,80,0,8
27642,352.941176470588,3,1,0,80,1,0
27642,-100,3,1,0,80,0,0
30818,352.941176470588,4,1,0,80,1,0
30818,-100,4,1,0,80,0,0
32229,352.941176470588,3,1,0,80,1,8
32229,-100,3,1,0,80,0,8
32230,352.941176470588,3,1,0,80,1,0
32230,-100,3,1,0,80,0,0
35406,352.941176470588,4,1,0,80,1,0
35406,-100,4,1,0,80,0,0
36817,352.941176470588,3,1,0,70,1,8
36817,-100,3,1,0,70,0,8
36818,352.941176470588,3,1,0,70,1,0
36818,-105.263157894737,3,1,0,70,0,0
39994,352.941176470588,4,1,0,70,1,8
39995,352.941176470588,4,1,0,70,1,0
39995,-105.263157894737,4,1,0,70,0,0
41406,352.941176470588,3,1,0,70,1,8
41406,-105.263157894737,3,1,0,70,0,8
41407,352.941176470588,3,1,0,70,1,0
41407,-105.263157894737,3,1,0,70,0,0
44583,352.941176470588,4,1,0,70,1,0
44583,-105.263157894737,4,1,0,70,0,0
45994,352.941176470588,3,1,0,70,1,8
45994,-105.263157894737,3,1,0,70,0,8
45995,352.941176470588,3,1,0,70,1,0
45995,-105.263157894737,3,1,0,70,0,0
49171,352.941176470588,4,1,0,70,1,0
49171,-105.263157894737,4,1,0,70,0,0
50582,352.941176470588,3,1,0,70,1,8
50582,-105.263157894737,3,1,0,70,0,8
50583,352.941176470588,3,1,0,70,1,0
50583,-105.263157894737,3,1,0,70,0,0
53759,352.941176470588,5,1,0,70,1,8
53760,352.941176470588,5,1,0,70,1,0
53760,-105.263157894737,5,1,0,70,0,0
55524,352.941176470588,4,1,0,70,1,0
55524,-100,4,1,0,70,0,0
66818,-95.2380952380952,4,1,0,100,0,9
70876,-95.2380952380952,4,1,0,100,0,0
71053,352.941176470588,3,1,0,20,1,8
71053,-95.2380952380952,3,1,0,20,0,8
72111,352.941176470588,4,1,0,100,1,9
72111,-95.2380952380952,4,1,0,100,0,9
72112,352.941176470588,4,1,0,100,1,1
72112,-95.2380952380952,4,1,0,100,0,1
76170,-95.2380952380952,4,1,0,100,0,0
76347,352.941176470588,5,1,0,20,1,8
76347,-95.2380952380952,5,1,0,20,0,8
77759,352.941176470588,4,1,0,100,1,1
77759,-95.2380952380952,4,1,0,100,0,1
87464,-95.2380952380952,4,1,0,90,0,0
88170,-100,4,1,0,70,0,0
89053,352.941176470588,3,1,0,80,1,0
89053,-100,3,1,0,80,0,0
92229,352.941176470588,4,1,0,80,1,0
92229,-100,4,1,0,80,0,0
93640,352.941176470588,3,1,0,80,1,8
93640,-100,3,1,0,80,0,8
93642,352.941176470588,3,1,0,80,1,0
93642,-100,3,1,0,80,0,0
96818,352.941176470588,4,1,0,80,1,0
96818,-100,4,1,0,80,0,0
98229,352.941176470588,3,1,0,70,1,8
98230,352.941176470588,3,1,0,70,1,0
98230,-100,3,1,0,70,0,0
98759,-101.010101010101,3,1,0,70,0,0
99288,-102.040816326531,3,1,0,70,0,0
99818,-103.092783505155,3,1,0,70,0,0
100347,-104.166666666667,3,1,0,70,0,0
100877,-105.263157894737,3,1,0,70,0,0
101406,352.941176470588,4,1,0,70,1,0
101406,-106.382978723404,4,1,0,70,0,0
101935,-107.52688172043,4,1,0,70,0,0
102464,-108.695652173913,4,1,0,70,0,0
102817,352.941176470588,3,1,0,70,1,8
102817,-108.695652173913,3,1,0,70,0,8
102818,352.941176470588,3,1,0,70,1,0
102818,-108.695652173913,3,1,0,70,0,0
105994,352.941176470588,4,1,0,70,1,8
105995,352.941176470588,4,1,0,70,1,0
105995,-108.695652173913,4,1,0,70,0,0
107406,352.941176470588,3,1,0,70,1,8
107406,-105.263157894737,3,1,0,70,0,8
107407,352.941176470588,3,1,0,70,1,0
107407,-105.263157894737,3,1,0,70,0,0
110583,352.941176470588,4,1,0,70,1,0
110583,-105.263157894737,4,1,0,70,0,0
111994,352.941176470588,3,1,0,70,1,8
111994,-105.263157894737,3,1,0,70,0,8
111995,352.941176470588,3,1,0,70,1,0
111995,-105.263157894737,3,1,0,70,0,0
115171,352.941176470588,5,1,0,70,1,0
115171,-105.263157894737,5,1,0,70,0,0
116935,352.941176470588,4,1,0,70,1,8
116935,-100,4,1,0,70,0,8
116936,352.941176470588,4,1,0,70,1,0
116936,-100,4,1,0,70,0,0
128230,-95.2380952380952,4,1,0,100,0,1
132288,-95.2380952380952,4,1,0,90,0,0
132465,352.941176470588,6,1,0,20,1,8
132465,-95.2380952380952,6,1,0,20,0,8
134230,352.941176470588,4,1,0,100,1,1
134230,-95.2380952380952,4,1,0,100,0,1
138288,-95.2380952380952,4,1,0,90,0,0
138465,352.941176470588,6,1,0,20,1,8
138465,-95.2380952380952,6,1,0,20,0,8
140582,352.941176470588,4,1,0,100,1,8
140583,352.941176470588,4,1,0,100,1,1
140583,-95.2380952380952,4,1,0,100,0,1
150465,352.941176470588,69,1,0,100,1,0
150465,-95.2380952380952,69,1,0,100,0,0
150553,-66.6666666666667,69,1,0,5,0,0
158229,-100,69,1,0,70,0,0
158391,352.941176470588,69,1,0,70,1,8
158921,352.941176470588,3,1,0,80,1,0
158921,-100,3,1,0,80,0,0
162097,352.941176470588,4,1,0,80,1,0
162097,-100,4,1,0,80,0,0
163333,352.941176470588,3,1,0,80,1,0
163333,-100,3,1,0,80,0,0
166509,352.941176470588,4,1,0,80,1,0
166509,-100,4,1,0,80,0,0
167745,352.941176470588,3,1,0,80,1,0
167745,-100,3,1,0,80,0,0
170921,352.941176470588,4,1,0,80,1,0
170921,-100,4,1,0,80,0,0
172156,352.941176470588,3,1,0,80,1,0
172156,-100,3,1,0,80,0,0
175332,352.941176470588,4,1,0,90,1,8
175333,352.941176470588,4,1,0,80,1,0
175333,-100,4,1,0,80,0,0
176568,352.941176470588,10,1,0,100,1,1
176568,-100,1,1,0,100,0,1
176920,-84.6705113066718,4,1,0,100,0,9
177273,-71.5042546792423,4,1,0,100,0,9
177626,-60.2505849964419,4,1,0,100,0,9
177979,-50.6714114148434,4,1,0,100,0,9
178332,-42.5462684191549,4,1,0,100,0,9
178685,-35.6750286374418,4,1,0,100,0,9
179038,-29.8788666911805,4,1,0,100,0,9
179391,-25,4,1,0,100,0,9
179567,352.941176470588,4,1,0,70,1,0
179567,-100,4,1,0,70,0,0
180978,-105.263157894737,4,1,0,70,0,0
192272,-100,4,1,0,70,0,0
204978,-95.2380952380952,4,1,0,100,0,1
209214,352.941176470588,7,1,0,20,1,8
209214,-95.2380952380952,7,1,0,20,0,8
211683,352.941176470588,4,1,0,100,1,1
211683,-95.2380952380952,4,1,0,100,0,1
215918,352.941176470588,8,1,0,20,1,8
215918,-95.2380952380952,8,1,0,20,0,8
218741,352.941176470588,4,1,0,100,1,1
218741,-95.2380952380952,4,1,0,100,0,1
228446,-95.2380952380952,4,1,0,90,0,0
229152,-100,4,1,0,70,0,0
230035,352.941176470588,3,1,0,80,1,8
230037,352.941176470588,3,1,0,80,1,0
230037,-100,3,1,0,80,0,0
233213,352.941176470588,4,1,0,80,1,0
233213,-100,4,1,0,80,0,8
234624,352.941176470588,3,1,0,80,1,0
234624,-100,3,1,0,80,0,0
237800,352.941176470588,4,1,0,80,1,0
237800,-100,4,1,0,80,0,0

[HitObjects]
197,227,113,5,8,1:0:0:0:
163,216,642,1,8,1:0:0:0:
163,216,1171,1,0,1:0:0:0:
163,216,1701,1,0,1:0:0:0:
163,216,2230,1,8,1:0:0:0:
163,216,2760,1,8,1:0:0:0:
163,216,3289,1,0,1:0:0:0:
226,175,4347,1,0,1:0:0:0:
197,227,4701,1,8,1:0:0:0:
163,216,5230,1,8,1:0:0:0:
163,216,5759,1,0,1:0:0:0:
163,216,6289,1,0,1:0:0:0:
163,216,6818,1,8,1:0:0:0:
163,216,7348,1,8,1:0:0:0:
163,216,7877,1,0,1:0:0:0:
226,175,8935,1,0,1:0:0:0:
197,227,9289,1,8,1:0:0:0:
163,216,9818,1,8,1:0:0:0:
163,216,10347,1,0,1:0:0:0:
163,216,10877,1,0,1:0:0:0:
163,216,11406,1,8,1:0:0:0:
163,216,11936,1,8,1:0:0:0:
163,216,12465,1,0,1:0:0:0:
154,163,13523,1,0,1:0:0:0:
197,227,13877,1,8,1:0:0:0:
163,216,14406,1,8,1:0:0:0:
163,216,14935,1,0,1:0:0:0:
163,216,15465,1,0,1:0:0:0:
163,216,15994,1,8,1:0:0:0:
163,216,16524,1,8,1:0:0:0:
163,216,17053,1,0,1:0:0:0:
154,163,18111,1,0,1:0:0:0:
93,198,18465,1,8,0:0:0:0:
128,154,18994,1,8,0:0:0:0:
94,118,19523,1,0,0:0:0:0:
94,118,20053,1,0,0:0:0:0:
94,118,20582,1,8,0:0:0:0:
94,118,21112,1,8,0:0:0:0:
94,118,21642,1,0,0:0:0:0:
47,177,22700,1,0,0:0:0:0:
96,146,23054,1,8,0:0:0:0:
99,127,23583,1,8,0:0:0:0:
99,127,24112,1,0,0:0:0:0:
99,127,24642,1,0,0:0:0:0:
99,127,25171,1,8,0:0:0:0:
99,127,25701,1,8,0:0:0:0:
99,127,26230,1,0,0:0:0:0:
56,163,27288,1,0,0:0:0:0:
198,150,27641,5,12,1:0:0:0:
115,158,28171,1,8,0:0:0:0:
115,158,28700,1,0,0:0:0:0:
115,158,29230,1,0,0:0:0:0:
115,158,29759,1,8,0:0:0:0:
115,158,30289,1,8,0:0:0:0:
115,158,30818,1,0,0:0:0:0:
119,165,31876,1,0,0:0:0:0:
119,165,32230,1,12,0:0:0:0:
108,168,32759,1,8,0:0:0:0:
108,168,33288,1,0,0:0:0:0:
108,168,33818,1,0,0:0:0:0:
108,168,34347,1,8,0:0:0:0:
108,168,34877,1,8,0:0:0:0:
108,168,35406,1,0,0:0:0:0:
69,172,36464,1,0,0:0:0:0:
195,217,36818,5,12,1:0:0:0:
195,217,37170,1,8,1:0:0:0:
195,217,37347,1,0,1:0:0:0:
195,217,37700,1,0,1:0:0:0:
195,217,37876,1,8,1:0:0:0:
195,217,38406,1,8,1:0:0:0:
195,217,38759,1,8,1:0:0:0:
195,217,38935,1,0,1:0:0:0:
195,217,39288,1,0,1:0:0:0:
195,217,39465,1,8,1:0:0:0:
195,217,39818,1,8,1:0:0:0:
195,217,39995,1,0,1:0:0:0:
134,204,41053,1,0,1:0:0:0:
144,168,41407,1,12,1:0:0:0:
247,271,41759,1,0,1:0:0:0:
247,271,41936,1,8,1:0:0:0:
247,271,42289,1,0,1:0:0:0:
247,271,42465,1,8,1:0:0:0:
247,271,42995,1,8,1:0:0:0:
247,271,43348,1,8,1:0:0:0:
247,271,43524,1,0,1:0:0:0:
197,162,43877,1,8,1:0:0:0:
247,271,44054,1,8,1:0:0:0:
247,271,44407,1,8,1:0:0:0:
247,271,44583,1,0,1:0:0:0:
135,199,45641,1,0,1:0:0:0:
228,181,45995,1,12,1:0:0:0:
243,249,46347,1,0,1:0:0:0:
243,249,46524,1,0,1:0:0:0:
243,249,46877,1,0,1:0:0:0:
243,249,47053,1,8,1:0:0:0:
243,249,47583,1,8,1:0:0:0:
243,249,47936,1,8,1:0:0:0:
243,249,48112,1,0,1:0:0:0:
243,249,48465,1,0,1:0:0:0:
243,249,48642,1,0,1:0:0:0:
243,249,48995,1,8,1:0:0:0:
243,249,49171,1,0,1:0:0:0:
139,181,50229,1,0,1:0:0:0:
240,248,50583,1,12,1:0:0:0:
240,248,50935,1,8,1:0:0:0:
240,248,51112,1,0,1:0:0:0:
240,248,51465,1,8,1:0:0:0:
240,248,51641,1,8,1:0:0:0:
240,248,52171,1,8,1:0:0:0:
240,248,52524,1,8,1:0:0:0:
240,248,52700,1,0,1:0:0:0:
240,248,53053,1,8,1:0:0:0:
240,248,53230,1,8,1:0:0:0:
240,248,53583,1,0,1:0:0:0:
240,248,53760,1,8,1:0:0:0:
180,220,54465,1,0,1:0:0:0:
260,159,54818,1,8,1:0:0:0:
180,220,54995,1,0,1:0:0:0:
180,220,55171,1,8,1:0:0:0:
171,170,55524,1,12,1:0:0:0:
180,206,55700,1,0,1:0:0:0:
246,217,56053,1,8,1:0:0:0:
246,217,56229,1,0,1:0:0:0:
172,161,56582,1,0,1:0:0:0:
172,161,56759,1,8,1:0:0:0:
172,161,57112,1,8,1:0:0:0:
172,161,57288,1,0,1:0:0:0:
178,159,57641,1,0,1:0:0:0:
257,138,57818,1,0,1:0:0:0:
257,138,58171,1,0,1:0:0:0:
215,115,58347,1,0,1:0:0:0:
215,115,58524,1,8,1:0:0:0:
215,115,58876,1,0,1:0:0:0:
215,115,59053,1,8,1:0:0:0:
215,115,59406,1,8,1:0:0:0:
215,115,59582,1,0,1:0:0:0:
215,115,59935,1,8,1:0:0:0:
215,115,60112,1,0,1:0:0:0:
236,96,60818,1,0,1:0:0:0:
223,88,61171,1,12,1:0:0:0:
200,164,61347,1,0,1:0:0:0:
200,164,61700,1,8,1:0:0:0:
200,164,61876,1,0,1:0:0:0:
200,164,62229,1,0,1:0:0:0:
200,164,62406,1,8,1:0:0:0:
200,164,62759,1,8,1:0:0:0:
200,164,62935,1,0,1:0:0:0:
188,166,63288,1,0,1:0:0:0:
188,166,63465,1,0,1:0:0:0:
183,182,63818,1,0,1:0:0:0:
183,182,63994,1,0,1:0:0:0:
183,182,64171,1,8,1:0:0:0:
181,182,64523,1,0,1:0:0:0:
183,182,64700,1,8,1:0:0:0:
183,182,65053,1,8,1:0:0:0:
104,147,65229,1,8,1:0:0:0:
155,188,65582,1,8,0:0:0:0:
159,187,65935,1,8,0:0:0:0:
104,147,66112,1,0,1:0:0:0:
271,201,66818,5,12,1:0:0:0:
271,201,67171,1,0,1:0:0:0:
271,201,67347,1,8,1:0:0:0:
271,201,67700,1,8,1:0:0:0:
271,201,68053,1,0,1:0:0:0:
271,201,68406,1,8,1:0:0:0:
271,201,68759,1,0,1:0:0:0:
271,201,69112,1,8,1:0:0:0:
271,201,69288,1,8,1:0:0:0:
153,183,69465,1,0,1:0:0:0:
271,201,69641,1,8,1:0:0:0:
271,201,69994,1,8,1:0:0:0:
271,201,70171,1,0,1:0:0:0:
271,201,70523,1,0,1:0:0:0:
271,201,70876,1,8,1:0:0:0:
168,158,72112,1,12,1:0:0:0:
210,142,72464,1,8,1:0:0:0:
210,142,72641,1,0,1:0:0:0:
210,142,72994,1,0,1:0:0:0:
210,142,73347,1,8,1:0:0:0:
210,142,73700,1,8,1:0:0:0:
265,133,74053,1,0,1:0:0:0:
265,133,74406,1,0,1:0:0:0:
265,133,74582,1,8,1:0:0:0:
265,133,74759,1,8,1:0:0:0:
265,133,75112,1,0,1:0:0:0:
265,133,75464,1,8,1:0:0:0:
265,133,75817,1,8,1:0:0:0:
265,133,75994,1,8,1:0:0:0:
265,133,76170,1,0,1:0:0:0:
124,126,77759,1,12,1:0:0:0:
124,126,78111,1,8,1:0:0:0:
124,126,78288,1,0,1:0:0:0:
124,126,78641,1,0,1:0:0:0:
124,126,78994,1,8,1:0:0:0:
124,126,79347,1,8,1:0:0:0:
124,126,79700,1,0,1:0:0:0:
124,126,80053,1,8,1:0:0:0:
124,126,80229,1,8,1:0:0:0:
124,126,80406,1,0,1:0:0:0:
124,126,80582,1,0,1:0:0:0:
124,126,80935,1,0,1:0:0:0:
124,126,81111,1,0,1:0:0:0:
124,126,81464,1,8,1:0:0:0:
124,126,81817,1,8,1:0:0:0:
138,113,82700,1,0,1:0:0:0:
138,113,82876,1,0,1:0:0:0:
138,113,83053,1,8,1:0:0:0:
138,113,83229,1,8,1:0:0:0:
138,113,83582,1,8,1:0:0:0:
86,106,83759,1,0,1:0:0:0:
138,113,83935,1,0,1:0:0:0:
138,113,84288,1,0,1:0:0:0:
138,113,84641,1,8,1:0:0:0:
138,113,84994,1,8,1:0:0:0:
138,113,85170,1,8,1:0:0:0:
138,113,85347,1,0,1:0:0:0:
138,113,85700,1,8,1:0:0:0:
69,105,85876,1,8,1:0:0:0:
138,113,86053,1,8,1:0:0:0:
69,105,86406,1,8,1:0:0:0:
69,105,86759,1,0,1:0:0:0:
69,105,87111,1,8,1:0:0:0:
69,105,87464,1,0,1:0:0:0:
69,105,88170,1,0,1:0:0:0:
69,105,88347,1,8,1:0:0:0:
69,105,88523,1,0,1:0:0:0:
69,105,88700,1,8,1:0:0:0:
198,150,89053,1,12,1:0:0:0:
241,120,89582,5,8,1:0:0:0:
126,185,90111,1,0,0:0:0:0:
126,185,90641,1,0,0:0:0:0:
126,185,91170,1,8,0:0:0:0:
126,185,91700,1,8,0:0:0:0:
126,185,92229,1,0,0:0:0:0:
241,120,93287,1,0,1:0:0:0:
198,150,93640,1,12,1:0:0:0:
91,200,94171,1,8,0:0:0:0:
91,200,94700,1,0,0:0:0:0:
91,200,95230,1,0,0:0:0:0:
91,200,95759,1,8,0:0:0:0:
91,200,96289,1,8,0:0:0:0:
208,148,96818,1,0,1:0:0:0:
241,120,97876,1,0,1:0:0:0:
236,229,98229,1,8,1:0:0:0:
260,201,98759,1,8,1:0:0:0:
260,201,99288,1,0,1:0:0:0:
260,201,99818,1,0,1:0:0:0:
152,157,100347,1,8,1:0:0:0:
152,157,100877,1,8,1:0:0:0:
152,157,101406,1,0,1:0:0:0:
171,151,102464,1,0,1:0:0:0:
236,229,102818,1,8,1:0:0:0:
260,201,103347,1,8,1:0:0:0:
260,201,103876,1,0,1:0:0:0:
260,201,104406,1,0,1:0:0:0:
152,157,104935,1,8,1:0:0:0:
152,157,105465,1,8,1:0:0:0:
152,157,105995,1,0,1:0:0:0:
116,280,107053,1,0,1:0:0:0:
228,181,107407,1,12,1:0:0:0:
243,249,107759,1,0,1:0:0:0:
243,249,107936,1,8,1:0:0:0:
243,249,108289,1,0,1:0:0:0:
243,249,108465,1,8,1:0:0:0:
243,249,108995,1,8,1:0:0:0:
243,249,109348,1,8,1:0:0:0:
243,249,109524,1,0,1:0:0:0:
243,249,109877,1,0,1:0:0:0:
243,249,110054,1,8,1:0:0:0:
243,249,110407,1,8,1:0:0:0:
243,249,110583,1,0,1:0:0:0:
139,181,111641,1,0,1:0:0:0:
240,248,111995,1,12,1:0:0:0:
240,248,112347,1,0,1:0:0:0:
240,248,112524,1,8,1:0:0:0:
240,248,112877,1,8,1:0:0:0:
240,248,113053,1,8,1:0:0:0:
240,248,113583,1,8,1:0:0:0:
240,248,113936,1,8,1:0:0:0:
240,248,114112,1,0,1:0:0:0:
240,248,114465,1,8,1:0:0:0:
240,248,114642,1,8,1:0:0:0:
240,248,114995,1,0,1:0:0:0:
240,248,115171,1,8,1:0:0:0:
180,220,115876,1,0,1:0:0:0:
260,159,116229,1,8,1:0:0:0:
180,220,116406,1,0,1:0:0:0:
180,220,116582,1,8,1:0:0:0:
171,170,116935,1,12,1:0:0:0:
180,206,117112,1,0,1:0:0:0:
246,217,117465,1,0,1:0:0:0:
246,217,117641,1,0,1:0:0:0:
172,161,117994,1,0,1:0:0:0:
172,161,118171,1,0,1:0:0:0:
172,161,118524,1,0,1:0:0:0:
172,161,118700,1,0,1:0:0:0:
178,159,119053,1,0,1:0:0:0:
257,138,119230,1,0,1:0:0:0:
257,138,119583,1,0,1:0:0:0:
215,115,119759,1,0,1:0:0:0:
215,115,119936,1,0,1:0:0:0:
215,115,120288,1,0,1:0:0:0:
215,115,120465,1,0,1:0:0:0:
215,115,120818,1,0,1:0:0:0:
215,115,120994,1,0,1:0:0:0:
215,115,121347,1,0,1:0:0:0:
215,115,121524,1,0,1:0:0:0:
236,96,122230,1,0,1:0:0:0:
223,88,122583,1,12,1:0:0:0:
200,164,122759,1,0,1:0:0:0:
200,164,123112,1,0,1:0:0:0:
200,164,123288,1,0,1:0:0:0:
200,164,123641,1,0,1:0:0:0:
200,164,123818,1,0,1:0:0:0:
200,164,124171,1,0,1:0:0:0:
200,164,124347,1,0,1:0:0:0:
188,166,124700,1,0,1:0:0:0:
188,166,124877,1,0,1:0:0:0:
183,182,125230,1,0,1:0:0:0:
183,182,125406,1,0,1:0:0:0:
183,182,125583,1,0,1:0:0:0:
181,182,125936,1,0,1:0:0:0:
183,182,126112,1,0,1:0:0:0:
183,182,126465,1,8,1:0:0:0:
104,147,126641,1,8,1:0:0:0:
148,90,126994,1,8,0:0:0:0:
148,90,127347,1,8,0:0:0:0:
148,90,127524,1,8,0:0:0:0:
271,201,128230,5,12,1:0:0:0:
271,201,128583,1,8,1:0:0:0:
271,201,128759,1,0,1:0:0:0:
271,201,129112,1,0,1:0:0:0:
271,201,129465,1,8,1:0:0:0:
271,201,129818,1,8,1:0:0:0:
271,201,130171,1,0,1:0:0:0:
271,201,130524,1,8,1:0:0:0:
153,183,130877,1,0,1:0:0:0:
271,201,131053,1,8,1:0:0:0:
271,201,131406,1,8,1:0:0:0:
271,201,131583,1,0,1:0:0:0:
271,201,131936,1,0,1:0:0:0:
271,201,132288,1,8,1:0:0:0:
168,158,134230,1,12,1:0:0:0:
210,142,134582,1,8,1:0:0:0:
210,142,134759,1,0,1:0:0:0:
210,142,135112,1,0,1:0:0:0:
210,142,135465,1,8,1:0:0:0:
210,142,135818,1,8,1:0:0:0:
265,133,136171,1,0,1:0:0:0:
265,133,136524,1,0,1:0:0:0:
265,133,136700,1,8,1:0:0:0:
265,133,136877,1,8,1:0:0:0:
265,133,137230,1,0,1:0:0:0:
265,133,137582,1,8,1:0:0:0:
265,133,137935,1,8,1:0:0:0:
265,133,138112,1,8,1:0:0:0:
265,133,138288,1,0,1:0:0:0:
124,126,140583,1,12,1:0:0:0:
124,126,140935,1,8,1:0:0:0:
124,126,141112,1,0,1:0:0:0:
124,126,141465,1,0,1:0:0:0:
124,126,141818,1,8,1:0:0:0:
124,126,142171,1,8,1:0:0:0:
124,126,142524,1,0,1:0:0:0:
124,126,142877,1,8,1:0:0:0:
124,126,143053,1,8,1:0:0:0:
124,126,143230,1,0,1:0:0:0:
124,126,143406,1,0,1:0:0:0:
124,126,143759,1,0,1:0:0:0:
124,126,143935,1,0,1:0:0:0:
124,126,144288,1,8,1:0:0:0:
124,126,144641,1,8,1:0:0:0:
138,113,145524,1,0,1:0:0:0:
138,113,145700,1,0,1:0:0:0:
138,113,145877,1,8,1:0:0:0:
138,113,146053,1,8,1:0:0:0:
138,113,146406,1,8,1:0:0:0:
86,106,146583,1,0,1:0:0:0:
138,113,146759,1,0,1:0:0:0:
138,113,147112,1,0,1:0:0:0:
138,113,147465,1,8,1:0:0:0:
138,113,147818,1,8,1:0:0:0:
138,113,147994,1,8,1:0:0:0:
138,113,148171,1,0,1:0:0:0:
138,113,148524,1,8,1:0:0:0:
69,105,148700,1,8,1:0:0:0:
138,113,148877,1,8,1:0:0:0:
69,105,149230,1,8,1:0:0:0:
69,105,149583,1,0,1:0:0:0:
69,105,149935,1,8,1:0:0:0:
69,105,150288,1,8,1:0:0:0:
218,206,150465,1,4,1:0:0:0:
214,278,158391,5,0,1:0:0:0:
210,284,158567,1,8,1:0:0:0:
219,191,158921,1,12,1:0:0:0:
138,121,159450,1,8,1:0:0:0:
138,121,159979,1,0,1:0:0:0:
138,121,160509,1,0,1:0:0:0:
138,121,161038,1,8,1:0:0:0:
138,121,161568,1,8,1:0:0:0:
138,121,162097,1,0,1:0:0:0:
96,69,162979,1,0,0:0:0:0:
91,79,163155,1,0,0:0:0:0:
219,191,163333,1,12,1:0:0:0:
44,159,163862,1,8,1:0:0:0:
65,155,164391,1,0,1:0:0:0:
65,155,164921,1,0,1:0:0:0:
65,155,165450,1,8,1:0:0:0:
65,155,165980,1,8,1:0:0:0:
65,155,166509,1,0,1:0:0:0:
116,144,167391,1,0,1:0:0:0:
201,296,167567,1,0,0:0:0:0:
158,135,167745,1,12,1:0:0:0:
152,130,168274,1,8,1:0:0:0:
152,130,168803,1,0,1:0:0:0:
152,130,169333,1,0,1:0:0:0:
152,130,169862,1,8,1:0:0:0:
152,130,170392,1,8,1:0:0:0:
152,130,170921,1,0,1:0:0:0:
116,144,171803,1,0,1:0:0:0:
129,214,171979,1,0,0:0:0:0:
219,191,172156,1,12,1:0:0:0:
121,143,172685,1,8,1:0:0:0:
121,143,173214,1,0,1:0:0:0:
121,143,173744,1,0,1:0:0:0:
121,143,174273,1,8,1:0:0:0:
121,143,174803,1,8,1:0:0:0:
121,143,175333,1,0,1:0:0:0:
116,144,176215,1,0,1:0:0:0:
140,232,176391,1,0,0:0:0:0:
146,204,176568,2,4,L|199:182,33,35,4|4|4|4|4|4|4|4|4|4|4|4|4|4|4|4|4|4|4|4|4|4|4|4|4|4|4|4|4|4|4|4|4|4,1:0|1:0|1:0|1:0|1:0|1:0|1:0|1:0|1:0|1:0|1:0|1:0|1:0|1:0|1:0|1:0|1:0|1:0|1:0|1:0|1:0|1:0|1:0|1:0|1:0|1:0|1:0|1:0|1:0|1:0|1:0|1:0|1:0|1:0,1:0:0:0:
210,272,180978,1,0,1:0:0:0:
210,272,181331,1,0,1:0:0:0:
210,272,181508,1,8,1:0:0:0:
210,272,181861,1,8,1:0:0:0:
210,272,182214,1,0,1:0:0:0:
210,272,182567,1,0,1:0:0:0:
210,272,182919,1,8,1:0:0:0:
210,272,183272,1,8,1:0:0:0:
210,272,183625,1,0,1:0:0:0:
210,272,183978,1,0,1:0:0:0:
210,272,184331,1,8,1:0:0:0:
210,272,184684,1,8,1:0:0:0:
210,272,185037,1,0,1:0:0:0:
210,272,186625,1,0,1:0:0:0:
210,272,186978,1,0,1:0:0:0:
210,272,187155,1,8,1:0:0:0:
210,272,187508,1,8,1:0:0:0:
210,272,187861,1,0,1:0:0:0:
210,272,188214,1,0,1:0:0:0:
210,272,188567,1,8,1:0:0:0:
210,272,188919,1,8,1:0:0:0:
210,272,189272,1,0,1:0:0:0:
210,272,189625,1,0,1:0:0:0:
210,272,189978,1,8,1:0:0:0:
210,272,190331,1,0,1:0:0:0:
210,272,190684,1,8,1:0:0:0:
210,167,192272,1,0,1:0:0:0:
210,167,192625,1,8,1:0:0:0:
210,167,192802,1,8,1:0:0:0:
210,167,193155,1,0,1:0:0:0:
210,167,193508,1,8,1:0:0:0:
210,167,193861,1,8,1:0:0:0:
210,167,194214,1,0,1:0:0:0:
210,167,194567,1,0,1:0:0:0:
210,167,194919,1,0,1:0:0:0:
210,167,195096,1,8,1:0:0:0:
210,167,195449,1,8,1:0:0:0:
210,167,195625,1,0,1:0:0:0:
210,167,195978,1,0,1:0:0:0:
210,167,196331,1,8,1:0:0:0:
316,226,197214,1,0,1:0:0:0:
316,226,197390,1,0,1:0:0:0:
316,226,197567,1,8,1:0:0:0:
316,226,197743,1,8,1:0:0:0:
316,226,198096,1,8,1:0:0:0:
316,226,198272,1,8,1:0:0:0:
316,226,198449,1,0,1:0:0:0:
316,226,198802,1,8,1:0:0:0:
316,226,199155,1,8,1:0:0:0:
316,226,199508,1,8,1:0:0:0:
316,226,199684,1,0,1:0:0:0:
316,226,199861,1,0,1:0:0:0:
316,226,200214,1,8,1:0:0:0:
316,226,200390,1,8,1:0:0:0:
316,226,200567,1,8,1:0:0:0:
316,226,200919,1,8,1:0:0:0:
316,226,201272,1,0,1:0:0:0:
316,226,201625,1,8,1:0:0:0:
316,226,201978,1,0,1:0:0:0:
271,201,204978,5,12,1:0:0:0:
271,201,205331,1,8,1:0:0:0:
271,201,205508,1,0,1:0:0:0:
271,201,205861,1,0,1:0:0:0:
271,201,206214,1,8,1:0:0:0:
271,201,206566,1,8,1:0:0:0:
271,201,206919,1,0,1:0:0:0:
271,201,207272,1,8,1:0:0:0:
271,201,207449,1,0,1:0:0:0:
153,183,207625,1,0,1:0:0:0:
271,201,207802,1,8,1:0:0:0:
271,201,208155,1,8,1:0:0:0:
271,201,208331,1,0,1:0:0:0:
271,201,208684,1,0,1:0:0:0:
271,201,209037,1,8,1:0:0:0:
168,158,211683,1,12,1:0:0:0:
210,142,212035,1,8,1:0:0:0:
210,142,212212,1,0,1:0:0:0:
210,142,212565,1,0,1:0:0:0:
210,142,212918,1,8,1:0:0:0:
210,142,213271,1,8,1:0:0:0:
265,133,213624,1,0,1:0:0:0:
265,133,213977,1,0,1:0:0:0:
265,133,214153,1,8,1:0:0:0:
265,133,214330,1,8,1:0:0:0:
265,133,214683,1,0,1:0:0:0:
265,133,215035,1,8,1:0:0:0:
265,133,215388,1,8,1:0:0:0:
265,133,215565,1,8,1:0:0:0:
265,133,215741,1,0,1:0:0:0:
124,126,218741,5,12,1:0:0:0:
124,126,219093,1,8,1:0:0:0:
124,126,219270,1,0,1:0:0:0:
124,126,219623,1,0,1:0:0:0:
124,126,219976,1,8,1:0:0:0:
124,126,220329,1,8,1:0:0:0:
124,126,220682,1,0,1:0:0:0:
124,126,221035,1,8,1:0:0:0:
124,126,221211,1,8,1:0:0:0:
124,126,221388,1,0,1:0:0:0:
124,126,221564,1,8,1:0:0:0:
124,126,221917,1,0,1:0:0:0:
124,126,222093,1,0,1:0:0:0:
124,126,222446,1,8,1:0:0:0:
124,126,222799,1,8,1:0:0:0:
138,113,223682,1,0,1:0:0:0:
138,113,223858,1,0,1:0:0:0:
138,113,224035,1,8,1:0:0:0:
138,113,224211,1,8,1:0:0:0:
138,113,224564,1,8,1:0:0:0:
86,106,224741,1,0,1:0:0:0:
138,113,224917,1,0,1:0:0:0:
138,113,225270,1,0,1:0:0:0:
138,113,225623,1,8,1:0:0:0:
138,113,225976,1,8,1:0:0:0:
138,113,226152,1,8,1:0:0:0:
138,113,226329,1,0,1:0:0:0:
138,113,226682,1,8,1:0:0:0:
69,105,226858,1,8,1:0:0:0:
138,113,227035,1,8,1:0:0:0:
69,105,227388,1,8,1:0:0:0:
69,105,227741,1,0,1:0:0:0:
69,105,228093,1,8,1:0:0:0:
69,105,228446,1,0,1:0:0:0:
156,168,229152,1,0,1:0:0:0:
156,168,229329,1,8,1:0:0:0:
156,168,229505,1,0,1:0:0:0:
156,168,229682,1,8,1:0:0:0:
198,150,230037,5,12,1:0:0:0:
282,161,230566,1,8,0:0:0:0:
282,161,231095,1,0,0:0:0:0:
282,161,231625,1,0,0:0:0:0:
282,161,232154,1,8,0:0:0:0:
282,161,232684,1,8,0:0:0:0:
282,161,233213,1,0,0:0:0:0:
56,178,234271,1,0,0:0:0:0:
198,150,234624,1,12,1:0:0:0:
287,113,235153,1,8,0:0:0:0:
287,113,235682,1,0,0:0:0:0:
287,113,236212,1,0,0:0:0:0:
287,113,236741,1,8,0:0:0:0:
287,113,237271,1,8,0:0:0:0:
287,113,237800,1,0,0:0:0:0:
177,186,238152,1,0,1:0:0:0:
177,186,238329,1,0,1:0:0:0:
177,186,238505,1,0,1:0:0:0:
177,186,238682,1,0,1:0:0:0:
177,186,238858,1,8,1:0:0:0:
