osu file format v14

[General]
AudioFilename: audio.mp3
AudioLeadIn: 0
PreviewTime: 89585
Countdown: 0
SampleSet: Soft
StackLeniency: 0
Mode: 0
LetterboxInBreaks: 0
WidescreenStoryboard: 0

[Editor]
Bookmarks: 18883,37759,56635,61354,80231,89669,108545,110905,129781,139220,158096,176972,186411,195849,214725,219444,238321
DistanceSpacing: 1.7
BeatDivisor: 4
GridSize: 16
TimelineZoom: 1.5

[Metadata]
Title:bath room
TitleUnicode:bath room
Artist:Maison book girl
ArtistUnicode:Maison book girl
Creator:newton-
Version:falling girl
Source:
Tags:liyuu aquivery -rielle- deppyforce 矢川葵 yagawa aoi コショージメグミ koshouji koshoji coshoji coshouji megumi 井上唯 inoue yui 和田輪 wada rin tokumajapan japanese pop jpop idol banger bonanza 2022 tournament b9 bathroom
BeatmapID:3667847
BeatmapSetID:1790018

[Difficulty]
HPDrainRate:6
CircleSize:4
OverallDifficulty:8
ApproachRate:6
SliderMultiplier:1.6
SliderTickRate:1

[Events]
//Background and Video events
0,0,"bathroom.jpg",0,0
//Break Periods
2,177172,185192
//Storyboard Layer 0 (Background)
//Storyboard Layer 1 (Fail)
//Storyboard Layer 2 (Pass)
//Storyboard Layer 3 (Foreground)
//Storyboard Layer 4 (Overlay)
//Storyboard Sound Samples

[TimingPoints]
7,337.078651685393,7,2,2,50,1,0
9445,-166.666666666667,7,2,2,60,0,0
9950,-166.666666666667,7,2,2,5,0,0
10119,-166.666666666667,7,2,2,60,0,0
12310,-166.666666666667,7,2,2,5,0,0
12479,-166.666666666667,7,2,2,60,0,0
14669,-166.666666666667,7,2,2,5,0,0
14838,-166.666666666667,7,2,2,60,0,0
17028,-166.666666666667,7,2,2,5,0,0
17198,-166.666666666667,7,2,2,60,0,0
18883,-100,7,2,2,70,0,0
19557,-83.3333333333333,7,2,2,70,0,0
20062,-100,7,2,2,70,0,0
21916,-83.3333333333333,7,2,2,70,0,0
22421,-100,7,2,2,70,0,0
24275,-83.3333333333333,7,2,2,70,0,0
24781,-100,7,2,2,70,0,0
26635,-83.3333333333333,7,2,2,70,0,0
27141,-100,7,2,2,70,0,0
28995,-83.3333333333333,7,2,2,70,0,0
29500,-100,7,2,2,70,0,0
31354,-83.3333333333333,7,2,2,70,0,0
31860,-100,7,2,2,70,0,0
33714,-83.3333333333333,7,2,2,70,0,0
34219,-100,7,2,2,70,0,0
36074,-83.3333333333333,7,2,2,70,0,0
36579,-100,7,2,2,70,0,0
38433,-83.3333333333333,7,2,2,70,0,0
38938,-100,7,2,2,70,0,0
56467,-166.666666666667,7,2,2,70,0,0
56635,-166.666666666667,7,2,2,50,0,0
61354,-100,7,2,2,70,0,0
80062,-166.666666666667,7,2,2,70,0,0
80231,-166.666666666667,7,2,1,60,0,0
80568,-250,7,2,1,60,0,0
80820,-250,7,2,1,5,0,0
80905,-166.666666666667,7,2,1,60,0,0
81157,-166.666666666667,7,2,1,5,0,0
81242,-250,7,2,1,60,0,0
81494,-250,7,2,1,5,0,0
81579,-125,7,2,1,60,0,0
81831,-125,7,2,1,5,0,0
81916,-250,7,2,1,60,0,0
82168,-250,7,2,1,5,0,0
82253,-100,7,2,1,60,0,0
82422,-166.666666666667,7,2,1,5,0,0
82590,-166.666666666667,7,2,1,60,0,0
82928,-250,7,2,1,60,0,0
83180,-250,7,2,1,5,0,0
83265,-166.666666666667,7,2,1,60,0,0
83517,-166.666666666667,7,2,1,5,0,0
83602,-250,7,2,1,60,0,0
83854,-250,7,2,1,5,0,0
83939,-125,7,2,1,60,0,0
84191,-125,7,2,1,5,0,0
84276,-250,7,2,1,60,0,0
84528,-250,7,2,1,5,0,0
84613,-100,7,2,1,60,0,0
84781,-100,7,2,1,5,0,0
84950,-100,7,2,1,60,0,0
85287,-250,7,2,1,60,0,0
85539,-250,7,2,1,5,0,0
85624,-166.666666666667,7,2,1,60,0,0
85876,-166.666666666667,7,2,1,5,0,0
85961,-250,7,2,1,60,0,0
86213,-250,7,2,1,5,0,0
86298,-125,7,2,1,60,0,0
86550,-125,7,2,1,5,0,0
86635,-250,7,2,1,60,0,0
86887,-250,7,2,1,5,0,0
86972,-100,7,2,1,60,0,0
87140,-100,7,2,1,5,0,0
87309,-100,7,2,1,60,0,0
87647,-250,7,2,1,60,0,0
87899,-250,7,2,1,5,0,0
87984,-166.666666666667,7,2,1,60,0,0
88236,-166.666666666667,7,2,1,5,0,0
88321,-250,7,2,1,60,0,0
88573,-250,7,2,1,5,0,0
88658,-83.3333333333333,7,2,1,60,0,0
88995,-166.666666666667,7,2,1,60,0,0
89332,-100,7,2,1,60,0,0
89669,-50,7,2,2,80,0,0
89921,-50,7,2,2,5,0,0
90006,-50,7,2,2,80,0,0
90258,-50,7,2,2,5,0,0
90343,-33.3333333333333,7,2,2,80,0,0
90849,-250,7,2,2,80,0,0
91101,-250,7,2,2,5,0,0
91186,-66.6666666666667,7,2,2,80,0,0
91270,-66.6666666666667,7,2,2,5,0,0
91354,-66.6666666666667,7,2,2,80,0,0
91438,-66.6666666666667,7,2,2,5,0,0
91523,-66.6666666666667,7,2,2,80,0,0
91607,-66.6666666666667,7,2,2,5,0,0
91691,-133.333333333333,7,2,2,80,0,0
92029,-50,7,2,2,80,0,0
92113,-50,7,2,2,5,0,0
92197,-50,7,2,2,80,0,0
92281,-50,7,2,2,5,0,0
92366,-50,7,2,2,80,0,0
92450,-50,7,2,2,5,0,0
92534,-50,7,2,2,80,0,0
92618,-50,7,2,2,5,0,0
92703,-50,7,2,2,80,0,0
92787,-50,7,2,2,5,0,0
92871,-50,7,2,2,80,0,0
92955,-50,7,2,2,5,0,0
93040,-50,7,2,2,80,0,0
93124,-50,7,2,2,5,0,0
93208,-250,7,2,2,80,0,0
93460,-250,7,2,2,5,0,0
93545,-66.6666666666667,7,2,2,80,0,0
93629,-66.6666666666667,7,2,2,5,0,0
93713,-66.6666666666667,7,2,2,80,0,0
93797,-66.6666666666667,7,2,2,5,0,0
93882,-66.6666666666667,7,2,2,80,0,0
93966,-66.6666666666667,7,2,2,5,0,0
94050,-133.333333333333,7,2,2,80,0,0
94388,-50,7,2,2,80,0,0
94640,-50,7,2,2,5,0,0
94725,-50,7,2,2,80,0,0
94977,-50,7,2,2,5,0,0
95062,-33.3333333333333,7,2,2,80,0,0
95568,-250,7,2,2,80,0,0
95820,-250,7,2,2,5,0,0
95905,-66.6666666666667,7,2,2,80,0,0
95989,-66.6666666666667,7,2,2,5,0,0
96073,-66.6666666666667,7,2,2,80,0,0
96157,-66.6666666666667,7,2,2,5,0,0
96242,-66.6666666666667,7,2,2,80,0,0
96326,-66.6666666666667,7,2,2,5,0,0
96410,-133.333333333333,7,2,2,80,0,0
96748,-50,7,2,2,80,0,0
96832,-50,7,2,2,5,0,0
96916,-50,7,2,2,80,0,0
97000,-50,7,2,2,5,0,0
97085,-50,7,2,2,80,0,0
97169,-50,7,2,2,5,0,0
97253,-50,7,2,2,80,0,0
97337,-50,7,2,2,5,0,0
97421,-50,7,2,2,80,0,0
97505,-50,7,2,2,5,0,0
97590,-50,7,2,2,80,0,0
97674,-50,7,2,2,5,0,0
97759,-50,7,2,2,80,0,0
97843,-50,7,2,2,5,0,0
97927,-250,7,2,2,80,0,0
98179,-250,7,2,2,5,0,0
98264,-66.6666666666667,7,2,2,80,0,0
98348,-66.6666666666667,7,2,2,5,0,0
98432,-66.6666666666667,7,2,2,80,0,0
98516,-66.6666666666667,7,2,2,5,0,0
98601,-66.6666666666667,7,2,2,80,0,0
98685,-66.6666666666667,7,2,2,5,0,0
98769,-133.333333333333,7,2,2,80,0,0
99107,-50,7,2,2,80,0,0
99359,-50,7,2,2,5,0,0
99444,-50,7,2,2,80,0,0
99696,-50,7,2,2,5,0,0
99781,-33.3333333333333,7,2,2,80,0,0
100287,-250,7,2,2,80,0,0
100539,-250,7,2,2,5,0,0
100624,-66.6666666666667,7,2,2,80,0,0
100708,-66.6666666666667,7,2,2,5,0,0
100792,-66.6666666666667,7,2,2,80,0,0
100876,-66.6666666666667,7,2,2,5,0,0
100961,-66.6666666666667,7,2,2,80,0,0
101045,-66.6666666666667,7,2,2,5,0,0
101129,-133.333333333333,7,2,2,80,0,0
101467,-50,7,2,2,80,0,0
101551,-50,7,2,2,5,0,0
101635,-50,7,2,2,80,0,0
101719,-50,7,2,2,5,0,0
101804,-50,7,2,2,80,0,0
101888,-50,7,2,2,5,0,0
101972,-50,7,2,2,80,0,0
102056,-50,7,2,2,5,0,0
102140,-50,7,2,2,80,0,0
102224,-50,7,2,2,5,0,0
102309,-50,7,2,2,80,0,0
102393,-50,7,2,2,5,0,0
102478,-50,7,2,2,80,0,0
102562,-50,7,2,2,5,0,0
102647,-250,7,2,2,80,0,0
102899,-250,7,2,2,5,0,0
102984,-66.6666666666667,7,2,2,80,0,0
103068,-66.6666666666667,7,2,2,5,0,0
103152,-66.6666666666667,7,2,2,80,0,0
103236,-66.6666666666667,7,2,2,5,0,0
103321,-66.6666666666667,7,2,2,80,0,0
103405,-66.6666666666667,7,2,2,5,0,0
103489,-133.333333333333,7,2,2,80,0,0
103826,-50,7,2,2,80,0,0
104078,-50,7,2,2,5,0,0
104163,-50,7,2,2,80,0,0
104415,-50,7,2,2,5,0,0
104500,-33.3333333333333,7,2,2,80,0,0
105006,-250,7,2,2,80,0,0
105258,-250,7,2,2,5,0,0
105343,-66.6666666666667,7,2,2,80,0,0
105427,-66.6666666666667,7,2,2,5,0,0
105511,-66.6666666666667,7,2,2,80,0,0
105595,-66.6666666666667,7,2,2,5,0,0
105680,-66.6666666666667,7,2,2,80,0,0
105764,-66.6666666666667,7,2,2,5,0,0
105848,-133.333333333333,7,2,2,80,0,0
106186,-50,7,2,2,80,0,0
106271,-50,7,2,2,5,0,0
106355,-50,7,2,2,80,0,0
106439,-50,7,2,2,5,0,0
106523,-50,7,2,2,80,0,0
106607,-50,7,2,2,5,0,0
106691,-50,7,2,2,80,0,0
106775,-50,7,2,2,5,0,0
106860,-50,7,2,2,80,0,0
106944,-50,7,2,2,5,0,0
107029,-50,7,2,2,80,0,0
107113,-50,7,2,2,5,0,0
107197,-50,7,2,2,80,0,0
107281,-50,7,2,2,5,0,0
107366,-250,7,2,2,80,0,0
107450,-250,7,2,2,5,0,0
107534,-250,7,2,2,80,0,0
107618,-250,7,2,2,5,0,0
107703,-66.6666666666667,7,2,2,80,0,0
107787,-66.6666666666667,7,2,2,5,0,0
107871,-66.6666666666667,7,2,2,80,0,0
107955,-66.6666666666667,7,2,2,5,0,0
108040,-66.6666666666667,7,2,2,80,0,0
108124,-66.6666666666667,7,2,2,5,0,0
108208,-133.333333333333,7,2,2,80,0,0
108545,-166.666666666667,7,2,2,50,0,0
109050,-166.666666666667,7,2,2,5,0,0
109220,-166.666666666667,7,2,2,50,0,0
110905,-100,7,2,2,70,0,0
129613,-166.666666666667,7,2,2,70,0,0
129781,-166.666666666667,7,2,1,50,0,0
130118,-250,7,2,1,50,0,0
130370,-250,7,2,1,5,0,0
130456,-166.666666666667,7,2,1,50,0,0
130708,-166.666666666667,7,2,1,5,0,0
130793,-250,7,2,1,50,0,0
131045,-250,7,2,1,5,0,0
131130,-125,7,2,1,50,0,0
131382,-125,7,2,1,5,0,0
131467,-250,7,2,1,50,0,0
131719,-250,7,2,1,5,0,0
131804,-100,7,2,1,50,0,0
131972,-100,7,2,1,5,0,0
132141,-100,7,2,1,50,0,0
132478,-250,7,2,1,50,0,0
132730,-250,7,2,1,5,0,0
132816,-166.666666666667,7,2,1,50,0,0
133068,-166.666666666667,7,2,1,5,0,0
133153,-250,7,2,1,50,0,0
133405,-250,7,2,1,5,0,0
133490,-125,7,2,1,50,0,0
133742,-125,7,2,1,5,0,0
133827,-250,7,2,1,50,0,0
134079,-250,7,2,1,5,0,0
134164,-100,7,2,1,50,0,0
134332,-100,7,2,1,5,0,0
134501,-100,7,2,1,50,0,0
134838,-250,7,2,1,50,0,0
135090,-250,7,2,1,5,0,0
135176,-166.666666666667,7,2,1,50,0,0
135428,-166.666666666667,7,2,1,5,0,0
135513,-250,7,2,1,50,0,0
135765,-250,7,2,1,5,0,0
135850,-125,7,2,1,50,0,0
136102,-125,7,2,1,5,0,0
136187,-250,7,2,1,50,0,0
136439,-250,7,2,1,5,0,0
136524,-100,7,2,1,50,0,0
136692,-100,7,2,1,5,0,0
136860,-100,7,2,1,50,0,0
137197,-250,7,2,1,50,0,0
137449,-250,7,2,1,5,0,0
137535,-166.666666666667,7,2,1,50,0,0
137787,-166.666666666667,7,2,1,5,0,0
137872,-250,7,2,1,50,0,0
138124,-250,7,2,1,5,0,0
138209,-83.3333333333333,7,2,1,50,0,0
138546,-166.666666666667,7,2,1,50,0,0
138883,-100,7,2,1,50,0,0
139220,-50,7,2,2,80,0,0
139472,-50,7,2,2,5,0,0
139557,-50,7,2,2,80,0,0
139809,-50,7,2,2,5,0,0
139894,-33.3333333333333,7,2,2,80,0,0
140399,-250,7,2,2,80,0,0
140651,-250,7,2,2,5,0,0
140736,-66.6666666666667,7,2,2,80,0,0
140820,-66.6666666666667,7,2,2,5,0,0
140904,-66.6666666666667,7,2,2,80,0,0
140988,-66.6666666666667,7,2,2,5,0,0
141073,-66.6666666666667,7,2,2,80,0,0
141157,-66.6666666666667,7,2,2,5,0,0
141241,-133.333333333333,7,2,2,80,0,0
141579,-50,7,2,2,80,0,0
141664,-50,7,2,2,5,0,0
141748,-50,7,2,2,80,0,0
141832,-50,7,2,2,5,0,0
141915,-50,7,2,2,80,0,0
141999,-50,7,2,2,5,0,0
142085,-50,7,2,2,80,0,0
142169,-50,7,2,2,5,0,0
142253,-50,7,2,2,80,0,0
142337,-50,7,2,2,5,0,0
142421,-50,7,2,2,80,0,0
142505,-50,7,2,2,5,0,0
142590,-50,7,2,2,80,0,0
142674,-50,7,2,2,5,0,0
142759,-250,7,2,2,80,0,0
143011,-250,7,2,2,5,0,0
143096,-66.6666666666667,7,2,2,80,0,0
143180,-66.6666666666667,7,2,2,5,0,0
143264,-66.6666666666667,7,2,2,80,0,0
143348,-66.6666666666667,7,2,2,5,0,0
143433,-66.6666666666667,7,2,2,80,0,0
143517,-66.6666666666667,7,2,2,5,0,0
143601,-133.333333333333,7,2,2,80,0,0
143939,-50,7,2,2,80,0,0
144191,-50,7,2,2,5,0,0
144276,-50,7,2,2,80,0,0
144528,-50,7,2,2,5,0,0
144613,-33.3333333333333,7,2,2,80,0,0
145118,-250,7,2,2,80,0,0
145370,-250,7,2,2,5,0,0
145455,-66.6666666666667,7,2,2,80,0,0
145539,-66.6666666666667,7,2,2,5,0,0
145623,-66.6666666666667,7,2,2,80,0,0
145707,-66.6666666666667,7,2,2,5,0,0
145792,-66.6666666666667,7,2,2,80,0,0
145876,-66.6666666666667,7,2,2,5,0,0
145960,-133.333333333333,7,2,2,80,0,0
146298,-50,7,2,2,80,0,0
146383,-50,7,2,2,5,0,0
146467,-50,7,2,2,80,0,0
146551,-50,7,2,2,5,0,0
146635,-50,7,2,2,80,0,0
146719,-50,7,2,2,5,0,0
146803,-50,7,2,2,80,0,0
146887,-50,7,2,2,5,0,0
146972,-50,7,2,2,80,0,0
147056,-50,7,2,2,5,0,0
147140,-50,7,2,2,80,0,0
147224,-50,7,2,2,5,0,0
147309,-50,7,2,2,80,0,0
147393,-50,7,2,2,5,0,0
147478,-250,7,2,2,80,0,0
147730,-250,7,2,2,5,0,0
147815,-66.6666666666667,7,2,2,80,0,0
147899,-66.6666666666667,7,2,2,5,0,0
147983,-66.6666666666667,7,2,2,80,0,0
148067,-66.6666666666667,7,2,2,5,0,0
148152,-66.6666666666667,7,2,2,80,0,0
148236,-66.6666666666667,7,2,2,5,0,0
148320,-133.333333333333,7,2,2,80,0,0
148658,-50,7,2,2,80,0,0
148910,-50,7,2,2,5,0,0
148995,-50,7,2,2,80,0,0
149247,-50,7,2,2,5,0,0
149332,-33.3333333333333,7,2,2,80,0,0
149838,-250,7,2,2,80,0,0
150090,-250,7,2,2,5,0,0
150175,-66.6666666666667,7,2,2,80,0,0
150259,-66.6666666666667,7,2,2,5,0,0
150343,-66.6666666666667,7,2,2,80,0,0
150427,-66.6666666666667,7,2,2,5,0,0
150512,-66.6666666666667,7,2,2,80,0,0
150596,-66.6666666666667,7,2,2,5,0,0
150680,-133.333333333333,7,2,2,80,0,0
151018,-50,7,2,2,80,0,0
151102,-50,7,2,2,5,0,0
151186,-50,7,2,2,80,0,0
151270,-50,7,2,2,5,0,0
151355,-50,7,2,2,80,0,0
151439,-50,7,2,2,5,0,0
151523,-50,7,2,2,80,0,0
151607,-50,7,2,2,5,0,0
151691,-50,7,2,2,80,0,0
151775,-50,7,2,2,5,0,0
151860,-50,7,2,2,80,0,0
151944,-50,7,2,2,5,0,0
152029,-50,7,2,2,80,0,0
152113,-50,7,2,2,5,0,0
152197,-250,7,2,2,80,0,0
152449,-250,7,2,2,5,0,0
152534,-66.6666666666667,7,2,2,80,0,0
152618,-66.6666666666667,7,2,2,5,0,0
152703,-66.6666666666667,7,2,2,80,0,0
152787,-66.6666666666667,7,2,2,5,0,0
152871,-66.6666666666667,7,2,2,80,0,0
152955,-66.6666666666667,7,2,2,5,0,0
153039,-133.333333333333,7,2,2,80,0,0
153377,-50,7,2,2,80,0,0
153629,-50,7,2,2,5,0,0
153714,-50,7,2,2,80,0,0
153966,-50,7,2,2,5,0,0
154051,-33.3333333333333,7,2,2,80,0,0
154557,-250,7,2,2,80,0,0
154809,-250,7,2,2,5,0,0
154894,-66.6666666666667,7,2,2,80,0,0
154978,-66.6666666666667,7,2,2,5,0,0
155062,-66.6666666666667,7,2,2,80,0,0
155146,-66.6666666666667,7,2,2,5,0,0
155231,-66.6666666666667,7,2,2,80,0,0
155315,-66.6666666666667,7,2,2,5,0,0
155399,-133.333333333333,7,2,2,80,0,0
155736,-50,7,2,2,80,0,0
155820,-50,7,2,2,5,0,0
155904,-50,7,2,2,80,0,0
155988,-50,7,2,2,5,0,0
156073,-50,7,2,2,80,0,0
156157,-50,7,2,2,5,0,0
156241,-50,7,2,2,80,0,0
156325,-50,7,2,2,5,0,0
156411,-50,7,2,2,80,0,0
156495,-50,7,2,2,5,0,0
156578,-50,7,2,2,80,0,0
156662,-50,7,2,2,5,0,0
156747,-50,7,2,2,80,0,0
156831,-50,7,2,2,5,0,0
156916,-250,7,2,2,80,0,0
157000,-250,7,2,2,5,0,0
157085,-250,7,2,2,80,0,0
157169,-250,7,2,2,5,0,0
157253,-66.6666666666667,7,2,2,80,0,0
157337,-66.6666666666667,7,2,2,5,0,0
157422,-66.6666666666667,7,2,2,80,0,0
157506,-66.6666666666667,7,2,2,5,0,0
157590,-66.6666666666667,7,2,2,80,0,0
157674,-66.6666666666667,7,2,2,5,0,0
157758,-133.333333333333,7,2,2,80,0,0
158096,-50,7,2,2,60,0,0
158770,-83.3333333333333,7,2,2,60,0,0
159276,-166.666666666667,7,2,2,60,0,0
159781,-100,7,2,2,60,0,0
160456,-50,7,2,2,60,0,0
161130,-83.3333333333333,7,2,2,60,0,0
161635,-166.666666666667,7,2,2,60,0,0
162141,-100,7,2,2,60,0,0
162815,-50,7,2,2,60,0,0
163489,-83.3333333333333,7,2,2,60,0,0
163995,-166.666666666667,7,2,2,60,0,0
164500,-100,7,2,2,60,0,0
165175,-50,7,2,2,60,0,0
165849,-83.3333333333333,7,2,2,60,0,0
166355,-166.666666666667,7,2,2,60,0,0
166860,-100,7,2,2,60,0,0
167534,-50,7,2,2,60,0,0
168208,-83.3333333333333,7,2,2,60,0,0
168714,-166.666666666667,7,2,2,60,0,0
169219,-100,7,2,2,60,0,0
169894,-50,7,2,2,60,0,0
170568,-83.3333333333333,7,2,2,60,0,0
171074,-166.666666666667,7,2,2,60,0,0
171579,-100,7,2,2,60,0,0
172253,-50,7,2,2,60,0,0
172927,-83.3333333333333,7,2,2,60,0,0
173433,-166.666666666667,7,2,2,60,0,0
173938,-100,7,2,2,60,0,0
174613,-50,7,2,2,60,0,0
174697,-50,7,2,2,5,0,0
174781,-50,7,2,2,60,0,0
174865,-50,7,2,2,5,0,0
174950,-50,7,2,2,60,0,0
175034,-50,7,2,2,5,0,0
175118,-50,7,2,2,60,0,0
175202,-50,7,2,2,5,0,0
175287,-50,7,2,2,60,0,0
175371,-50,7,2,2,5,0,0
175455,-50,7,2,2,60,0,0
175539,-50,7,2,2,5,0,0
175624,-50,7,2,2,60,0,0
175708,-50,7,2,2,5,0,0
175793,-100,7,2,2,60,0,0
186663,-100,7,2,2,5,0,0
186748,-100,7,2,2,60,0,0
187000,-100,7,2,2,5,0,0
187085,-66.6666666666667,7,2,2,60,0,0
187590,-200,7,2,2,60,0,0
188096,-100,7,2,2,60,0,0
189950,-200,7,2,2,60,0,0
190456,-100,7,2,2,60,0,0
191382,-100,7,2,2,5,0,0
191467,-100,7,2,2,60,0,0
191719,-100,7,2,2,5,0,0
191804,-66.6666666666667,7,2,2,60,0,0
192309,-200,7,2,2,60,0,0
192815,-100,7,2,2,60,0,0
193489,-66.6666666666667,7,2,2,60,0,0
193573,-66.6666666666667,7,2,2,5,0,0
193658,-66.6666666666667,7,2,2,60,0,0
193742,-66.6666666666667,7,2,2,5,0,0
193826,-66.6666666666667,7,2,2,60,0,0
193910,-66.6666666666667,7,2,2,5,0,0
193995,-66.6666666666667,7,2,2,60,0,0
194079,-66.6666666666667,7,2,2,5,0,0
194163,-66.6666666666667,7,2,2,60,0,0
195849,-50,7,2,2,80,0,0
196101,-50,7,2,2,5,0,0
196186,-50,7,2,2,80,0,0
196438,-50,7,2,2,5,0,0
196523,-33.3333333333333,7,2,2,80,0,0
197029,-250,7,2,2,80,0,0
197281,-250,7,2,2,5,0,0
197366,-66.6666666666667,7,2,2,80,0,0
197450,-66.6666666666667,7,2,2,5,0,0
197534,-66.6666666666667,7,2,2,80,0,0
197618,-66.6666666666667,7,2,2,5,0,0
197703,-66.6666666666667,7,2,2,80,0,0
197787,-66.6666666666667,7,2,2,5,0,0
197871,-133.333333333333,7,2,2,80,0,0
198209,-50,7,2,2,80,0,0
198293,-50,7,2,2,5,0,0
198377,-50,7,2,2,80,0,0
198461,-50,7,2,2,5,0,0
198545,-50,7,2,2,80,0,0
198629,-50,7,2,2,5,0,0
198713,-50,7,2,2,80,0,0
198797,-50,7,2,2,5,0,0
198882,-50,7,2,2,80,0,0
198966,-50,7,2,2,5,0,0
199050,-50,7,2,2,80,0,0
199134,-50,7,2,2,5,0,0
199219,-50,7,2,2,80,0,0
199303,-50,7,2,2,5,0,0
199388,-250,7,2,2,80,0,0
199640,-250,7,2,2,5,0,0
199725,-66.6666666666667,7,2,2,80,0,0
199809,-66.6666666666667,7,2,2,5,0,0
199893,-66.6666666666667,7,2,2,80,0,0
199977,-66.6666666666667,7,2,2,5,0,0
200062,-66.6666666666667,7,2,2,80,0,0
200146,-66.6666666666667,7,2,2,5,0,0
200230,-133.333333333333,7,2,2,80,0,0
200568,-50,7,2,2,80,0,0
200820,-50,7,2,2,5,0,0
200905,-50,7,2,2,80,0,0
201157,-50,7,2,2,5,0,0
201242,-33.3333333333333,7,2,2,80,0,0
201748,-250,7,2,2,80,0,0
202000,-250,7,2,2,5,0,0
202085,-66.6666666666667,7,2,2,80,0,0
202169,-66.6666666666667,7,2,2,5,0,0
202253,-66.6666666666667,7,2,2,80,0,0
202337,-66.6666666666667,7,2,2,5,0,0
202422,-66.6666666666667,7,2,2,80,0,0
202506,-66.6666666666667,7,2,2,5,0,0
202590,-133.333333333333,7,2,2,80,0,0
202927,-50,7,2,2,80,0,0
203012,-50,7,2,2,5,0,0
203096,-50,7,2,2,80,0,0
203180,-50,7,2,2,5,0,0
203265,-50,7,2,2,80,0,0
203349,-50,7,2,2,5,0,0
203433,-50,7,2,2,80,0,0
203517,-50,7,2,2,5,0,0
203602,-50,7,2,2,80,0,0
203686,-50,7,2,2,5,0,0
203770,-50,7,2,2,80,0,0
203854,-50,7,2,2,5,0,0
203939,-50,7,2,2,80,0,0
204023,-50,7,2,2,5,0,0
204107,-250,7,2,2,80,0,0
204359,-250,7,2,2,5,0,0
204444,-66.6666666666667,7,2,2,80,0,0
204528,-66.6666666666667,7,2,2,5,0,0
204612,-66.6666666666667,7,2,2,80,0,0
204696,-66.6666666666667,7,2,2,5,0,0
204781,-66.6666666666667,7,2,2,80,0,0
204865,-66.6666666666667,7,2,2,5,0,0
204949,-133.333333333333,7,2,2,80,0,0
205287,-50,7,2,2,80,0,0
205539,-50,7,2,2,5,0,0
205624,-50,7,2,2,80,0,0
205876,-50,7,2,2,5,0,0
205961,-33.3333333333333,7,2,2,80,0,0
206467,-250,7,2,2,80,0,0
206719,-250,7,2,2,5,0,0
206804,-66.6666666666667,7,2,2,80,0,0
206888,-66.6666666666667,7,2,2,5,0,0
206972,-66.6666666666667,7,2,2,80,0,0
207056,-66.6666666666667,7,2,2,5,0,0
207141,-66.6666666666667,7,2,2,80,0,0
207225,-66.6666666666667,7,2,2,5,0,0
207309,-133.333333333333,7,2,2,80,0,0
207646,-50,7,2,2,80,0,0
207731,-50,7,2,2,5,0,0
207815,-50,7,2,2,80,0,0
207899,-50,7,2,2,5,0,0
207984,-50,7,2,2,80,0,0
208068,-50,7,2,2,5,0,0
208152,-50,7,2,2,80,0,0
208236,-50,7,2,2,5,0,0
208321,-50,7,2,2,80,0,0
208405,-50,7,2,2,5,0,0
208489,-50,7,2,2,80,0,0
208573,-50,7,2,2,5,0,0
208658,-50,7,2,2,80,0,0
208742,-50,7,2,2,5,0,0
208826,-250,7,2,2,80,0,0
209078,-250,7,2,2,5,0,0
209163,-66.6666666666667,7,2,2,80,0,0
209247,-66.6666666666667,7,2,2,5,0,0
209331,-66.6666666666667,7,2,2,80,0,0
209415,-66.6666666666667,7,2,2,5,0,0
209500,-66.6666666666667,7,2,2,80,0,0
209584,-66.6666666666667,7,2,2,5,0,0
209668,-133.333333333333,7,2,2,80,0,0
210006,-50,7,2,2,80,0,0
210258,-50,7,2,2,5,0,0
210343,-50,7,2,2,80,0,0
210595,-50,7,2,2,5,0,0
210680,-33.3333333333333,7,2,2,80,0,0
211186,-250,7,2,2,80,0,0
211438,-250,7,2,2,5,0,0
211523,-66.6666666666667,7,2,2,80,0,0
211607,-66.6666666666667,7,2,2,5,0,0
211691,-66.6666666666667,7,2,2,80,0,0
211775,-66.6666666666667,7,2,2,5,0,0
211860,-66.6666666666667,7,2,2,80,0,0
211944,-66.6666666666667,7,2,2,5,0,0
212028,-133.333333333333,7,2,2,80,0,0
212366,-50,7,2,2,80,0,0
212450,-50,7,2,2,5,0,0
212534,-50,7,2,2,80,0,0
212618,-50,7,2,2,5,0,0
212703,-50,7,2,2,80,0,0
212787,-50,7,2,2,5,0,0
212871,-50,7,2,2,80,0,0
212955,-50,7,2,2,5,0,0
213041,-50,7,2,2,80,0,0
213125,-50,7,2,2,5,0,0
213208,-50,7,2,2,80,0,0
213292,-50,7,2,2,5,0,0
213377,-50,7,2,2,80,0,0
213461,-50,7,2,2,5,0,0
213545,-250,7,2,2,80,0,0
213629,-250,7,2,2,5,0,0
213714,-250,7,2,2,80,0,0
213798,-250,7,2,2,5,0,0
213882,-66.6666666666667,7,2,2,80,0,0
213966,-66.6666666666667,7,2,2,5,0,0
214051,-66.6666666666667,7,2,2,80,0,0
214135,-66.6666666666667,7,2,2,5,0,0
214219,-66.6666666666667,7,2,2,80,0,0
214303,-66.6666666666667,7,2,2,5,0,0
214387,-133.333333333333,7,2,2,80,0,0
214725,-166.666666666667,7,2,2,50,0,0
219444,-100,7,2,2,70,0,0

[Colours]
Combo1 : 114,207,160
Combo2 : 63,63,63
Combo3 : 52,52,158
Combo4 : 52,105,158
Combo5 : 48,143,96
Combo6 : 55,166,55
Combo7 : 55,166,133

[HitObjects]
206,84,7,21,8,3:2:0:0:
195,98,175,1,8,3:2:0:0:
182,110,344,1,8,3:2:0:0:
167,120,681,1,8,3:2:0:0:
152,128,849,1,8,3:2:0:0:
136,134,1186,1,8,0:0:0:0:
118,137,1523,1,8,3:2:0:0:
101,139,1860,1,8,3:2:0:0:
83,137,2029,1,8,0:0:0:0:
256,192,2198,85,0,3:2:0:0:
305,84,2366,5,8,3:2:0:0:
316,98,2534,1,8,3:2:0:0:
329,110,2703,1,8,3:2:0:0:
344,120,3040,1,8,3:2:0:0:
359,128,3208,1,8,3:2:0:0:
375,134,3545,1,8,0:0:0:0:
393,137,3882,1,8,3:2:0:0:
410,139,4219,1,8,3:2:0:0:
428,137,4388,1,8,0:0:0:0:
256,192,4557,85,0,3:2:0:0:
305,299,4726,5,8,3:2:0:0:
316,285,4894,1,8,3:2:0:0:
329,273,5063,1,8,3:2:0:0:
344,263,5400,1,8,3:2:0:0:
359,255,5568,1,8,3:2:0:0:
375,249,5905,1,8,0:0:0:0:
393,246,6242,1,8,3:2:0:0:
410,244,6579,1,8,3:2:0:0:
428,246,6748,1,8,0:0:0:0:
256,192,6917,85,0,3:2:0:0:
206,299,7085,5,8,3:2:0:0:
195,285,7253,1,8,3:2:0:0:
182,273,7422,1,8,3:2:0:0:
167,263,7759,1,8,3:2:0:0:
152,255,7927,1,8,3:2:0:0:
136,249,8264,1,8,0:0:0:0:
118,246,8601,1,8,3:2:0:0:
101,244,8938,1,8,3:2:0:0:
83,246,9107,1,8,0:0:0:0:
256,192,9276,85,0,3:2:0:0:
102,42,9445,21,8,3:2:0:0:
182,31,9613,1,8,3:2:0:0:
102,42,9782,2,0,P|107:67|109:89,1,47.9999985351563,8|0,3:2|2:0,0:0:0:0:
182,31,10119,1,8,3:2:0:0:
182,31,10287,2,0,P|186:55|188:78,1,47.9999985351563,8|0,3:2|0:0,0:0:0:0:
109,89,10624,2,0,P|114:114|116:136,1,47.9999985351563,8|0,0:0|0:0,0:0:0:0:
188,78,10962,2,0,P|193:103|195:125,1,47.9999985351563,8|0,3:2|0:0,0:0:0:0:
116,136,11299,1,8,3:2:0:0:
195,125,11467,1,8,0:0:0:0:
256,192,11636,69,8,3:2:0:0:
256,192,11720,1,0,3:2:0:0:
256,192,11804,1,8,3:2:0:0:
330,31,11973,21,8,3:2:0:0:
410,42,12142,2,0,P|405:67|403:89,1,47.9999985351563,8|0,3:2|2:0,0:0:0:0:
330,31,12479,1,8,3:2:0:0:
330,31,12647,2,0,P|326:55|324:78,1,47.9999985351563,8|0,3:2|0:0,0:0:0:0:
403,89,12984,2,0,P|398:114|396:136,1,47.9999985351563,8|0,0:0|0:0,0:0:0:0:
324,78,13322,2,0,P|319:103|317:125,1,47.9999985351563,8|0,3:2|0:0,0:0:0:0:
396,136,13659,1,8,3:2:0:0:
317,125,13827,1,8,0:0:0:0:
256,192,13995,69,8,3:2:0:0:
256,192,14079,1,0,3:2:0:0:
256,192,14163,1,8,3:2:0:0:
330,353,14332,21,8,3:2:0:0:
410,342,14501,2,0,P|405:317|403:295,1,47.9999985351563,8|0,3:2|2:0,0:0:0:0:
330,353,14838,1,8,3:2:0:0:
330,353,15006,2,0,P|326:329|324:306,1,47.9999985351563,8|0,3:2|0:0,0:0:0:0:
403,295,15343,2,0,P|398:270|396:248,1,47.9999985351563,8|0,0:0|0:0,0:0:0:0:
324,306,15681,2,0,P|319:281|317:259,1,47.9999985351563,8|0,3:2|0:0,0:0:0:0:
396,248,16018,1,8,3:2:0:0:
317,259,16186,1,8,0:0:0:0:
256,192,16355,69,8,3:2:0:0:
256,192,16439,1,0,3:2:0:0:
256,192,16523,1,8,3:2:0:0:
109,295,16691,5,8,3:2:0:0:
189,306,16860,2,0,P|194:281|196:259,1,47.9999985351563,8|0,3:2|2:0,0:0:0:0:
109,295,17198,1,8,3:2:0:0:
109,295,17365,2,0,P|113:271|115:248,1,47.9999985351563,8|0,3:2|0:0,0:0:0:0:
256,192,17703,85,8,0:0:0:0:
256,192,17872,1,8,0:0:0:0:
256,192,18209,1,8,0:0:0:0:
256,192,18546,1,8,0:0:0:0:
88,56,18883,38,0,P|95:95|99:134,1,80,14|8,3:2|0:2,0:0:0:0:
184,43,19220,2,0,P|187:82|195:121,1,80,10|0,3:2|0:0,0:0:0:0:
195,122,19557,2,0,P|147:126|100:135,2,95.9999970703126,10|8|0,3:2|3:2|0:2,0:0:0:0:
16,131,20062,6,0,P|12:170|4:209,1,80,10|0,3:2|0:0,0:0:0:0:
4,209,20399,2,0,P|43:212|82:220,1,80,10|0,3:2|0:0,0:0:0:0:
3,209,20736,1,10,3:2:0:0:
14,293,20905,2,0,P|53:296|92:304,1,80,10|0,0:0|3:2,0:0:0:0:
250,378,21158,85,0,3:2:0:0:
250,378,21242,2,0,P|210:370|171:366,1,80,10|8,3:2|0:2,0:0:0:0:
263,282,21579,2,0,P|223:278|184:270,1,80,10|0,3:2|0:0,0:0:0:0:
171,366,21916,2,0,P|179:318|184:271,2,95.9999970703126,10|8|0,3:2|3:2|0:2,0:0:0:0:
337,384,22422,6,0,P|340:344|348:305,1,80,10|0,3:2|0:0,0:0:0:0:
274,203,22759,2,0,P|270:242|262:281,1,80,10|0,3:2|0:0,0:0:0:0:
274,203,23096,1,10,3:2:0:0:
352,214,23265,2,0,P|312:210|273:202,1,80,10|0,0:0|3:2,0:0:0:0:
385,50,23517,85,0,3:2:0:0:
385,50,23602,2,0,P|377:89|373:128,1,80,10|8,3:2|0:2,0:0:0:0:
290,35,23939,2,0,P|286:74|278:113,1,80,10|0,3:2|0:0,0:0:0:0:
373,128,24276,2,0,P|325:119|278:114,2,95.9999970703126,10|8|0,3:2|3:2|0:2,0:0:0:0:
202,22,24781,6,0,P|198:61|190:100,1,80,10|0,3:2|0:0,0:0:0:0:
190,101,25118,2,0,P|150:93|111:89,1,80,10|0,3:2|0:0,0:0:0:0:
89,171,25456,1,10,3:2:0:0:
168,183,25624,2,0,P|128:175|89:171,1,80,10|0,0:0|3:2,0:0:0:0:
217,259,25877,85,0,3:2:0:0:
217,259,25961,2,0,P|256:255|295:247,1,80,10|8,3:2|0:2,0:0:0:0:
229,352,26298,2,0,P|268:344|307:340,1,80,10|0,3:2|0:0,0:0:0:0:
295,246,26635,2,0,P|299:293|308:340,2,95.9999970703126,10|8|0,3:2|3:2|0:2,0:0:0:0:
391,321,27141,5,10,3:2:0:0:
380,243,27309,2,0,P|383:282|391:321,1,80,2|10,0:0|3:2,0:0:0:0:
470,309,27647,2,0,P|430:312|391:320,1,80,2|10,0:0|3:2,0:0:0:0:
460,226,27984,2,0,P|456:186|448:147,1,80,10|0,0:0|3:2,0:0:0:0:
449,148,28236,85,0,3:2:0:0:
449,148,28322,2,0,P|410:156|371:159,1,80,14|8,3:2|0:2,0:0:0:0:
434,51,28658,2,0,P|395:55|356:63,1,80,10|0,3:2|0:0,0:0:0:0:
370,159,28995,2,0,P|365:111|356:64,1,95.9999970703126,10|8,3:2|3:2,0:0:0:0:
355,65,29332,1,0,0:2:0:0:
204,139,29500,6,0,P|243:135|282:127,1,80,10|0,3:2|0:0,0:0:0:0:
204,139,29838,2,0,P|200:100|193:61,1,80,10|0,3:2|0:0,0:0:0:0:
192,60,30175,1,10,3:2:0:0:
192,60,30343,2,0,P|152:67|113:71,1,80,10|0,0:0|3:2,0:0:0:0:
41,146,30596,85,0,3:2:0:0:
41,146,30680,2,0,P|80:149|119:157,1,80,10|8,3:2|0:2,0:0:0:0:
27,241,31017,2,0,P|66:248|105:252,1,80,10|0,3:2|0:0,0:0:0:0:
105,252,31354,2,0,P|110:205|120:158,1,95.9999970703126,10|8,3:2|3:2,0:0:0:0:
119,158,31691,1,0,0:2:0:0:
189,267,31860,6,0,P|229:271|269:279,1,80,10|0,3:2|0:0,0:0:0:0:
177,347,32197,2,0,P|184:307|189:268,1,80,10|0,3:2|0:0,0:0:0:0:
177,347,32534,1,10,3:2:0:0:
98,335,32703,2,0,P|138:342|178:347,1,80,10|0,0:0|3:2,0:0:0:0:
280,201,32956,85,0,3:2:0:0:
280,201,33040,2,0,P|272:240|269:279,1,80,10|8,3:2|0:2,0:0:0:0:
376,216,33376,2,0,P|372:255|364:294,1,80,10|0,3:2|0:0,0:0:0:0:
363,293,33714,2,0,P|316:284|269:280,1,95.9999970703126,10|8,3:2|3:2,0:0:0:0:
363,293,34051,1,0,0:2:0:0:
462,229,34220,6,0,P|458:268|450:307,1,80,10|0,3:2|0:0,0:0:0:0:
462,229,34557,2,0,P|466:190|474:151,1,80,10|0,3:2|0:0,0:0:0:0:
395,137,34894,1,10,3:2:0:0:
395,137,35062,2,0,P|434:145|473:149,1,80,10|0,0:0|3:2,0:0:0:0:
302,36,35315,85,0,3:2:0:0:
302,36,35399,2,0,P|310:75|313:114,1,80,10|8,3:2|0:2,0:0:0:0:
206,50,35737,2,0,P|210:89|218:128,1,80,10|0,3:2|0:0,0:0:0:0:
313,115,36074,2,0,P|266:118|219:128,1,95.9999970703126,10|8,3:2|3:2,0:0:0:0:
313,115,36411,1,0,0:2:0:0:
128,145,36579,5,10,3:2:0:0:
116,67,36748,2,0,P|124:106|128:145,1,80,2|10,0:0|3:2,0:0:0:0:
28,82,37085,1,2,0:0:0:0:
40,160,37253,1,10,3:2:0:0:
28,82,37422,2,0,P|36:121|40:160,1,80,10|2,0:0|3:2,0:0:0:0:
66,305,37759,85,14,3:2:0:0:
128,145,37927,1,10,0:2:0:0:
66,305,38096,1,10,3:2:0:0:
128,145,38265,1,2,0:0:0:0:
66,305,38433,1,10,3:2:0:0:
128,145,38602,1,8,3:2:0:0:
66,305,38770,1,0,0:2:0:0:
229,304,38939,6,0,P|190:296|151:292,1,80,10|0,3:2|0:0,0:0:0:0:
151,292,39276,2,0,P|190:296|229:304,1,80,10|0,3:2|0:0,0:0:0:0:
308,316,39613,1,10,3:2:0:0:
308,316,39781,2,0,P|269:312|230:304,1,80,10|2,0:0|3:2,0:0:0:0:
357,205,40118,85,10,3:2:0:0:
419,365,40287,1,10,0:2:0:0:
357,205,40456,1,10,3:2:0:0:
419,365,40624,1,2,0:0:0:0:
357,205,40793,1,10,3:2:0:0:
419,365,40961,1,8,3:2:0:0:
388,285,41130,1,0,0:2:0:0:
479,174,41298,6,0,P|471:213|467:253,1,80,10|0,3:2|0:0,0:0:0:0:
492,95,41635,2,0,P|487:134|479:173,1,80,10|0,3:2|0:0,0:0:0:0:
479,174,41972,1,10,3:2:0:0:
479,174,42141,2,0,P|471:213|467:253,1,80,10|0,0:0|3:2,0:0:0:0:
357,205,42478,85,10,3:2:0:0:
197,143,42647,1,10,0:2:0:0:
357,205,42815,1,10,3:2:0:0:
277,174,42984,1,2,0:0:0:0:
357,205,43152,1,10,3:2:0:0:
197,143,43321,1,8,3:2:0:0:
357,205,43489,1,0,0:2:0:0:
210,227,43658,6,0,P|170:231|131:239,1,80,10|0,3:2|0:0,0:0:0:0:
131,239,43995,2,0,P|170:231|210:227,1,80,10|0,3:2|0:0,0:0:0:0:
52,251,44332,1,10,3:2:0:0:
52,251,44501,2,0,P|91:247|131:239,1,80,10|0,0:0|3:2,0:0:0:0:
162,319,44838,85,10,3:2:0:0:
100,159,45005,1,8,0:2:0:0:
130,239,45174,1,10,3:2:0:0:
100,159,45343,1,2,0:0:0:0:
162,319,45512,1,8,3:2:0:0:
100,159,45680,1,10,3:2:0:0:
162,319,45849,1,2,0:2:0:0:
162,319,46017,6,0,P|201:323|240:331,1,80,10|0,3:2|0:0,0:0:0:0:
319,343,46354,2,0,P|279:338|240:330,1,80,10|0,3:2|0:0,0:0:0:0:
163,318,46691,1,10,3:2:0:0:
240,330,46860,1,10,0:0:0:0:
319,343,47029,85,0,3:2:0:0:
319,343,47113,1,0,3:2:0:0:
319,343,47197,1,14,3:2:0:0:
381,183,47366,1,10,0:2:0:0:
350,263,47534,1,10,3:2:0:0:
381,183,47703,1,2,0:0:0:0:
319,343,47871,1,10,3:2:0:0:
381,183,48040,1,8,3:2:0:0:
319,343,48208,1,0,0:2:0:0:
223,159,48377,6,0,P|262:163|302:171,1,80,10|0,3:2|0:0,0:0:0:0:
302,171,48714,2,0,P|341:179|380:182,1,80,10|0,3:2|0:0,0:0:0:0:
223,159,49051,1,10,3:2:0:0:
223,159,49220,2,0,P|262:162|301:170,1,80,10|0,0:0|3:2,0:0:0:0:
491,231,49557,85,10,3:2:0:0:
460,151,49726,1,10,0:2:0:0:
491,231,49894,1,10,3:2:0:0:
429,71,50062,1,2,0:0:0:0:
491,231,50231,1,10,3:2:0:0:
491,231,50399,1,8,3:2:0:0:
429,71,50568,1,0,0:2:0:0:
381,183,50736,6,0,P|342:187|302:195,1,80,10|0,3:2|0:0,0:0:0:0:
302,195,51073,2,0,P|262:203|223:206,1,80,10|0,3:2|0:0,0:0:0:0:
223,206,51410,1,10,3:2:0:0:
381,183,51579,2,0,P|341:186|302:194,1,80,10|0,0:0|3:2,0:0:0:0:
251,118,51916,85,10,3:2:0:0:
171,87,52085,1,10,0:2:0:0:
251,118,52254,1,10,3:2:0:0:
91,56,52422,1,2,0:0:0:0:
251,118,52590,1,10,3:2:0:0:
91,56,52759,1,8,3:2:0:0:
251,118,52928,1,0,0:2:0:0:
101,144,53096,6,0,P|97:183|89:223,1,80,10|0,3:2|0:0,0:0:0:0:
101,144,53433,2,0,P|96:183|89:222,1,80,10|0,3:2|0:0,0:0:0:0:
78,302,53770,1,10,3:2:0:0:
78,302,53939,2,0,P|81:262|89:223,1,80,10|0,0:0|3:2,0:0:0:0:
157,314,54276,85,10,3:2:0:0:
317,252,54444,1,8,0:2:0:0:
237,283,54613,1,10,3:2:0:0:
317,252,54781,1,2,0:0:0:0:
157,314,54950,1,8,3:2:0:0:
157,314,55118,1,10,3:2:0:0:
237,283,55287,1,2,0:2:0:0:
157,314,55456,6,0,P|118:310|78:302,1,80,10|0,3:2|0:0,0:0:0:0:
78,302,55793,2,0,P|38:294|0:290,1,80,10|0,3:2|0:0,0:0:0:0:
78,302,56130,1,10,3:2:0:0:
157,314,56298,1,10,0:0:0:0:
256,192,56467,37,8,3:2:0:0:
256,192,56551,1,8,0:0:0:0:
256,192,56635,1,8,0:0:0:0:
330,353,56804,21,8,0:0:0:0:
410,342,56973,2,0,P|405:317|403:295,1,47.9999985351563,8|0,0:0|0:0,0:0:0:0:
330,353,57310,1,8,0:0:0:0:
330,353,57478,2,0,P|326:329|324:306,1,47.9999985351563,8|0,0:0|0:0,0:0:0:0:
403,295,57815,2,0,P|398:270|396:248,1,47.9999985351563,8|0,0:0|0:0,0:0:0:0:
324,306,58153,2,0,P|319:281|317:259,1,47.9999985351563,8|0,0:0|0:0,0:0:0:0:
396,248,58490,1,8,0:0:0:0:
317,259,58658,1,8,0:0:0:0:
256,192,58827,69,8,0:0:0:0:
256,192,58911,1,8,0:0:0:0:
256,192,58995,1,8,0:0:0:0:
109,295,59163,21,8,0:0:0:0:
189,306,59332,2,0,P|194:281|196:259,1,47.9999985351563,8|0,0:0|0:0,0:0:0:0:
109,295,59670,1,8,0:0:0:0:
109,295,59837,2,0,P|113:271|115:248,1,47.9999985351563,8|0,0:0|0:0,0:0:0:0:
256,192,60175,69,8,0:0:0:0:
256,192,60344,1,8,0:0:0:0:
256,192,60681,1,8,0:0:0:0:
256,192,61018,1,8,0:0:0:0:
256,192,61186,1,8,0:0:0:0:
317,258,61354,38,0,P|356:250|395:246,1,80,10|8,3:2|0:2,0:0:0:0:
395,245,61691,1,10,3:2:0:0:
383,166,61860,2,0,P|387:205|395:244,1,80,2|8,0:0|3:2,0:0:0:0:
383,166,62197,1,10,3:2:0:0:
461,153,62366,1,0,0:2:0:0:
383,166,62534,2,0,P|422:161|461:153,1,80,10|0,3:2|0:0,0:0:0:0:
448,74,62871,1,10,3:2:0:0:
448,74,63040,2,0,P|452:113|460:152,1,80,2|8,0:0|3:2,0:0:0:0:
448,74,63377,2,0,P|408:78|369:86,1,80,10|0,0:0|3:2,0:0:0:0:
302,141,63630,5,0,3:2:0:0:
302,141,63714,2,0,P|262:136|223:128,1,80,10|8,3:2|0:2,0:0:0:0:
235,50,64051,1,10,3:2:0:0:
235,50,64220,2,0,P|230:89|222:128,1,80,2|8,0:0|3:2,0:0:0:0:
156,37,64557,2,0,P|195:45|234:49,1,80,10|0,3:2|0:2,0:0:0:0:
156,37,64894,2,0,P|147:76|143:115,1,80,10|0,3:2|0:0,0:0:0:0:
143,115,65231,1,10,3:2:0:0:
65,103,65399,2,0,P|104:111|144:116,1,80,2|8,0:0|3:2,0:0:0:0:
65,103,65736,1,10,0:0:0:0:
171,194,65905,85,0,3:2:0:0:
159,273,66074,2,0,P|163:233|171:194,1,80,10|8,3:2|0:2,0:0:0:0:
159,273,66411,1,10,3:2:0:0:
81,261,66579,2,0,P|120:265|159:273,1,80,2|8,0:0|3:2,0:0:0:0:
68,339,66916,2,0,P|72:299|80:260,1,80,10|0,3:2|0:2,0:0:0:0:
146,351,67253,2,0,P|106:346|67:338,1,80,10|0,3:2|0:0,0:0:0:0:
224,363,67590,1,10,3:2:0:0:
146,351,67759,2,0,P|185:355|224:363,1,80,2|8,0:0|3:2,0:0:0:0:
224,363,68096,2,0,P|228:323|236:284,1,80,10|0,0:0|3:2,0:0:0:0:
320,283,68349,5,0,3:2:0:0:
320,283,68433,2,0,P|311:322|307:361,1,80,10|8,3:2|0:2,0:0:0:0:
320,283,68770,1,10,3:2:0:0:
398,295,68939,2,0,P|358:290|319:282,1,80,2|8,0:0|3:2,0:0:0:0:
410,216,69276,2,0,P|405:255|397:294,1,80,10|0,3:2|0:2,0:0:0:0:
331,203,69613,2,0,P|370:207|409:215,1,80,10|0,3:2|0:0,0:0:0:0:
409,215,69950,1,10,3:2:0:0:
331,203,70118,1,2,0:0:0:0:
343,124,70287,1,8,3:2:0:0:
343,124,70456,2,0,P|335:163|331:203,1,80,10|0,0:0|3:2,0:0:0:0:
263,86,70708,85,0,3:2:0:0:
263,86,70793,2,0,P|223:81|184:73,1,80,14|8,3:2|0:2,0:0:0:0:
184,73,71130,1,10,3:2:0:0:
263,86,71298,2,0,P|254:125|250:164,1,80,2|8,0:0|3:2,0:0:0:0:
250,164,71635,2,0,P|210:159|171:151,1,80,10|0,3:2|0:2,0:0:0:0:
171,151,71972,2,0,P|162:190|158:229,1,80,10|0,3:2|0:0,0:0:0:0:
158,229,72309,1,10,3:2:0:0:
79,216,72478,2,0,P|118:220|158:229,1,80,2|8,0:0|3:2,0:0:0:0:
79,216,72815,2,0,P|83:176|91:137,1,80,10|0,0:0|3:2,0:0:0:0:
240,245,73068,5,0,3:2:0:0:
240,245,73152,2,0,P|235:284|227:323,1,80,10|8,3:2|0:2,0:0:0:0:
305,336,73489,1,10,3:2:0:0:
305,336,73658,2,0,P|265:327|226:323,1,80,2|8,0:0|3:2,0:0:0:0:
305,336,73995,2,0,P|344:344|383:348,1,80,10|0,3:2|0:2,0:0:0:0:
384,349,74332,2,0,P|388:309|396:270,1,80,10|0,3:2|0:0,0:0:0:0:
384,349,74669,1,10,3:2:0:0:
396,270,74838,1,2,0:0:0:0:
317,257,75007,1,8,3:2:0:0:
396,270,75175,2,0,P|356:261|317:257,1,80,10|0,0:0|3:2,0:0:0:0:
332,171,75427,85,0,3:2:0:0:
332,171,75512,2,0,P|371:179|410:183,1,80,10|8,3:2|0:2,0:0:0:0:
410,183,75849,1,10,3:2:0:0:
423,105,76017,2,0,P|414:144|410:183,1,80,2|8,0:0|3:2,0:0:0:0:
423,105,76354,2,0,P|383:96|344:92,1,80,10|0,3:2|0:2,0:0:0:0:
265,79,76691,2,0,P|304:87|344:92,1,80,10|0,3:2|0:0,0:0:0:0:
252,157,77029,1,10,3:2:0:0:
265,79,77197,2,0,P|256:118|252:157,1,80,2|8,0:0|3:2,0:0:0:0:
252,158,77534,2,0,P|212:149|173:145,1,80,10|0,0:0|3:2,0:0:0:0:
112,226,77787,5,0,3:2:0:0:
112,226,77871,2,0,P|151:230|190:238,1,80,10|8,3:2|0:2,0:0:0:0:
177,316,78208,1,10,3:2:0:0:
190,238,78377,2,0,P|185:277|177:316,1,80,2|8,0:0|3:2,0:0:0:0:
177,316,78714,2,0,P|216:320|255:328,1,80,10|0,3:2|0:2,0:0:0:0:
256,329,79051,2,0,P|295:320|334:316,1,80,10|0,3:2|0:0,0:0:0:0:
322,238,79388,1,10,3:2:0:0:
322,238,79557,2,0,P|326:277|334:316,1,80,2|8,0:0|3:2,0:0:0:0:
400,225,79894,2,0,P|361:229|322:238,1,80,10|0,0:0|3:2,0:0:0:0:
256,192,80147,37,0,3:2:0:0:
256,192,80231,1,2,3:2:0:0:
256,192,80399,1,2,3:2:0:0:
0,4,80568,6,0,P|4:28|6:51,1,47.9999985351563,10|0,0:0|2:0,0:0:0:0:
161,11,80905,2,0,P|125:17|89:20,1,71.9999978027344,10|0,0:0|2:0,0:0:0:0:
6,51,81242,2,0,P|10:75|12:98,1,47.9999985351563,8|0,0:0|2:0,0:0:0:0:
197,92,81579,2,0,P|149:100|102:106,1,96,8|0,0:0|2:0,0:0:0:0:
12,98,81916,2,0,P|16:122|18:145,1,47.9999985351563,8|0,0:0|2:0,0:0:0:0:
172,180,82253,2,0,P|132:187|92:191,1,80,8|0,0:0|2:0,0:0:0:0:
256,192,82590,85,2,3:2:0:0:
256,192,82758,1,2,3:2:0:0:
512,4,82928,6,0,P|508:28|506:51,1,47.9999985351563,10|0,0:0|2:0,0:0:0:0:
351,11,83265,2,0,P|386:17|422:20,1,71.9999978027344,10|0,0:0|2:0,0:0:0:0:
506,51,83602,2,0,P|502:75|500:98,1,47.9999985351563,8|0,0:0|2:0,0:0:0:0:
315,92,83939,2,0,P|362:100|409:106,1,96,8|0,0:0|2:0,0:0:0:0:
500,98,84276,2,0,P|496:122|494:145,1,47.9999985351563,8|0,0:0|2:0,0:0:0:0:
340,180,84613,2,0,P|379:187|419:191,1,80,8|0,0:0|2:0,0:0:0:0:
256,192,84950,85,2,3:2:0:0:
256,192,85118,1,2,3:2:0:0:
512,380,85287,6,0,P|508:356|506:333,1,47.9999985351563,10|0,0:0|2:0,0:0:0:0:
351,373,85624,2,0,P|386:366|422:363,1,71.9999978027344,10|0,0:0|2:0,0:0:0:0:
506,333,85961,2,0,P|502:309|500:286,1,47.9999985351563,8|0,0:0|2:0,0:0:0:0:
315,292,86298,2,0,P|362:283|409:277,1,96,8|0,0:0|2:0,0:0:0:0:
500,286,86635,2,0,P|496:262|494:239,1,47.9999985351563,8|0,0:0|2:0,0:0:0:0:
340,204,86972,2,0,P|379:196|419:192,1,80,8|0,0:0|2:0,0:0:0:0:
256,192,87309,85,2,3:2:0:0:
256,192,87477,1,2,3:2:0:0:
0,380,87647,6,0,P|4:356|6:333,1,47.9999985351563,10|0,0:0|2:0,0:0:0:0:
161,373,87984,2,0,P|125:366|89:363,1,71.9999978027344,10|0,0:0|2:0,0:0:0:0:
6,333,88321,2,0,P|10:309|12:286,1,47.9999985351563,8|0,0:0|2:0,0:0:0:0:
102,277,88658,2,0,P|149:283|197:292,1,96,8|0,0:0|3:2,0:0:0:0:
18,238,88911,1,0,3:2:0:0:
18,238,88995,2,0,P|15:262|12:286,1,47.9999985351563,8|0,0:0|3:2,0:0:0:0:
93,192,89248,1,0,3:2:0:0:
93,192,89332,2,0,P|132:196|172:204,1,80,8|0,0:0|3:2,0:0:0:0:
273,247,89585,53,0,3:2:0:0:
273,247,89669,2,0,P|255:128|238:9,1,240,14|0,3:2|2:0,0:0:0:0:
238,9,90006,2,0,P|254:127|272:246,1,240,10|0,3:2|2:0,0:0:0:0:
272,246,90343,2,0,P|254:127|237:8,2,240.000009155274,10|8|0,3:2|3:2|0:2,0:0:0:0:
291,131,90849,6,0,P|314:134|338:137,1,47.9999985351563,10|0,3:2|2:0,0:0:0:0:
339,138,91186,2,0,P|342:167|348:196,1,60.0000022888184,10|0,3:2|2:0,0:0:0:0:
349,198,91354,2,0,P|352:227|358:256,1,60.0000022888184,2|0,0:0|2:0,0:0:0:0:
358,257,91523,2,0,P|361:286|367:315,1,60.0000022888184,10|0,3:2|2:0,0:0:0:0:
367,316,91691,2,0,P|396:319|425:325,1,60.0000022888184,10|0,0:0|3:2,0:0:0:0:
200,222,91944,85,0,3:2:0:0:
200,222,92029,2,0,P|162:235|138:266,1,80,10|0,3:2|2:0,0:0:0:0:
272,246,92197,2,0,P|239:223|199:221,1,80,10|0,0:2|2:0,0:0:0:0:
138,266,92366,6,0,P|168:291|207:297,1,80,10|0,3:2|2:0,0:0:0:0:
122,191,92534,2,0,P|119:230|137:265,1,80,2|0,0:0|2:0,0:0:0:0:
207,297,92703,86,0,P|213:258|199:221,1,80,10|0,3:2|2:0,0:0:0:0:
150,348,92871,2,0,P|185:330|207:297,1,80,10|0,3:2|2:0,0:0:0:0:
75,332,93040,2,0,P|109:350|149:348,1,80,0|0,0:2|2:0,0:0:0:0:
348,316,93208,6,0,P|324:318|300:322,1,47.9999985351563,10|0,3:2|2:0,0:0:0:0:
358,257,93545,2,0,P|351:286|348:316,1,60.0000022888184,10|0,3:2|2:0,0:0:0:0:
368,197,93713,2,0,P|361:226|358:256,1,60.0000022888184,2|0,0:0|2:0,0:0:0:0:
377,138,93882,2,0,P|370:167|367:197,1,60.0000022888184,10|0,3:2|2:0,0:0:0:0:
436,129,94050,2,0,P|406:135|376:138,1,60.0000022888184,10|0,0:0|3:2,0:0:0:0:
272,246,94304,85,0,3:2:0:0:
272,246,94388,2,0,P|153:228|34:211,1,240,10|0,3:2|2:0,0:0:0:0:
34,211,94725,2,0,P|152:227|271:245,1,240,10|0,3:2|2:0,0:0:0:0:
271,245,95062,2,0,P|152:227|33:210,2,240.000009155274,10|8|0,3:2|3:2|0:2,0:0:0:0:
0,73,95568,6,0,P|3:96|6:120,1,47.9999985351563,10|0,3:2|2:0,0:0:0:0:
7,121,95905,2,0,P|36:124|65:130,1,60.0000022888184,10|0,3:2|2:0,0:0:0:0:
67,131,96073,2,0,P|96:134|125:140,1,60.0000022888184,2|0,0:0|2:0,0:0:0:0:
126,140,96242,2,0,P|155:143|184:149,1,60.0000022888184,10|0,3:2|2:0,0:0:0:0:
185,149,96410,2,0,P|188:178|194:207,1,60.0000022888184,10|0,0:0|3:2,0:0:0:0:
246,105,96663,85,0,3:2:0:0:
246,105,96748,2,0,P|208:118|184:149,1,80,10|0,3:2|2:0,0:0:0:0:
318,129,96916,2,0,P|285:106|245:104,1,80,10|0,0:2|2:0,0:0:0:0:
308,60,97085,6,0,P|270:73|246:104,1,80,10|0,3:2|2:0,0:0:0:0:
380,84,97253,2,0,P|347:61|307:59,1,80,2|0,0:0|2:0,0:0:0:0:
369,16,97421,86,0,P|331:29|307:60,1,80,10|0,3:2|2:0,0:0:0:0:
441,40,97590,2,0,P|408:17|368:15,1,80,10|0,3:2|2:0,0:0:0:0:
452,114,97759,2,0,P|457:74|440:39,1,80,0|0,0:2|2:0,0:0:0:0:
372,237,97927,6,0,P|374:261|378:285,1,47.9999985351563,10|0,3:2|2:0,0:0:0:0:
313,227,98264,2,0,P|342:234|372:237,1,60.0000022888184,10|0,3:2|2:0,0:0:0:0:
253,217,98432,2,0,P|282:224|312:227,1,60.0000022888184,2|0,0:0|2:0,0:0:0:0:
194,208,98601,2,0,P|223:215|253:218,1,60.0000022888184,10|0,3:2|2:0,0:0:0:0:
185,148,98771,2,0,P|191:178|194:208,1,60.0000022888184,10|0,0:0|3:2,0:0:0:0:
267,334,99023,85,0,3:2:0:0:
267,334,99107,2,0,P|283:215|301:96,1,240,14|0,3:2|2:0,0:0:0:0:
301,97,99444,2,0,P|283:215|266:334,1,240,10|0,3:2|2:0,0:0:0:0:
266,335,99781,2,0,P|282:216|300:97,2,240.000009155274,10|8|0,3:2|3:2|0:2,0:0:0:0:
161,296,100287,6,0,P|137:292|114:291,1,47.9999985351563,10|0,3:2|2:0,0:0:0:0:
113,290,100624,2,0,P|111:261|103:232,1,60.0000022888184,10|0,3:2|2:0,0:0:0:0:
102,231,100792,2,0,P|100:202|92:173,1,60.0000022888184,2|0,0:0|2:0,0:0:0:0:
91,172,100961,2,0,P|89:143|81:114,1,60.0000022888184,10|0,3:2|2:0,0:0:0:0:
80,113,101129,2,0,P|50:110|21:105,1,60.0000022888184,10|0,0:0|3:2,0:0:0:0:
239,140,101382,85,0,3:2:0:0:
239,140,101467,2,0,P|277:127|301:96,1,80,10|0,3:2|2:0,0:0:0:0:
167,114,101635,2,0,P|200:137|240:139,1,80,10|0,0:2|2:0,0:0:0:0:
301,96,101804,6,0,P|331:122|370:127,1,80,10|0,3:2|2:0,0:0:0:0:
287,21,101972,2,0,P|283:61|301:96,1,80,2|0,0:0|2:0,0:0:0:0:
370,127,102140,86,0,P|362:166|377:202,1,80,10|0,3:2|2:0,0:0:0:0:
428,78,102309,2,0,P|391:95|369:128,1,80,10|0,3:2|2:0,0:0:0:0:
498,106,102478,2,0,P|465:81|427:78,1,80,0|0,0:2|2:0,0:0:0:0:
450,275,102647,6,0,P|452:251|456:227,1,47.9999985351563,10|0,3:2|2:0,0:0:0:0:
391,285,102984,2,0,P|420:278|450:275,1,60.0000022888184,10|0,3:2|2:0,0:0:0:0:
331,295,103152,2,0,P|360:288|390:285,1,60.0000022888184,2|0,0:0|2:0,0:0:0:0:
272,304,103321,2,0,P|301:297|331:294,1,60.0000022888184,10|0,3:2|2:0,0:0:0:0:
263,364,103489,2,0,P|269:334|272:304,1,60.0000022888184,10|0,0:0|3:2,0:0:0:0:
138,236,103742,85,0,3:2:0:0:
138,236,103826,2,0,P|256:219|375:201,1,240,10|0,3:2|2:0,0:0:0:0:
375,201,104163,2,0,P|256:218|137:235,1,240,10|0,3:2|2:0,0:0:0:0:
137,235,104500,2,0,P|255:218|374:200,2,240.000009155274,10|8|0,3:2|3:2|0:2,0:0:0:0:
224,309,105006,6,0,P|248:305|271:304,1,47.9999985351563,10|0,3:2|2:0,0:0:0:0:
272,303,105343,2,0,P|274:274|282:245,1,60.0000022888184,10|0,3:2|2:0,0:0:0:0:
283,244,105511,2,0,P|285:215|293:186,1,60.0000022888184,2|0,0:0|2:0,0:0:0:0:
294,185,105680,2,0,P|296:156|304:127,1,60.0000022888184,10|0,3:2|2:0,0:0:0:0:
305,126,105848,2,0,P|335:123|364:118,1,60.0000022888184,10|0,0:0|3:2,0:0:0:0:
231,47,106102,85,0,3:2:0:0:
231,47,106187,2,0,P|193:34|169:3,1,80,10|0,3:2|2:0,0:0:0:0:
303,22,106355,2,0,P|270:44|231:47,1,80,10|0,0:2|2:0,0:0:0:0:
155,78,106523,6,0,P|125:104|86:109,1,80,10|0,3:2|2:0,0:0:0:0:
169,3,106691,2,0,P|172:42|155:77,1,80,2|0,0:0|2:0,0:0:0:0:
144,159,106860,86,0,P|151:197|137:234,1,80,10|0,3:2|2:0,0:0:0:0:
86,109,107029,2,0,P|121:125|143:158,1,80,10|0,3:2|2:0,0:0:0:0:
12,126,107197,2,0,P|46:106|85:108,1,80,0|0,0:2|2:0,0:0:0:0:
244,350,107366,6,0,P|245:362|247:374,1,16,10|0,3:2|2:0,0:0:0:0:
243,335,107534,2,0,P|244:347|246:359,1,16,0|0,0:0|2:0,0:0:0:0:
185,326,107703,2,0,P|214:333|244:336,1,60.0000022888184,10|0,3:2|2:0,0:0:0:0:
125,316,107871,2,0,P|154:323|184:326,1,60.0000022888184,2|0,0:0|2:0,0:0:0:0:
66,307,108040,2,0,P|95:314|125:317,1,60.0000022888184,10|0,3:2|2:0,0:0:0:0:
57,247,108208,2,0,P|63:277|66:307,1,60.0000022888184,10|0,0:0|3:2,0:0:0:0:
256,192,108461,5,8,3:2:0:0:
256,192,108545,1,8,0:0:0:0:
187,87,108714,21,8,3:2:0:0:
325,87,108882,2,0,P|321:110|318:134,1,47.9999985351563,8|0,3:2|2:0,0:0:0:0:
325,87,109220,1,8,3:2:0:0:
187,87,109388,2,0,P|190:110|193:134,1,47.9999985351563,8|0,3:2|0:0,0:0:0:0:
256,192,109725,69,8,0:0:0:0:
256,192,109894,1,8,0:0:0:0:
256,192,110231,1,8,0:0:0:0:
256,192,110568,1,8,0:0:0:0:
256,192,110736,1,0,0:0:0:0:
334,205,110905,37,10,3:2:0:0:
256,192,111074,1,10,0:2:0:0:
334,205,111243,1,10,3:2:0:0:
320,283,111411,1,2,0:0:0:0:
334,205,111580,1,10,3:2:0:0:
320,283,111748,1,10,3:2:0:0:
400,297,111917,1,0,0:2:0:0:
334,205,112086,6,0,P|295:196|256:192,1,80,10|0,3:2|0:0,0:0:0:0:
334,205,112422,1,10,3:2:0:0:
334,205,112590,2,0,P|325:244|321:283,1,80,2|8,0:0|3:2,0:0:0:0:
321,284,112927,2,0,P|360:288|399:297,1,80,10|2,0:0|3:2,0:0:0:0:
490,231,113180,85,0,3:2:0:0:
490,231,113265,1,10,3:2:0:0:
412,218,113433,1,10,0:2:0:0:
425,139,113602,1,10,3:2:0:0:
412,218,113770,1,2,0:0:0:0:
346,126,113939,1,10,3:2:0:0:
346,126,114107,1,10,3:2:0:0:
425,139,114276,1,0,0:2:0:0:
490,231,114444,6,0,P|450:226|411:217,1,80,10|0,3:2|0:0,0:0:0:0:
425,139,114781,1,10,3:2:0:0:
425,139,114950,2,0,P|420:178|411:217,1,80,2|8,0:0|3:2,0:0:0:0:
346,126,115287,2,0,P|384:134|424:139,1,80,10|2,0:0|3:2,0:0:0:0:
437,61,115540,85,0,3:2:0:0:
437,61,115624,1,10,3:2:0:0:
359,47,115793,1,10,0:2:0:0:
346,126,115961,1,10,3:2:0:0:
267,113,116130,1,2,0:0:0:0:
346,126,116298,1,10,3:2:0:0:
359,47,116467,1,10,3:2:0:0:
359,47,116635,1,0,0:2:0:0:
437,61,116804,6,0,P|398:51|358:46,1,80,10|0,3:2|0:0,0:0:0:0:
346,126,117141,1,10,3:2:0:0:
346,126,117309,2,0,P|306:120|267:111,1,80,2|8,0:0|3:2,0:0:0:0:
346,126,117647,2,0,P|355:87|361:48,1,80,10|2,0:0|3:2,0:0:0:0:
281,32,117899,85,0,3:2:0:0:
281,32,117984,1,10,3:2:0:0:
267,111,118152,1,10,0:2:0:0:
188,96,118321,1,10,3:2:0:0:
267,111,118489,1,2,0:0:0:0:
173,174,118658,1,10,3:2:0:0:
188,96,118826,1,10,3:2:0:0:
173,174,118995,1,0,0:2:0:0:
281,32,119163,6,0,P|271:70|266:110,1,80,10|0,3:2|0:0,0:0:0:0:
188,96,119500,1,10,3:2:0:0:
188,96,119669,2,0,P|227:101|266:110,1,80,2|8,0:0|3:2,0:0:0:0:
173,174,120006,2,0,P|182:135|188:96,1,80,10|2,0:0|3:2,0:0:0:0:
105,110,120259,85,0,3:2:0:0:
105,110,120343,1,14,3:2:0:0:
27,123,120512,1,10,0:2:0:0:
105,110,120681,1,10,3:2:0:0:
91,32,120849,1,2,0:0:0:0:
105,110,121018,1,10,3:2:0:0:
91,32,121186,1,10,3:2:0:0:
171,18,121355,1,0,0:2:0:0:
105,110,121524,6,0,P|66:119|27:123,1,80,10|0,3:2|0:0,0:0:0:0:
105,110,121860,1,10,3:2:0:0:
105,110,122028,2,0,P|96:71|92:32,1,80,2|8,0:0|3:2,0:0:0:0:
91,31,122365,2,0,P|130:27|169:18,1,80,10|2,0:0|3:2,0:0:0:0:
188,95,122618,85,0,3:2:0:0:
188,95,122703,1,10,3:2:0:0:
201,173,122871,1,10,0:2:0:0:
280,160,123040,1,10,3:2:0:0:
201,173,123208,1,2,0:0:0:0:
293,239,123377,1,10,3:2:0:0:
293,239,123545,1,10,3:2:0:0:
280,160,123714,1,0,0:2:0:0:
188,95,123882,6,0,P|193:135|202:174,1,80,10|0,3:2|0:0,0:0:0:0:
280,160,124219,1,10,3:2:0:0:
280,160,124388,2,0,P|241:165|202:174,1,80,2|8,0:0|3:2,0:0:0:0:
293,239,124725,2,0,P|285:201|280:161,1,80,10|2,0:0|3:2,0:0:0:0:
267,81,124978,85,0,3:2:0:0:
267,81,125062,1,10,3:2:0:0:
345,67,125231,1,10,0:2:0:0:
358,146,125399,1,10,3:2:0:0:
437,131,125568,1,2,0:0:0:0:
358,146,125736,1,10,3:2:0:0:
345,67,125905,1,10,3:2:0:0:
345,67,126073,1,0,0:2:0:0:
267,81,126242,6,0,P|306:71|346:66,1,80,10|0,3:2|0:0,0:0:0:0:
358,146,126579,1,10,3:2:0:0:
358,146,126747,2,0,P|398:140|437:131,1,80,2|8,0:0|3:2,0:0:0:0:
358,146,127085,2,0,P|349:107|343:68,1,80,10|0,0:0|3:2,0:0:0:0:
422,52,127338,85,0,3:2:0:0:
422,52,127423,1,10,3:2:0:0:
437,131,127591,1,8,0:2:0:0:
358,145,127760,1,10,3:2:0:0:
436,131,127928,1,2,0:0:0:0:
372,224,128097,1,8,3:2:0:0:
358,145,128265,1,10,3:2:0:0:
372,224,128434,1,0,0:2:0:0:
422,52,128602,6,0,P|426:91|435:130,1,80,10|0,3:2|0:0,0:0:0:0:
358,145,128939,1,10,3:2:0:0:
358,145,129108,2,0,P|396:135|435:130,1,80,2|8,0:0|3:2,0:0:0:0:
372,224,129445,2,0,P|366:184|358:145,1,80,10|0,0:0|3:2,0:0:0:0:
256,192,129697,37,0,3:2:0:0:
256,192,129781,1,2,3:2:0:0:
256,192,129950,1,2,3:2:0:0:
18,145,130118,6,0,P|15:121|12:98,1,47.9999985351563,10|0,0:0|2:0,0:0:0:0:
92,191,130456,2,0,P|128:187|164:182,1,71.9999978027344,10|0,0:0|2:0,0:0:0:0:
12,98,130793,2,0,P|9:74|6:51,1,47.9999985351563,8|0,0:0|2:0,0:0:0:0:
102,105,131130,2,0,P|149:99|196:92,1,96,8|0,0:0|2:0,0:0:0:0:
6,51,131467,2,0,P|3:27|0:4,1,47.9999985351563,8|0,0:0|2:0,0:0:0:0:
89,19,131804,2,0,P|129:15|169:9,1,80,8|0,0:0|2:0,0:0:0:0:
256,192,132141,85,2,3:2:0:0:
256,192,132310,1,2,3:2:0:0:
18,239,132478,6,0,P|15:263|12:286,1,47.9999985351563,10|0,0:0|2:0,0:0:0:0:
92,191,132816,2,0,P|128:195|164:200,1,71.9999978027344,10|0,0:0|2:0,0:0:0:0:
12,286,133153,2,0,P|9:310|6:333,1,47.9999985351563,8|0,0:0|2:0,0:0:0:0:
102,279,133490,2,0,P|149:285|196:292,1,96,8|0,0:0|2:0,0:0:0:0:
6,333,133827,2,0,P|3:357|0:380,1,47.9999985351563,8|0,0:0|2:0,0:0:0:0:
89,365,134164,2,0,P|129:369|169:375,1,80,8|0,0:0|2:0,0:0:0:0:
256,192,134501,85,2,3:2:0:0:
256,192,134670,1,2,3:2:0:0:
494,239,134838,6,0,P|497:263|500:286,1,47.9999985351563,10|0,0:0|2:0,0:0:0:0:
419,191,135176,2,0,P|383:195|347:200,1,71.9999978027344,10|0,0:0|2:0,0:0:0:0:
500,286,135513,2,0,P|503:310|506:333,1,47.9999985351563,8|0,0:0|2:0,0:0:0:0:
410,279,135850,2,0,P|363:285|316:292,1,96,8|0,0:0|2:0,0:0:0:0:
506,333,136187,2,0,P|509:357|512:380,1,47.9999985351563,8|0,0:0|2:0,0:0:0:0:
423,365,136524,2,0,P|383:369|343:375,1,80,8|0,0:0|2:0,0:0:0:0:
256,192,136860,85,2,3:2:0:0:
256,192,137029,1,2,3:2:0:0:
493,145,137197,6,0,P|496:121|499:98,1,47.9999985351563,10|0,0:0|2:0,0:0:0:0:
419,191,137535,2,0,P|383:187|347:182,1,71.9999978027344,10|0,0:0|2:0,0:0:0:0:
499,98,137872,2,0,P|502:74|505:51,1,47.9999985351563,8|0,0:0|2:0,0:0:0:0:
315,92,138209,2,0,P|362:99|409:105,1,96,8|0,0:0|3:2,0:0:0:0:
511,4,138461,1,0,3:2:0:0:
511,4,138546,2,0,P|508:27|505:51,1,47.9999985351563,8|0,0:0|3:2,0:0:0:0:
342,9,138798,1,0,3:2:0:0:
342,9,138883,2,0,P|382:15|422:19,1,80,8|0,0:0|3:2,0:0:0:0:
315,92,139136,53,0,3:2:0:0:
315,92,139220,2,0,P|196:110|77:127,1,240,14|0,3:2|2:0,0:0:0:0:
77,127,139557,2,0,P|195:111|314:93,1,240,10|0,3:2|2:0,0:0:0:0:
314,93,139894,2,0,P|195:111|76:128,2,240.000009155274,10|8|0,3:2|3:2|0:2,0:0:0:0:
238,19,140399,6,0,P|235:42|231:66,1,47.9999985351563,10|0,3:2|2:0,0:0:0:0:
231,67,140736,2,0,P|228:96|222:125,1,60.0000022888184,10|0,3:2|2:0,0:0:0:0:
222,126,140904,2,0,P|193:129|164:135,1,60.0000022888184,2|0,0:0|2:0,0:0:0:0:
163,135,141073,2,0,P|160:164|154:193,1,60.0000022888184,10|0,3:2|2:0,0:0:0:0:
154,194,141241,2,0,P|151:223|145:252,1,60.0000022888184,10|0,0:0|3:2,0:0:0:0:
76,324,141495,85,0,3:2:0:0:
76,324,141580,2,0,P|114:337|138:368,1,80,10|0,3:2|2:0,0:0:0:0:
4,349,141748,2,0,P|37:326|77:324,1,80,10|0,0:2|2:0,0:0:0:0:
216,277,141917,6,0,P|254:264|278:233,1,80,10|0,3:2|2:0,0:0:0:0:
144,253,142085,2,0,P|177:276|217:278,1,80,2|0,0:0|2:0,0:0:0:0:
422,263,142253,86,0,P|460:276|484:307,1,80,10|0,3:2|2:0,0:0:0:0:
351,289,142421,2,0,P|384:266|424:264,1,80,10|0,3:2|2:0,0:0:0:0:
340,363,142590,2,0,P|335:323|352:288,1,80,0|0,0:2|2:0,0:0:0:0:
440,183,142759,6,0,P|464:187|488:190,1,47.9999985351563,10|0,3:2|2:0,0:0:0:0:
380,173,143096,2,0,P|410:179|440:183,1,60.0000022888184,10|0,3:2|2:0,0:0:0:0:
371,114,143264,2,0,P|377:144|381:174,1,60.0000022888184,2|0,0:0|2:0,0:0:0:0:
312,105,143433,2,0,P|342:111|372:114,1,60.0000022888184,10|0,3:2|2:0,0:0:0:0:
253,96,143601,2,0,P|283:102|313:105,1,60.0000022888184,10|0,0:0|3:2,0:0:0:0:
388,27,143855,85,0,3:2:0:0:
388,27,143939,2,0,P|406:146|423:265,1,240,10|0,3:2|2:0,0:0:0:0:
423,265,144276,2,0,P|407:147|389:28,1,240,10|0,3:2|2:0,0:0:0:0:
388,27,144613,2,0,P|406:146|423:265,2,240.000009155274,10|8|0,3:2|3:2|0:2,0:0:0:0:
312,105,145118,6,0,P|289:108|265:112,1,47.9999985351563,10|0,3:2|2:0,0:0:0:0:
264,112,145455,2,0,P|235:115|206:121,1,60.0000022888184,10|0,3:2|2:0,0:0:0:0:
205,121,145623,2,0,P|202:150|196:179,1,60.0000022888184,2|0,0:0|2:0,0:0:0:0:
196,180,145792,2,0,P|167:183|138:189,1,60.0000022888184,10|0,3:2|2:0,0:0:0:0:
137,189,145962,2,0,P|108:192|79:198,1,60.0000022888184,10|0,0:0|3:2,0:0:0:0:
72,109,146214,85,0,3:2:0:0:
72,109,146299,2,0,P|110:96|134:65,1,80,10|0,3:2|2:0,0:0:0:0:
0,85,146467,2,0,P|33:108|73:110,1,80,10|0,0:2|2:0,0:0:0:0:
276,97,146635,6,0,P|314:110|338:141,1,80,10|0,3:2|2:0,0:0:0:0:
204,122,146803,2,0,P|237:99|277:97,1,80,2|0,0:0|2:0,0:0:0:0:
449,196,146972,86,0,P|487:209|511:240,1,80,10|0,3:2|2:0,0:0:0:0:
378,222,147140,2,0,P|411:199|451:197,1,80,10|0,3:2|2:0,0:0:0:0:
367,297,147309,2,0,P|362:257|379:222,1,80,0|0,0:2|2:0,0:0:0:0:
436,366,147478,6,0,P|460:370|484:373,1,47.9999985351563,10|0,3:2|2:0,0:0:0:0:
376,356,147815,2,0,P|406:362|436:366,1,60.0000022888184,10|0,3:2|2:0,0:0:0:0:
367,297,147983,2,0,P|373:327|377:357,1,60.0000022888184,2|0,0:0|2:0,0:0:0:0:
308,288,148152,2,0,P|338:294|368:297,1,60.0000022888184,10|0,3:2|2:0,0:0:0:0:
249,279,148320,2,0,P|279:285|309:288,1,60.0000022888184,10|0,0:0|3:2,0:0:0:0:
297,373,148574,85,0,3:2:0:0:
297,373,148658,2,0,P|178:355|59:338,1,240,14|0,3:2|2:0,0:0:0:0:
59,338,148995,2,0,P|177:354|296:372,1,240,10|0,3:2|2:0,0:0:0:0:
296,372,149332,2,0,P|177:354|58:337,2,240.000009155274,10|8|0,3:2|3:2|0:2,0:0:0:0:
185,378,149838,6,0,P|182:355|178:331,1,47.9999985351563,10|0,3:2|2:0,0:0:0:0:
178,330,150175,2,0,P|175:301|169:272,1,60.0000022888184,10|0,3:2|2:0,0:0:0:0:
169,271,150343,2,0,P|140:268|111:262,1,60.0000022888184,2|0,0:0|2:0,0:0:0:0:
110,262,150512,2,0,P|107:233|101:204,1,60.0000022888184,10|0,3:2|2:0,0:0:0:0:
101,203,150680,2,0,P|98:174|92:145,1,60.0000022888184,10|0,0:0|3:2,0:0:0:0:
241,244,150933,85,0,3:2:0:0:
241,244,151018,2,0,P|279:257|303:288,1,80,10|0,3:2|2:0,0:0:0:0:
169,270,151186,2,0,P|202:247|242:245,1,80,10|0,0:2|2:0,0:0:0:0:
303,288,151355,6,0,P|333:262|372:257,1,80,10|0,3:2|2:0,0:0:0:0:
289,363,151523,2,0,P|285:323|303:288,1,80,2|0,0:0|2:0,0:0:0:0:
372,257,151691,86,0,P|364:218|379:182,1,80,10|0,3:2|2:0,0:0:0:0:
429,304,151860,2,0,P|393:288|371:256,1,80,10|0,3:2|2:0,0:0:0:0:
499,276,152029,2,0,P|466:301|428:304,1,80,0|0,0:2|2:0,0:0:0:0:
379,181,152197,6,0,P|403:185|427:188,1,47.9999985351563,10|0,3:2|2:0,0:0:0:0:
319,171,152534,2,0,P|349:177|379:181,1,60.0000022888184,10|0,3:2|2:0,0:0:0:0:
310,112,152703,2,0,P|316:142|320:172,1,60.0000022888184,2|0,0:0|2:0,0:0:0:0:
251,103,152871,2,0,P|281:109|311:112,1,60.0000022888184,10|0,3:2|2:0,0:0:0:0:
192,94,153040,2,0,P|222:100|252:103,1,60.0000022888184,10|0,0:0|3:2,0:0:0:0:
463,66,153293,85,0,3:2:0:0:
463,66,153377,2,0,P|445:185|428:304,1,240,10|0,3:2|2:0,0:0:0:0:
428,304,153714,2,0,P|444:186|462:67,1,240,10|0,3:2|2:0,0:0:0:0:
463,66,154051,2,0,P|445:185|428:304,2,240.000009155274,10|8|0,3:2|3:2|0:2,0:0:0:0:
512,153,154557,6,0,P|489:156|465:160,1,47.9999985351563,10|0,3:2|2:0,0:0:0:0:
464,160,154894,2,0,P|435:163|406:169,1,60.0000022888184,10|0,3:2|2:0,0:0:0:0:
405,169,155062,2,0,P|402:198|396:227,1,60.0000022888184,2|0,0:0|2:0,0:0:0:0:
396,228,155231,2,0,P|367:231|338:237,1,60.0000022888184,10|0,3:2|2:0,0:0:0:0:
337,237,155399,2,0,P|308:240|279:246,1,60.0000022888184,10|0,0:0|3:2,0:0:0:0:
150,260,155653,85,0,3:2:0:0:
150,260,155736,2,0,P|137:298|106:322,1,80,10|0,3:2|2:0,0:0:0:0:
124,188,155904,2,0,P|147:221|149:261,1,80,10|0,0:2|2:0,0:0:0:0:
194,199,156073,6,0,P|181:237|150:261,1,80,10|0,3:2|2:0,0:0:0:0:
169,128,156241,2,0,P|192:161|194:201,1,80,2|0,0:0|2:0,0:0:0:0:
237,137,156411,86,0,P|224:175|193:199,1,80,10|0,3:2|2:0,0:0:0:0:
211,65,156580,2,0,P|234:98|236:138,1,80,10|0,3:2|2:0,0:0:0:0:
137,54,156747,2,0,P|177:49|212:66,1,80,0|0,0:2|2:0,0:0:0:0:
395,110,156916,6,0,P|402:109|410:108,1,16,10|0,3:2|2:0,0:0:0:0:
380,112,157085,2,0,P|387:111|395:110,1,16,0|0,0:0|2:0,0:0:0:0:
321,122,157253,2,0,P|351:116|381:112,1,60.0000022888184,10|0,3:2|2:0,0:0:0:0:
312,181,157422,2,0,P|318:151|322:121,1,60.0000022888184,2|0,0:0|2:0,0:0:0:0:
253,190,157590,2,0,P|283:184|313:181,1,60.0000022888184,10|0,3:2|2:0,0:0:0:0:
194,199,157759,2,0,P|224:193|254:190,1,60.0000022888184,10|0,0:0|3:2,0:0:0:0:
396,275,158012,85,8,3:2:0:0:
396,275,158096,2,0,P|388:315|384:354,2,80,10|0|8,3:2|0:0|0:2,0:0:0:0:
300,262,158433,2,0,P|296:302|288:341,2,80,10|0|0,3:2|0:0|0:0,0:0:0:0:
383,355,158770,2,0,P|335:347|288:342,1,95.9999970703126,10|8,3:2|3:2,0:0:0:0:
288,341,159107,1,0,0:2:0:0:
114,301,159276,6,0,P|162:293|209:288,1,95.9999970703126,10|10,3:2|3:2,0:0:0:0:
209,288,159781,2,0,P|201:249|198:210,1,80,2|10,0:0|3:2,0:0:0:0:
114,301,160118,2,0,P|110:262|103:223,1,80,10|0,0:0|3:2,0:0:0:0:
74,34,160371,85,0,3:2:0:0:
74,34,160456,2,0,P|114:42|153:46,2,80,10|0|8,3:2|0:0|0:2,0:0:0:0:
61,129,160793,2,0,P|101:133|140:141,2,80,10|0|0,3:2|0:0|0:0,0:0:0:0:
153,46,161130,2,0,P|145:94|140:141,1,95.9999970703126,10|8,3:2|3:2,0:0:0:0:
153,46,161467,1,0,0:2:0:0:
227,153,161635,6,0,P|235:105|240:58,1,95.9999970703126,10|10,3:2|3:2,0:0:0:0:
227,154,162141,2,0,P|266:158|305:165,1,80,2|10,0:0|3:2,0:0:0:0:
240,57,162478,2,0,P|279:65|318:68,1,80,10|0,0:0|3:2,0:0:0:0:
384,128,162731,85,0,3:2:0:0:
384,128,162815,2,0,P|392:168|396:207,2,80,10|0|8,3:2|0:0|0:2,0:0:0:0:
479,114,163152,2,0,P|483:154|491:193,2,80,10|0|0,3:2|0:0|0:0,0:0:0:0:
491,192,163489,2,0,P|443:198|396:206,1,95.9999970703126,10|8,3:2|3:2,0:0:0:0:
396,205,163826,1,0,0:2:0:0:
255,292,163995,6,0,P|303:286|351:279,1,95.9999970703126,10|10,3:2|3:2,0:0:0:0:
351,279,164500,2,0,P|355:318|362:357,1,80,2|10,0:0|3:2,0:0:0:0:
255,292,164838,2,0,P|263:331|266:370,1,80,10|0,0:0|3:2,0:0:0:0:
80,361,165091,85,0,3:2:0:0:
80,361,165175,2,0,P|76:321|68:282,2,80,10|0|8,3:2|0:0|0:2,0:0:0:0:
175,347,165512,2,0,P|167:307|163:268,2,80,10|0|0,3:2|0:0|0:0,0:0:0:0:
68,282,165849,2,0,P|115:276|163:268,1,95.9999970703126,10|8,3:2|3:2,0:0:0:0:
68,282,166186,1,0,0:2:0:0:
23,203,166355,6,0,P|17:155|9:107,1,95.9999970703126,10|10,3:2|3:2,0:0:0:0:
22,204,166860,2,0,P|61:195|100:192,1,80,2|10,0:0|3:2,0:0:0:0:
23,203,167197,1,10,0:0:0:0:
100,104,167366,85,0,3:2:0:0:
100,104,167450,1,0,3:2:0:0:
100,104,167534,2,0,P|108:64|112:25,2,80,14|0|8,3:2|0:0|0:2,0:0:0:0:
196,117,167871,2,0,P|200:77|208:38,2,80,10|0|0,3:2|0:0|0:0,0:0:0:0:
113,24,168208,2,0,P|161:32|208:37,1,95.9999970703126,10|8,3:2|3:2,0:0:0:0:
208,38,168545,1,0,0:2:0:0:
382,79,168714,6,0,P|334:87|287:92,1,95.9999970703126,10|10,3:2|3:2,0:0:0:0:
286,92,169219,2,0,P|294:131|297:170,1,80,2|10,0:0|3:2,0:0:0:0:
383,79,169556,2,0,P|387:118|394:157,1,80,10|0,0:0|3:2,0:0:0:0:
357,241,169809,85,0,3:2:0:0:
357,241,169894,2,0,P|397:249|436:253,2,80,10|0|8,3:2|0:0|0:2,0:0:0:0:
344,336,170231,2,0,P|384:340|423:348,2,80,10|0|0,3:2|0:0|0:0,0:0:0:0:
436,253,170568,2,0,P|428:301|423:348,1,95.9999970703126,10|8,3:2|3:2,0:0:0:0:
436,253,170905,1,0,0:2:0:0:
255,360,171074,6,0,P|207:352|160:347,1,95.9999970703126,10|10,3:2|3:2,0:0:0:0:
256,360,171580,2,0,P|260:320|267:281,1,80,2|10,0:0|3:2,0:0:0:0:
159,347,171917,2,0,P|167:307|170:268,1,80,10|0,0:0|3:2,0:0:0:0:
108,201,172169,85,0,3:2:0:0:
108,201,172253,2,0,P|100:161|96:122,2,80,10|0|8,3:2|0:0|0:2,0:0:0:0:
12,214,172590,2,0,P|8:174|0:135,2,80,10|0|0,3:2|0:0|0:0,0:0:0:0:
96,122,172927,2,0,P|48:130|1:135,1,95.9999970703126,10|8,3:2|3:2,0:0:0:0:
0,135,173264,1,0,0:2:0:0:
181,105,173433,6,0,P|229:97|276:92,1,95.9999970703126,10|10,3:2|3:2,0:0:0:0:
277,92,173938,2,0,P|268:52|265:13,1,80,2|10,0:0|3:2,0:0:0:0:
180,105,174275,2,0,P|175:65|168:26,1,80,10|0,0:0|3:2,0:0:0:0:
370,59,174529,85,0,3:2:0:0:
370,59,174613,2,0,P|362:99|358:138,1,80,10|0,3:2|2:0,0:0:0:0:
449,71,174781,2,0,P|409:63|370:59,1,80,8|0,0:2|2:0,0:0:0:0:
437,149,174950,2,0,P|445:109|449:70,1,80,10|0,3:2|2:0,0:0:0:0:
358,137,175118,2,0,P|398:145|437:149,1,80,0|0,0:0|2:0,0:0:0:0:
283,179,175287,6,0,P|291:219|295:258,1,80,10|0,3:2|2:0,0:0:0:0:
204,191,175455,2,0,P|244:183|283:179,1,80,8|0,3:2|2:0,0:0:0:0:
216,269,175624,2,0,P|208:229|204:190,1,80,0|0,0:2|2:0,0:0:0:0:
308,339,175793,86,0,P|268:347|229:351,1,80,10|0,3:2|0:0,0:0:0:0:
146,326,176130,5,10,3:2:0:0:
146,326,176214,1,0,3:2:0:0:
146,326,176298,1,10,3:2:0:0:
294,257,176467,85,10,3:2:0:0:
336,264,176551,1,0,3:2:0:0:
380,271,176635,1,10,0:0:0:0:
60,312,176804,5,0,3:2:0:0:
102,319,176888,1,0,3:2:0:0:
146,326,176972,1,6,3:2:0:0:
315,92,186242,53,0,3:2:0:0:
315,92,186326,1,0,3:2:0:0:
315,92,186411,2,0,P|255:101|196:109,1,120,14|0,3:2|2:0,0:0:0:0:
196,109,186748,2,0,P|255:101|314:92,1,120,10|0,3:2|2:0,0:0:0:0:
314,92,187085,2,0,P|254:101|195:109,2,120,10|8|0,3:2|3:2|0:2,0:0:0:0:
110,125,187590,6,0,P|105:164|100:204,1,80,10|10,3:2|3:2,0:0:0:0:
100,205,188096,2,0,P|139:200|179:195,1,80,2|10,0:0|3:2,0:0:0:0:
179,195,188433,2,0,P|174:234|169:274,1,80,10|0,0:0|3:2,0:0:0:0:
89,283,188686,85,0,3:2:0:0:
89,283,188770,2,0,P|49:287|9:292,1,80,10|10,3:2|0:2,0:0:0:0:
169,274,189107,2,0,P|129:278|89:283,1,80,10|2,3:2|0:0,0:0:0:0:
248,264,189444,1,10,3:2:0:0:
248,264,189613,2,0,P|208:268|168:273,1,80,10|0,3:2|0:2,0:0:0:0:
336,231,189950,6,0,P|330:270|326:310,1,80,10|10,3:2|3:2,0:0:0:0:
415,240,190456,2,0,P|375:234|335:230,1,80,2|10,0:0|3:2,0:0:0:0:
405,319,190793,2,0,P|409:279|414:239,1,80,10|0,0:0|3:2,0:0:0:0:
509,166,191045,85,0,3:2:0:0:
509,166,191130,2,0,P|500:226|492:285,1,120,14|0,3:2|2:0,0:0:0:0:
492,285,191467,2,0,P|500:226|509:167,1,120,10|0,3:2|2:0,0:0:0:0:
509,167,191804,2,0,P|500:227|492:286,2,120,10|8|0,3:2|3:2|0:2,0:0:0:0:
415,240,192309,6,0,P|375:244|335:249,1,80,10|10,3:2|3:2,0:0:0:0:
335,250,192815,2,0,P|339:210|344:170,1,80,2|10,0:0|3:2,0:0:0:0:
345,171,193152,2,0,P|305:175|265:180,1,80,10|0,0:0|3:2,0:0:0:0:
97,166,193405,85,0,3:2:0:0:
97,166,193489,2,0,P|99:136|103:106,1,60.0000022888184,10|0,3:2|2:0,0:0:0:0:
37,160,193658,2,0,P|66:162|96:166,1,60.0000022888184,10|0,3:2|2:0,0:0:0:0:
267,99,193826,6,0,P|237:101|207:105,1,60.0000022888184,10|0,3:2|2:0,0:0:0:0:
207,105,193995,2,0,P|204:75|200:45,1,60.0000022888184,2|0,3:2|2:0,0:0:0:0:
200,45,194163,2,0,P|191:105|183:164,2,120,10|10|0,3:2|3:2|3:2,0:0:0:0:
183,163,194669,1,2,3:2:0:0:
200,45,194838,85,8,0:0:0:0:
265,180,195006,1,10,3:2:0:0:
262,201,195090,1,0,3:2:0:0:
259,223,195174,1,10,3:2:0:0:
327,255,195343,5,10,3:2:0:0:
335,211,195427,1,0,3:2:0:0:
341,169,195511,1,10,0:0:0:0:
430,145,195680,5,0,3:2:0:0:
430,145,195765,1,0,3:2:0:0:
430,145,195849,2,0,P|412:264|395:383,1,240,14|0,3:2|2:0,0:0:0:0:
396,383,196186,2,0,P|412:265|430:146,1,240,10|0,3:2|2:0,0:0:0:0:
430,146,196523,2,0,P|412:265|395:384,2,240.000009155274,10|8|0,3:2|3:2|0:2,0:0:0:0:
510,179,197029,6,0,P|507:202|504:226,1,47.9999985351563,10|0,3:2|2:0,0:0:0:0:
504,227,197366,2,0,P|475:230|446:236,1,60.0000022888184,10|0,3:2|2:0,0:0:0:0:
445,237,197534,2,0,P|416:240|387:246,1,60.0000022888184,2|0,0:0|2:0,0:0:0:0:
386,246,197703,2,0,P|357:249|328:255,1,60.0000022888184,10|0,3:2|2:0,0:0:0:0:
327,255,197871,2,0,P|324:284|318:313,1,60.0000022888184,10|0,0:0|3:2,0:0:0:0:
182,191,198124,85,0,3:2:0:0:
182,191,198209,2,0,P|220:204|244:235,1,80,10|0,3:2|2:0,0:0:0:0:
110,216,198377,2,0,P|143:193|183:191,1,80,10|0,0:2|2:0,0:0:0:0:
224,129,198545,6,0,P|211:167|180:191,1,80,10|0,3:2|2:0,0:0:0:0:
199,58,198713,2,0,P|222:91|224:131,1,80,2|0,0:0|2:0,0:0:0:0:
286,173,198882,86,0,P|248:160|224:129,1,80,10|0,3:2|2:0,0:0:0:0:
358,149,199050,2,0,P|325:172|285:174,1,80,10|0,3:2|2:0,0:0:0:0:
369,75,199219,2,0,P|374:115|357:150,1,80,0|0,0:2|2:0,0:0:0:0:
109,56,199388,6,0,P|113:32|116:8,1,47.9999985351563,10|0,3:2|2:0,0:0:0:0:
99,116,199725,2,0,P|105:86|109:56,1,60.0000022888184,10|0,3:2|2:0,0:0:0:0:
40,125,199893,2,0,P|70:119|100:115,1,60.0000022888184,2|0,0:0|2:0,0:0:0:0:
31,184,200062,2,0,P|37:154|40:124,1,60.0000022888184,10|0,3:2|2:0,0:0:0:0:
22,243,200230,2,0,P|28:213|31:183,1,60.0000022888184,10|0,0:0|3:2,0:0:0:0:
27,42,200484,85,0,3:2:0:0:
27,42,200568,2,0,P|146:24|265:7,1,240,10|0,3:2|2:0,0:0:0:0:
264,8,200905,2,0,P|146:24|27:42,1,240,10|0,3:2|2:0,0:0:0:0:
26,42,201242,2,0,P|145:24|264:7,2,240.000009155274,10|8|0,3:2|3:2|0:2,0:0:0:0:
185,98,201748,6,0,P|208:101|232:104,1,47.9999985351563,10|0,3:2|2:0,0:0:0:0:
233,104,202085,2,0,P|236:133|242:162,1,60.0000022888184,10|0,3:2|2:0,0:0:0:0:
243,163,202253,2,0,P|246:192|252:221,1,60.0000022888184,2|0,0:0|2:0,0:0:0:0:
252,222,202422,2,0,P|255:251|261:280,1,60.0000022888184,10|0,3:2|2:0,0:0:0:0:
261,281,202590,2,0,P|290:284|319:290,1,60.0000022888184,10|0,0:0|3:2,0:0:0:0:
363,128,202843,85,0,3:2:0:0:
363,128,202928,2,0,P|376:166|407:190,1,80,10|0,3:2|2:0,0:0:0:0:
387,56,203096,2,0,P|364:89|362:129,1,80,10|0,0:2|2:0,0:0:0:0:
407,190,203265,6,0,P|432:160|438:121,1,80,10|0,3:2|2:0,0:0:0:0:
332,206,203433,2,0,P|371:209|406:191,1,80,2|0,0:0|2:0,0:0:0:0:
438,121,203602,86,0,P|399:115|362:129,1,80,10|0,3:2|2:0,0:0:0:0:
489,178,203770,2,0,P|471:143|438:121,1,80,10|0,3:2|2:0,0:0:0:0:
473,252,203939,2,0,P|491:218|489:178,1,80,0|0,0:2|2:0,0:0:0:0:
389,359,204107,6,0,P|413:363|437:366,1,48,10|0,3:2|2:0,0:0:0:0:
329,349,204444,2,0,P|359:355|389:359,1,60.0000022888184,10|0,3:2|2:0,0:0:0:0:
320,290,204612,2,0,P|326:320|330:350,1,60.0000022888184,2|0,0:0|2:0,0:0:0:0:
261,281,204781,2,0,P|291:287|321:290,1,60.0000022888184,10|0,3:2|2:0,0:0:0:0:
202,272,204949,2,0,P|232:278|262:281,1,60.0000022888184,10|0,0:0|3:2,0:0:0:0:
190,370,205203,85,0,3:2:0:0:
190,370,205287,2,0,P|173:251|155:132,1,240,14|0,3:2|2:0,0:0:0:0:
155,133,205624,2,0,P|172:251|189:370,1,240,10|0,3:2|2:0,0:0:0:0:
190,371,205961,2,0,P|173:252|155:133,2,240.000009155274,10|8|0,3:2|3:2|0:2,0:0:0:0:
261,281,206467,6,0,P|258:258|255:234,1,47.9999985351563,10|0,3:2|2:0,0:0:0:0:
255,233,206804,2,0,P|226:230|197:224,1,60.0000022888184,10|0,3:2|2:0,0:0:0:0:
196,223,206972,2,0,P|167:220|138:214,1,60.0000022888184,2|0,0:0|2:0,0:0:0:0:
137,214,207141,2,0,P|108:211|79:205,1,60.0000022888184,10|0,3:2|2:0,0:0:0:0:
78,205,207309,2,0,P|75:176|69:147,1,60.0000022888184,10|0,0:0|3:2,0:0:0:0:
199,71,207562,85,0,3:2:0:0:
199,71,207647,2,0,P|186:109|155:133,1,80,10|0,3:2|2:0,0:0:0:0:
175,0,207815,2,0,P|198:33|200:73,1,80,10|0,0:2|2:0,0:0:0:0:
274,77,207984,6,0,P|234:84|198:69,1,80,10|0,3:2|2:0,0:0:0:0:
323,20,208152,2,0,P|305:56|272:78,1,80,2|0,0:0|2:0,0:0:0:0:
292,151,208321,86,0,P|323:174|362:179,1,80,10|0,3:2|2:0,0:0:0:0:
274,77,208489,2,0,P|273:116|292:151,1,80,10|0,3:2|2:0,0:0:0:0:
323,20,208658,2,0,P|291:41|274:77,1,80,0|0,0:2|2:0,0:0:0:0:
441,51,208826,6,0,P|445:27|448:3,1,47.9999985351563,10|0,3:2|2:0,0:0:0:0:
431,111,209163,2,0,P|437:81|441:51,1,60.0000022888184,10|0,3:2|2:0,0:0:0:0:
372,120,209331,2,0,P|402:114|432:110,1,60.0000022888184,2|0,0:0|2:0,0:0:0:0:
363,179,209500,2,0,P|369:149|372:119,1,60.0000022888184,10|0,3:2|2:0,0:0:0:0:
354,238,209668,2,0,P|360:208|363:178,1,60.0000022888184,10|0,0:0|3:2,0:0:0:0:
473,187,209922,85,0,3:2:0:0:
473,187,210006,2,0,P|354:204|236:222,1,240,10|0,3:2|2:0,0:0:0:0:
236,222,210343,2,0,P|355:204|474:188,1,240,10|0,3:2|2:0,0:0:0:0:
474,187,210680,2,0,P|355:204|237:222,2,240.000009155274,10|8|0,3:2|3:2|0:2,0:0:0:0:
421,114,211186,6,0,P|398:117|374:120,1,47.9999985351563,10|0,3:2|2:0,0:0:0:0:
373,120,211523,2,0,P|370:149|364:178,1,60.0000022888184,10|0,3:2|2:0,0:0:0:0:
363,179,211691,2,0,P|360:208|354:237,1,60.0000022888184,2|0,0:0|2:0,0:0:0:0:
354,238,211860,2,0,P|351:267|345:296,1,60.0000022888184,10|0,3:2|2:0,0:0:0:0:
345,297,212028,2,0,P|316:300|287:306,1,60.0000022888184,10|0,0:0|3:2,0:0:0:0:
132,271,212281,85,0,3:2:0:0:
132,271,212366,2,0,P|170:284|194:315,1,80,10|0,3:2|2:0,0:0:0:0:
60,297,212534,2,0,P|93:274|133:272,1,80,10|0,0:2|2:0,0:0:0:0:
179,173,212703,6,0,P|171:133|186:97,1,80,10|0,3:2|2:0,0:0:0:0:
237,222,212871,2,0,P|200:204|178:171,1,80,2|0,0:0|2:0,0:0:0:0:
68,178,213041,86,0,P|37:204|-1:209,1,80,10|0,3:2|2:0,0:0:0:0:
83,104,213208,2,0,P|86:144|68:179,1,80,10|0,3:2|2:0,0:0:0:0:
24,56,213377,2,0,P|61:71|82:103,1,80,0|0,0:2|2:0,0:0:0:0:
46,295,213545,6,0,P|39:294|31:293,1,16,10|0,3:2|2:0,0:0:0:0:
61,297,213714,2,0,P|54:296|46:295,1,16,0|0,0:0|2:0,0:0:0:0:
120,307,213882,2,0,P|90:301|60:297,1,60.0000022888184,10|0,3:2|2:0,0:0:0:0:
129,366,214051,2,0,P|123:336|119:306,1,60.0000022888184,2|0,0:0|2:0,0:0:0:0:
188,375,214219,2,0,P|158:369|128:366,1,60.0000022888184,10|0,3:2|2:0,0:0:0:0:
317,259,214388,1,10,0:0:0:0:
256,192,214557,5,0,3:2:0:0:
256,192,214641,1,8,3:2:0:0:
256,192,214725,1,8,0:0:0:0:
330,31,214894,21,8,0:0:0:0:
410,42,215063,2,0,P|405:67|403:89,1,47.9999985351563,8|0,0:0|0:0,0:0:0:0:
330,31,215400,1,8,0:0:0:0:
330,31,215568,2,0,P|326:55|324:78,1,47.9999985351563,8|0,0:0|0:0,0:0:0:0:
403,89,215905,2,0,P|398:114|396:136,1,47.9999985351563,8|0,0:0|0:0,0:0:0:0:
324,78,216243,2,0,P|319:103|317:125,1,47.9999985351563,8|0,0:0|0:0,0:0:0:0:
396,136,216580,1,8,0:0:0:0:
317,125,216748,1,8,0:0:0:0:
256,192,216917,69,8,0:0:0:0:
256,192,217001,1,8,0:0:0:0:
256,192,217085,1,8,0:0:0:0:
109,89,217253,21,8,0:0:0:0:
189,78,217422,2,0,P|194:103|196:125,1,47.9999985351563,8|0,0:0|0:0,0:0:0:0:
109,89,217760,1,8,0:0:0:0:
109,89,217927,2,0,P|113:113|115:136,1,47.9999985351563,8|0,0:0|0:0,0:0:0:0:
256,192,218265,69,8,0:0:0:0:
256,192,218434,1,8,0:0:0:0:
256,192,218771,1,8,0:0:0:0:
256,192,219108,1,8,0:0:0:0:
256,192,219276,1,8,0:0:0:0:
367,143,219444,37,14,3:2:0:0:
305,303,219613,1,10,0:2:0:0:
367,143,219782,1,10,3:2:0:0:
305,303,219950,1,2,0:0:0:0:
367,143,220119,1,10,3:2:0:0:
305,303,220287,1,8,3:2:0:0:
336,223,220456,1,0,0:2:0:0:
424,256,220624,6,0,P|463:248|502:244,1,80,10|0,3:2|0:0,0:0:0:0:
503,244,220961,2,0,P|498:204|490:165,1,80,10|0,3:2|0:0,0:0:0:0:
424,256,221298,1,10,3:2:0:0:
424,256,221467,2,0,P|463:248|503:244,1,80,10|2,0:0|3:2,0:0:0:0:
336,223,221720,85,0,3:2:0:0:
336,223,221804,1,10,3:2:0:0:
176,161,221973,1,10,0:2:0:0:
256,192,222141,1,10,3:2:0:0:
176,161,222310,1,2,0:0:0:0:
336,223,222478,1,10,3:2:0:0:
176,161,222647,1,8,3:2:0:0:
336,223,222815,1,0,0:2:0:0:
189,245,222984,6,0,P|150:249|110:257,1,80,10|0,3:2|0:0,0:0:0:0:
189,245,223321,2,0,P|150:250|111:257,1,80,10|0,3:2|0:0,0:0:0:0:
31,268,223658,1,10,3:2:0:0:
31,268,223827,2,0,P|71:265|110:257,1,80,10|0,0:0|3:2,0:0:0:0:
256,192,224079,85,0,3:2:0:0:
256,192,224163,1,10,3:2:0:0:
318,352,224332,1,10,0:2:0:0:
256,192,224500,1,10,3:2:0:0:
318,352,224669,1,2,0:0:0:0:
256,192,224837,1,10,3:2:0:0:
287,272,225007,1,8,3:2:0:0:
256,192,225174,1,0,0:2:0:0:
422,218,225343,6,0,P|383:210|344:206,1,80,10|0,3:2|0:0,0:0:0:0:
355,127,225680,2,0,P|347:166|343:205,1,80,10|0,3:2|0:0,0:0:0:0:
343,206,226017,1,10,3:2:0:0:
342,205,226186,2,0,P|381:209|421:218,1,80,10|0,0:0|3:2,0:0:0:0:
368,40,226439,85,0,3:2:0:0:
368,40,226523,1,10,3:2:0:0:
208,102,226691,1,8,0:2:0:0:
288,71,226860,1,10,3:2:0:0:
208,102,227028,1,2,0:0:0:0:
368,40,227197,1,8,3:2:0:0:
208,102,227365,1,10,3:2:0:0:
368,40,227534,1,2,0:2:0:0:
134,9,227703,6,0,P|130:48|122:87,1,80,10|0,3:2|0:0,0:0:0:0:
108,166,228040,2,0,P|113:126|121:87,1,80,10|0,3:2|0:0,0:0:0:0:
135,10,228377,1,10,3:2:0:0:
121,87,228546,1,10,0:0:0:0:
108,166,228714,85,0,3:2:0:0:
108,166,228798,1,0,3:2:0:0:
108,166,228882,1,14,3:2:0:0:
270,228,229051,1,10,0:2:0:0:
190,197,229219,1,10,3:2:0:0:
270,228,229388,1,2,0:0:0:0:
110,166,229556,1,10,3:2:0:0:
270,228,229725,1,8,3:2:0:0:
110,166,229893,1,0,0:2:0:0:
134,330,230062,6,0,P|126:291|122:252,1,80,10|0,3:2|0:0,0:0:0:0:
43,263,230399,2,0,P|82:254|121:250,1,80,10|0,3:2|0:0,0:0:0:0:
43,263,230736,1,10,3:2:0:0:
42,262,230905,2,0,P|82:254|121:250,1,80,10|0,0:0|3:2,0:0:0:0:
259,311,231158,85,0,3:2:0:0:
259,311,231242,1,10,3:2:0:0:
339,280,231411,1,10,0:2:0:0:
259,311,231580,1,10,3:2:0:0:
339,280,231748,1,2,0:0:0:0:
259,311,231916,1,10,3:2:0:0:
419,249,232085,1,8,3:2:0:0:
259,311,232254,1,0,0:2:0:0:
487,378,232422,6,0,P|491:339|499:299,1,80,10|0,3:2|0:0,0:0:0:0:
487,378,232759,2,0,P|492:339|499:300,1,80,10|0,3:2|0:0,0:0:0:0:
510,220,233096,1,10,3:2:0:0:
498,299,233265,2,0,P|507:259|510:220,1,80,10|0,0:0|3:2,0:0:0:0:
419,249,233517,85,0,3:2:0:0:
419,249,233601,1,10,3:2:0:0:
357,89,233770,1,10,0:2:0:0:
419,249,233938,1,10,3:2:0:0:
357,89,234107,1,2,0:0:0:0:
419,249,234275,1,10,3:2:0:0:
388,169,234445,1,8,3:2:0:0:
419,249,234612,1,0,0:2:0:0:
278,123,234781,6,0,P|239:115|200:111,1,80,10|0,3:2|0:0,0:0:0:0:
211,32,235118,2,0,P|202:71|198:110,1,80,10|0,3:2|0:0,0:0:0:0:
278,123,235456,1,10,3:2:0:0:
198,110,235624,2,0,P|237:114|276:122,1,80,10|0,0:0|3:2,0:0:0:0:
120,57,235877,85,0,3:2:0:0:
120,57,235961,1,10,3:2:0:0:
58,217,236130,1,8,0:2:0:0:
120,57,236298,1,10,3:2:0:0:
58,217,236467,1,2,0:0:0:0:
120,57,236636,1,8,3:2:0:0:
58,217,236804,1,10,3:2:0:0:
89,137,236973,1,2,0:2:0:0:
256,192,237141,53,8,0:0:0:0:
256,192,237309,1,8,0:0:0:0:
256,192,237647,1,8,0:0:0:0:
256,192,237984,1,8,0:0:0:0:
