osu file format v14

[General]
AudioFilename: audio.ogg
AudioLeadIn: 0
PreviewTime: 61491
Countdown: 0
SampleSet: Normal
StackLeniency: 0.7
Mode: 1
LetterboxInBreaks: 0
EpilepsyWarning: 1
WidescreenStoryboard: 1

[Editor]
Bookmarks: 12164,24079,35994,48335,61952,100568,150356,264398
DistanceSpacing: 1.4
BeatDivisor: 4
GridSize: 16
TimelineZoom: 2.799999

[Metadata]
Title:Yamiiro no Asa_
TitleUnicode:闇色の朝_
Artist:Maison book girl
ArtistUnicode:Maison book girl
Creator:_gt
Version:niji_
Source:
Tags:japanese pop jpop j-pop idol a morning the color of darkness 海と宇宙の子供たち umi to uchuu no kodomotachi children of the sea and the universe umbla umbra best album "fiction" 矢川葵 yagawa aoi 古正寺恵巳 コショージメグミ koshouji koshoji coshoji coshouji megumi 井上唯 inoue yui 和田輪 wada rin 虹_
BeatmapID:3904393
BeatmapSetID:1894582

[Difficulty]
HPDrainRate:4.6
CircleSize:4.5
OverallDifficulty:6.4
ApproachRate:7.8
SliderMultiplier:1.4
SliderTickRate:1

[Events]
//Background and Video events
Video,-845,"output.mp4"
0,0,"bg.jpg",0,0
//Break Periods
2,93973,95781
//Storyboard Layer 0 (Background)
//Storyboard Layer 1 (Fail)
//Storyboard Layer 2 (Pass)
//Storyboard Layer 3 (Foreground)
//Storyboard Layer 4 (Overlay)
//Storyboard Sound Samples

[TimingPoints]
257,425.531914893617,7,1,0,70,1,0
257,-133.333333333333,7,1,0,70,0,0
6214,-111.111111111111,7,1,0,70,0,0
12171,-83.3333333333333,7,1,0,75,0,0
12382,-100,7,1,0,75,0,0
36001,-83.3333333333333,7,1,0,80,0,0
36212,-95.2380952380952,7,1,0,80,0,0
46639,425.531914893617,4,1,0,80,1,0
46639,-95.2380952380952,4,1,0,80,0,0
48306,-83.3333333333333,4,1,0,80,0,0
48342,425.531914893617,4,1,0,75,1,8
48342,-83.3333333333333,7,1,0,75,0,0
48553,-111.111111111111,7,1,0,75,0,0
55150,-83.3333333333333,7,1,0,75,0,0
55361,-111.111111111111,7,1,0,75,0,0
61959,-76.9230769230769,4,1,0,90,0,1
62171,-90.9090909090909,4,1,0,90,0,1
75576,-76.9230769230769,4,1,0,90,0,1
75788,-90.9090909090909,4,1,0,90,0,1
89193,425.531914893617,1000,1,0,90,1,0
89193,-76.9230769230769,1,1,0,90,0,0
89246,-100,1,1,0,5,0,0
100549,-100,1,1,0,75,0,0
100576,425.531914893617,7,1,0,75,1,0
100576,-83.3333333333333,7,1,0,75,0,0
100788,-97.5724572166956,4,1,0,75,0,0
100895,-97.8182041634615,4,1,0,75,0,0
101001,-98.062264695965,4,1,0,75,0,0
101214,-98.5545309773758,4,1,0,75,0,0
101427,-99.0492684039571,4,1,0,75,0,0
101533,-99.2964004935051,4,1,0,75,0,0
101639,-99.544149188008,4,1,0,75,0,0
101852,-100.043854434556,4,1,0,75,0,0
102065,-100.546068169403,4,1,0,75,0,0
102278,-101.050802984999,4,1,0,75,0,0
102490,-101.555684054956,4,1,0,75,0,0
102703,-102.065487077564,4,1,0,75,0,0
102916,-102.57784927866,4,1,0,75,0,0
103129,-103.092783505155,4,1,0,75,0,0
103200,-101.575928094146,4,1,0,75,0,0
103271,-100.081390931414,4,1,0,75,0,0
103341,-98.6294325557165,4,1,0,75,0,0
103448,-96.4506148133572,4,1,0,75,0,0
103554,-94.3396226415094,4,1,0,75,0,0
103767,-95.2900186295559,4,1,0,75,0,0
103873,-95.7665476307644,4,1,0,75,0,0
103980,-96.2499890944637,4,1,0,75,0,0
104193,-97.2196304914036,4,1,0,75,0,0
104405,-98.1944191040857,4,1,0,75,0,0
104512,-98.6901167654633,4,1,0,75,0,0
104618,-99.1836490729154,4,1,0,75,0,0
104831,-100.182844739798,4,1,0,75,0,0
105044,-101.192106501143,4,1,0,75,0,0
105256,-102.206725797801,4,1,0,75,0,0
105469,-103.236376536587,4,1,0,75,0,0
105682,-104.276400180244,4,1,0,75,0,0
105895,-105.326901227464,4,1,0,75,0,0
106107,-106.382978723404,4,1,0,75,0,0
106178,-103.790046297525,4,1,0,75,0,0
106249,-101.260312878158,4,1,0,75,0,0
106320,-98.7922380802229,4,1,0,75,0,0
106427,-95.1859163632548,4,1,0,75,0,0
106533,-91.7431192660548,4,1,0,75,0,0
106746,-93.1350752888538,4,1,0,75,0,0
106852,-93.8356360997682,4,1,0,75,0,0
106958,-94.5414665198848,4,1,0,75,0,0
107171,-95.9758799645045,4,1,0,75,0,0
107384,-97.4320567898485,4,1,0,75,0,0
107490,-98.1649394390767,4,1,0,75,0,0
107597,-98.9103271969076,4,1,0,75,0,0
107810,-100.411026396588,4,1,0,75,0,0
108022,-101.927288520014,4,1,0,75,0,0
108235,-103.473762024273,4,1,0,75,0,0
108448,-105.043699120413,4,1,0,75,0,0
108661,-106.637455805573,4,1,0,75,0,0
108873,-108.247740462339,4,1,0,75,0,0
109086,-109.89010989011,4,1,0,75,0,0
109157,-106.152241541595,4,1,0,75,0,0
109228,-102.541515297178,4,1,0,75,0,0
109299,-99.0536064687909,4,1,0,75,0,0
109405,-94.0658482243495,4,1,0,75,0,0
109512,-89.2857142857148,4,1,0,75,0,0
109724,-91.091772931505,4,1,0,75,0,0
109831,-92.0171479098749,4,1,0,75,0,0
109937,-92.9431434743568,4,1,0,75,0,0
110150,-94.8321417060395,4,1,0,75,0,0
110363,-96.7595323805202,4,1,0,75,0,0
110469,-97.7332519517186,4,1,0,75,0,0
110576,-98.7260957948045,4,1,0,75,0,0
110788,-100.723113126209,4,1,0,75,0,0
111001,-102.77023328454,4,1,0,75,0,0
111214,-104.858959592766,4,1,0,75,0,0
111427,-106.990137664029,4,1,0,75,0,0
111639,-109.154318851225,4,1,0,75,0,0
111746,-110.263186010083,4,1,0,75,0,0
111852,-111.372796810789,4,1,0,75,0,0
112065,-113.636363636364,4,1,0,75,0,0
112136,-108.668221315256,4,1,0,75,0,0
112207,-103.917284449626,4,1,0,75,0,0
112278,-99.3740568924599,4,1,0,75,0,0
112384,-92.9581752105467,4,1,0,75,0,0
112490,-86.9565217391304,4,1,0,75,0,0
112703,-89.1765437218825,4,1,0,75,0,0
112916,-91.4532434270797,4,1,0,75,0,0
113129,-93.7880678513041,4,1,0,75,0,0
113235,-94.9721186754443,4,1,0,75,0,0
113341,-96.1711178441476,4,1,0,75,0,0
113554,-98.6263907949259,4,1,0,75,0,0
113767,-101.144347484835,4,1,0,75,0,0
113980,-103.72658824558,4,1,0,75,0,0
114405,-109.07761789434,4,1,0,75,0,0
114618,-76.9230769230769,4,1,0,75,0,0
115044,-117.647058823529,4,1,0,75,0,0
115115,-111.853550255787,4,1,0,75,0,0
115185,-106.421006925993,4,1,0,75,0,0
115256,-101.180323294977,4,1,0,75,0,0
115363,-93.7658436311015,4,1,0,75,0,0
115460,-86.9565217391304,4,1,0,75,0,0
115673,-89.1765437218825,4,1,0,75,0,0
115886,-91.4532434270797,4,1,0,75,0,0
116099,-93.7880678513041,4,1,0,75,0,0
116205,-94.9721186754443,4,1,0,75,0,0
116311,-96.1711178441476,4,1,0,75,0,0
116524,-98.6263907949259,4,1,0,75,0,0
116737,-101.144347484835,4,1,0,75,0,0
116950,-103.72658824558,4,1,0,75,0,0
117171,-76.9230769230769,4,1,0,75,0,0
117588,-111.862397054185,4,1,0,75,0,0
117801,-76.9230769230769,4,1,0,75,0,0
118014,-117.647058823529,4,1,0,75,0,0
118085,-111.853550255787,4,1,0,75,0,0
118155,-106.421006925993,4,1,0,75,0,0
118226,-101.180323294977,4,1,0,75,0,0
118333,-93.7658436311015,4,1,0,75,0,0
118441,-86.9565217391304,4,1,0,75,0,0
118654,-89.1765437218825,4,1,0,75,0,0
118867,-91.4532434270797,4,1,0,75,0,0
119080,-93.7880678513041,4,1,0,75,0,0
119186,-94.9721186754443,4,1,0,75,0,0
119292,-96.1711178441476,4,1,0,75,0,0
119505,-98.6263907949259,4,1,0,75,0,0
119718,-101.144347484835,4,1,0,75,0,0
119931,-103.72658824558,4,1,0,75,0,0
120356,-109.07761789434,4,1,0,75,0,0
120569,-76.9230769230769,4,1,0,75,0,0
120995,-117.647058823529,4,1,0,75,0,0
121066,-111.853550255787,4,1,0,75,0,0
121136,-106.421006925993,4,1,0,75,0,0
121207,-101.180323294977,4,1,0,75,0,0
121314,-93.7658436311015,4,1,0,75,0,0
121415,-86.9565217391304,4,1,0,75,0,0
121628,-89.1765437218825,4,1,0,75,0,0
121841,-91.4532434270797,4,1,0,75,0,0
122054,-93.7880678513041,4,1,0,75,0,0
122160,-94.9721186754443,4,1,0,75,0,0
122266,-96.1711178441476,4,1,0,75,0,0
122479,-98.6263907949259,4,1,0,75,0,0
122692,-101.144347484835,4,1,0,75,0,0
122905,-103.72658824558,4,1,0,75,0,0
123129,-76.9230769230769,4,1,0,75,0,0
123543,-111.862397054185,4,1,0,75,0,0
123661,-114.942528735632,4,1,0,75,0,0
123756,-76.9230769230769,4,1,0,75,0,0
123969,-117.647058823529,4,1,0,75,0,0
124040,-111.853550255787,4,1,0,75,0,0
124110,-106.421006925993,4,1,0,75,0,0
124181,-101.180323294977,4,1,0,75,0,0
124288,-93.7658436311015,4,1,0,75,0,0
124405,-50,4,1,0,80,0,0
124612,-89.177424307002,4,1,0,80,0,0
124754,-90.6894499522417,4,1,0,80,0,0
124825,-91.4550495693572,4,1,0,80,0,0
125038,-83.3333333333333,4,1,0,80,0,0
125463,-98.6312558127763,4,1,0,80,0,0
125605,-100.303573547562,4,1,0,80,0,0
125676,-101.150335519807,4,1,0,80,0,0
125889,-83.3333333333333,4,1,0,80,0,0
126314,-109.087302070032,4,1,0,80,0,0
126456,-110.936904697398,4,1,0,80,0,0
126527,-111.873433166861,4,1,0,80,0,0
126740,-83.3333333333333,4,1,0,80,0,0
127029,-111.866810331389,4,1,0,80,0,0
127100,-106.370557656609,4,1,0,80,0,0
127171,-101.144347484835,4,1,0,80,0,0
127278,-93.7492506568939,4,1,0,80,0,0
127383,-86.9565217391304,4,1,0,80,0,0
127596,-89.177424307002,4,1,0,80,0,0
127738,-90.6894499522417,4,1,0,80,0,0
127809,-83.3333333333333,4,1,0,80,0,0
128234,-96.1749120575128,4,1,0,80,0,0
128447,-98.6312558127763,4,1,0,80,0,0
128589,-100.303573547562,4,1,0,80,0,0
128660,-83.3333333333333,4,1,0,80,0,0
129085,-106.370557656609,4,1,0,80,0,0
129298,-109.087302070032,4,1,0,80,0,0
129440,-110.936904697398,4,1,0,80,0,0
129511,-83.3333333333333,4,1,0,80,0,0
129936,-117.647058823529,4,1,0,80,0,0
130002,-111.866810331389,4,1,0,80,0,0
130073,-106.370557656609,4,1,0,80,0,0
130144,-101.144347484835,4,1,0,80,0,0
130251,-93.7492506568939,4,1,0,80,0,0
130361,-86.9565217391304,4,1,0,80,0,0
130574,-89.177424307002,4,1,0,80,0,0
130716,-90.6894499522417,4,1,0,80,0,0
130787,-91.4550495693572,4,1,0,80,0,0
131000,-83.3333333333333,4,1,0,80,0,0
131425,-98.6312558127763,4,1,0,80,0,0
131567,-100.303573547562,4,1,0,80,0,0
131638,-101.150335519807,4,1,0,80,0,0
131851,-83.3333333333333,4,1,0,80,0,0
132276,-109.087302070032,4,1,0,80,0,0
132418,-110.936904697398,4,1,0,80,0,0
132489,-111.873433166861,4,1,0,80,0,0
132702,-83.3333333333333,4,1,0,80,0,0
132978,-111.866810331389,4,1,0,80,0,0
133049,-106.370557656609,4,1,0,80,0,0
133120,-101.144347484835,4,1,0,80,0,0
133227,-93.7492506568939,4,1,0,80,0,0
133337,-86.9565217391304,4,1,0,80,0,0
133550,-89.177424307002,4,1,0,80,0,0
133692,-90.6894499522417,4,1,0,80,0,0
133763,-83.3333333333333,4,1,0,80,0,0
134188,-96.1749120575128,4,1,0,80,0,0
134401,-98.6312558127763,4,1,0,80,0,0
134543,-100.303573547562,4,1,0,80,0,0
134614,-83.3333333333333,4,1,0,80,0,0
135044,425.531914893617,4,1,0,80,1,0
135044,-106.370557656609,4,1,0,80,0,0
135252,-109.087302070032,4,1,0,80,0,0
135394,-110.936904697398,4,1,0,80,0,0
135465,-83.3333333333333,4,1,0,80,0,0
135890,-117.647058823529,4,1,0,80,0,0
135965,-112.772785898721,4,1,0,80,0,0
136036,-108.035134995811,4,1,0,80,0,0
136107,-103.496515587062,4,1,0,80,0,0
136214,-97.0142500145331,4,1,0,80,0,0
136320,-90.9929736131596,4,1,0,80,0,0
136426,-85.3454131297679,4,1,0,80,0,0
136533,-79.9999999999998,4,1,0,80,0,0
136746,425.531914893617,4,1,0,75,1,0
136746,-50,4,1,0,75,0,0
137171,-117.235487920225,4,1,0,75,0,0
137384,-120.430727889181,4,1,0,75,0,0
137809,-127.068796302083,4,1,0,75,0,0
138022,-130.532041979261,4,1,0,75,0,0
138235,-134.089678025826,4,1,0,75,0,0
138448,-137.744277040624,4,1,0,75,0,0
138873,-145.336657743685,4,1,0,75,0,0
139086,-149.297791919142,4,1,0,75,0,0
139299,-153.366886358716,4,1,0,75,0,0
139511,-157.526995329475,4,1,0,75,0,0
139724,-161.820375777627,4,1,0,75,0,0
139937,-166.230771824497,4,1,0,75,0,0
140150,-170.761372716997,4,1,0,75,0,0
140575,-180.173635635641,4,1,0,75,0,0
140788,-185.084247704974,4,1,0,75,0,0
141214,-195.310634118325,4,1,0,75,0,0
141426,-200.608476047383,4,1,0,75,0,0
141639,-206.076037381833,4,1,0,75,0,0
141852,-211.692616482307,4,1,0,75,0,0
142277,-125,4,1,0,75,0,0
142703,-235.702260395516,4,1,0,75,0,0
142916,-242.126298854771,4,1,0,75,0,0
143128,-248.694025512313,4,1,0,75,0,0
143341,-255.472153061014,4,1,0,75,0,0
143554,-50,4,1,0,75,0,0
143980,-276.935235490415,4,1,0,75,0,0
144192,-284.447161857548,4,1,0,75,0,0
144405,-292.199737095191,4,1,0,75,0,0
144618,-300.163607894452,4,1,0,75,0,0
144831,-308.344533091975,4,1,0,75,0,0
145043,-316.708443246611,4,1,0,75,0,0
145256,-325.340296061144,4,1,0,75,0,0
145682,-343.31619419732,4,1,0,75,0,0
145894,-125,4,1,0,75,0,0
146107,-362.239573838737,4,1,0,75,0,0
146426,-377.125418035927,4,1,0,75,0,0
146746,-392.67254956363,4,1,0,75,0,0
146958,-403.323874858124,4,1,0,75,0,0
147384,-425.608568694436,4,1,0,75,0,0
147597,-437.208482116114,4,1,0,75,0,0
148022,-461.307147513691,4,1,0,75,0,0
148235,-473.880021665107,4,1,0,75,0,0
148448,-486.795568080068,4,1,0,75,0,0
148660,-500,4,1,0,75,0,0
148873,-125,4,1,0,75,0,0
149086,-120.433053027872,4,1,0,75,0,0
149157,-118.948122210076,4,1,0,75,0,0
149228,-117.481500481672,4,1,0,75,0,0
149299,-116.032962092914,4,1,0,75,0,0
149405,-113.903525127295,4,1,0,75,0,0
149511,-111.8131675897,4,1,0,75,0,0
149618,-109.741994253737,4,1,0,75,0,0
149724,-107.728009132358,4,1,0,75,0,0
149831,-105.732507306758,4,1,0,75,0,0
149937,-103.792104291395,4,1,0,75,0,0
150043,-101.887311552927,4,1,0,75,0,0
150150,-100,4,1,0,75,0,0
150363,-50,4,1,0,90,0,1
150575,-84.7939734625508,4,1,0,90,0,1
150788,-86.2872871746895,4,1,0,90,0,1
150894,-87.0402103029348,4,1,0,90,0,1
151001,-87.8068997586913,4,1,0,90,0,1
151214,-89.3532743661736,4,1,0,90,0,1
151426,-90.9194301047685,4,1,0,90,0,1
151533,-91.7202894793275,4,1,0,90,0,1
151639,-92.5206197427943,4,1,0,90,0,1
151746,-93.3355831183419,4,1,0,90,0,1
151852,-94.1500080645774,4,1,0,90,0,1
152065,-95.8080916794807,4,1,0,90,0,1
152277,-97.4873854004104,4,1,0,90,0,1
152490,-99.204243844876,4,1,0,90,0,1
152597,-100.078079598,4,1,0,90,0,1
152703,-100.95133802606,4,1,0,90,0,1
152916,-102.729200428034,4,1,0,90,0,1
153022,-103.625591929969,4,1,0,90,0,1
153128,-104.529805139085,4,1,0,90,0,1
153448,-107.307649252319,4,1,0,90,0,1
153554,-108.243991251299,4,1,0,90,0,1
153767,-110.150285175165,4,1,0,90,0,1
154192,-114.054831471401,4,1,0,90,0,1
154299,-115.059477902779,4,1,0,90,0,1
154405,-116.063460585204,4,1,0,90,0,1
154618,-118.107463833226,4,1,0,90,0,1
154831,-120.187464192284,4,1,0,90,0,1
154937,-121.23619250996,4,1,0,90,0,1
155150,-123.371293169708,4,1,0,90,0,1
155256,-124.447802850688,4,1,0,90,0,1
155469,-126.639463446998,4,1,0,90,0,1
155682,-128.869721560174,4,1,0,90,0,1
155894,-131.128509001197,4,1,0,90,0,1
156107,-133.43782406862,4,1,0,90,0,1
156320,-135.787808675576,4,1,0,90,0,1
156426,-136.972662030377,4,1,0,90,0,1
156533,-138.179179056704,4,1,0,90,0,1
156852,-141.839617999434,4,1,0,90,0,1
156958,-143.077278057944,4,1,0,90,0,1
157065,-144.337567297406,4,1,0,90,0,1
157171,-145.597023890043,4,1,0,90,0,1
157384,-148.161145175356,4,1,0,90,0,1
157490,-149.453965433849,4,1,0,90,0,1
157597,-150.770423413675,4,1,0,90,0,1
157809,-153.413079382521,4,1,0,90,0,1
158022,-156.114849870544,4,1,0,90,0,1
158235,-158.864201463121,4,1,0,90,0,1
158341,-160.25041414228,4,1,0,90,0,1
158448,-161.661972115036,4,1,0,90,0,1
158554,-163.072597500868,4,1,0,90,0,1
158660,-164.495531681112,4,1,0,90,0,1
158873,-167.392476157401,4,1,0,90,0,1
159086,-170.340438963567,4,1,0,90,0,1
159192,-171.826790665777,4,1,0,90,0,1
159299,-173.340318587658,4,1,0,90,0,1
159511,-176.378572491745,4,1,0,90,0,1
159724,-179.484790187105,4,1,0,90,0,1
159937,-182.645711740394,4,1,0,90,0,1
160043,-184.23943643782,4,1,0,90,0,1
160150,-185.862300545796,4,1,0,90,0,1
160363,-189.135536963915,4,1,0,90,0,1
160575,-192.450644425723,4,1,0,90,0,1
160788,-195.839908715334,4,1,0,90,0,1
161001,-199.288861619961,4,1,0,90,0,1
161107,-201.027810635841,4,1,0,90,0,1
161214,-202.798554320764,4,1,0,90,0,1
161426,-206.353142799823,4,1,0,90,0,1
161746,-211.836907571133,4,1,0,90,0,1
161852,-213.68534796541,4,1,0,90,0,1
162065,-217.44857838344,4,1,0,90,0,1
162277,-221.259947818977,4,1,0,90,0,1
162490,-225.156575144398,4,1,0,90,0,1
162703,-229.121826297415,4,1,0,90,0,1
162916,-233.156909817959,4,1,0,90,0,1
163128,-241.421726810705,4,1,0,90,0,1
163235,-239.333358674368,4,1,0,90,0,1
163341,-237.243609884573,4,1,0,90,0,1
163554,-250,4,1,0,90,0,1
163660,-247.817115005018,4,1,0,90,0,1
163767,-245.673424901181,4,1,0,90,0,1
163980,-50,4,1,0,90,0,1
164192,-84.7824141556687,4,1,0,90,0,1
164405,-86.2637075467252,4,1,0,90,0,1
164511,-87.0104935841263,4,1,0,90,0,1
164618,-87.7708816600072,4,1,0,90,0,1
164831,-89.304388675878,4,1,0,90,0,1
165043,-90.8572999996451,4,1,0,90,0,1
165150,-91.6513054658903,4,1,0,90,0,1
165256,-92.4447320085001,4,1,0,90,0,1
165363,-93.2526101045981,4,1,0,90,0,1
165469,-94.0598991622774,4,1,0,90,0,1
165682,-95.7032860412675,4,1,0,90,0,1
165894,-97.3674675985099,4,1,0,90,0,1
166107,-99.0686433398937,4,1,0,90,0,1
166214,-99.9344080538535,4,1,0,90,0,1
166320,-100.799541523223,4,1,0,90,0,1
166533,-102.560681450257,4,1,0,90,0,1
166639,-103.448550602553,4,1,0,90,0,1
166746,-104.352591495842,4,1,0,90,0,1
167065,-107.094974627222,4,1,0,90,0,1
167171,-108.022097214483,4,1,0,90,0,1
167384,-109.90942750916,4,1,0,90,0,1
167809,-113.774336535338,4,1,0,90,0,1
167916,-114.768614872113,4,1,0,90,0,1
168022,-115.762168262708,4,1,0,90,0,1
168235,-117.784730801055,4,1,0,90,0,1
168448,-119.842630956889,4,1,0,90,0,1
168554,-120.880110170678,4,1,0,90,0,1
168767,-122.992091883975,4,1,0,90,0,1
168873,-124.056836021943,4,1,0,90,0,1
169086,-126.224320554493,4,1,0,90,0,1
169299,-128.429674738967,4,1,0,90,0,1
169511,-130.662934483163,4,1,0,90,0,1
169724,-132.945838824039,4,1,0,90,0,1
169937,-135.268629397765,4,1,0,90,0,1
170150,-137.632003084863,4,1,0,90,0,1
170469,-141.248968204631,4,1,0,90,0,1
170575,-142.471762358191,4,1,0,90,0,1
170682,-143.716828611518,4,1,0,90,0,1
170788,-144.960987064695,4,1,0,90,0,1
171001,-147.493702772763,4,1,0,90,0,1
171107,-148.770557674642,4,1,0,90,0,1
171214,-150.070669344375,4,1,0,90,0,1
171426,-152.680243691679,4,1,0,90,0,1
171533,-154.014522259051,4,1,0,90,0,1
171746,-156.705418669835,4,1,0,90,0,1
171852,-158.062019515959,4,1,0,90,0,1
172065,-160.823632607751,4,1,0,90,0,1
172277,-163.620189909233,4,1,0,90,0,1
172384,-165.050073090623,4,1,0,90,0,1
172490,-166.478913718524,4,1,0,90,0,1
172703,-169.387584308969,4,1,0,90,0,1
172809,-170.853974827862,4,1,0,90,0,1
172916,-172.34707433603,4,1,0,90,0,1
173128,-175.344012418502,4,1,0,90,0,1
173235,-176.876350539205,4,1,0,90,0,1
173341,-178.407571404684,4,1,0,90,0,1
173554,-181.524655991955,4,1,0,90,0,1
173660,-183.096117298152,4,1,0,90,0,1
173767,-184.696201363864,4,1,0,90,0,1
173980,-187.923159043215,4,1,0,90,0,1
174192,-191.190949193321,4,1,0,90,0,1
174405,-194.531381195527,4,1,0,90,0,1
174618,-197.930176242681,4,1,0,90,0,1
174724,-199.643660350911,4,1,0,90,0,1
174831,-201.388354036729,4,1,0,90,0,1
175256,-208.470072911289,4,1,0,90,0,1
175469,-212.112400678337,4,1,0,90,0,1
175894,-219.571225189798,4,1,0,90,0,1
176107,-223.4075090227,4,1,0,90,0,1
176320,-227.310819277821,4,1,0,90,0,1
176426,-229.278651994667,4,1,0,90,0,1
176533,-231.282327021085,4,1,0,90,0,1
176746,-235.323223778938,4,1,0,90,0,1
176852,-237.360419985687,4,1,0,90,0,1
176958,-239.415252226476,4,1,0,90,0,1
177065,-241.507511395205,4,1,0,90,0,1
177277,-245.707078233757,4,1,0,90,0,1
177384,-247.85432191383,4,1,0,90,0,1
177490,-250,4,1,0,90,0,1
177597,425.531914893617,7,1,0,80,1,0
177597,-50,4,1,0,80,0,0
177809,-133.333333333333,4,1,0,80,0,0
178873,-161.290322580645,4,1,0,80,0,0
178979,-133.333333333333,4,1,0,80,0,0
179086,-117.647058823529,4,1,0,80,0,0
179192,-133.333333333333,4,1,0,80,0,0
180575,-133.333333333333,4,1,0,80,0,0
180576,-125,4,1,0,80,0,0
180679,-133.333333333333,4,1,0,80,0,0
180786,-142.857142857143,4,1,0,80,0,0
180892,-133.333333333333,4,1,0,80,0,0
181637,-161.290322580645,4,1,0,80,0,0
181743,-133.333333333333,4,1,0,80,0,0
181850,-117.647058823529,4,1,0,80,0,0
181956,-133.333333333333,4,1,0,80,0,0
182703,-125,4,1,0,80,0,0
182807,-133.333333333333,4,1,0,80,0,0
182914,-142.857142857143,4,1,0,80,0,0
183020,-133.333333333333,4,1,0,80,0,0
183554,-133.333333333333,4,1,0,80,0,0
183555,-125,4,1,0,80,0,0
183658,-133.333333333333,4,1,0,80,0,0
183765,-142.857142857143,4,1,0,80,0,0
183871,-133.333333333333,4,1,0,80,0,0
184825,-161.290322580645,4,1,0,80,0,0
184931,-133.333333333333,4,1,0,80,0,0
185038,-117.647058823529,4,1,0,80,0,0
185144,-133.333333333333,4,1,0,80,0,0
186533,-133.333333333333,4,1,0,80,0,0
186534,-125,4,1,0,80,0,0
186637,-133.333333333333,4,1,0,80,0,0
186744,-142.857142857143,4,1,0,80,0,0
186850,-133.333333333333,4,1,0,80,0,0
187591,-161.290322580645,4,1,0,80,0,0
187697,-133.333333333333,4,1,0,80,0,0
187804,-117.647058823529,4,1,0,80,0,0
187910,-133.333333333333,4,1,0,80,0,0
188660,-125,4,1,0,80,0,0
188764,-133.333333333333,4,1,0,80,0,0
188871,-142.857142857143,4,1,0,80,0,0
188977,-133.333333333333,4,1,0,80,0,0
189511,-181.818181818181,4,1,0,70,0,0
191639,425.531914893617,7,1,0,75,1,0
191639,-86.9565217391304,4,1,0,75,0,0
191842,-89.1774243070018,4,1,0,75,0,0
192055,-91.4550495693572,4,1,0,75,0,0
192277,-76.9230769230769,4,1,0,75,0,0
192490,-79.2009229356948,4,1,0,80,0,0
192693,-98.6312558127763,4,1,0,80,0,0
192906,-101.150335519807,4,1,0,80,0,0
193128,-86.4353761788533,4,1,0,80,0,0
193341,-88.9949003795693,4,1,0,80,0,0
193544,-109.087302070032,4,1,0,80,0,0
193651,-110.478124804468,4,1,0,80,0,0
193757,-111.873433166862,4,1,0,80,0,0
193979,-97.1239653173389,4,1,0,80,0,0
194192,-99.9999999999998,4,1,0,80,0,0
194253,-111.866810331386,4,1,0,80,0,0
194324,-106.370557656611,4,1,0,80,0,0
194395,-101.144347484835,4,1,0,80,0,0
194502,-93.7492506568939,4,1,0,80,0,0
194617,-86.9565217391304,4,1,0,80,0,0
194830,-89.1774243070018,4,1,0,80,0,0
195043,-74.0740740740741,4,1,0,80,0,0
195256,-76.1738769826954,4,1,0,80,0,0
195468,-96.1749120575127,4,1,0,80,0,0
195681,-98.6312558127763,4,1,0,80,0,0
195894,-82.8263554569535,4,1,0,80,0,0
196107,-85.1742622552902,4,1,0,80,0,0
196319,-106.370557656609,4,1,0,80,0,0
196532,-109.087302070032,4,1,0,80,0,0
196639,-110.478124804468,4,1,0,80,0,0
196745,-92.6127696368013,4,1,0,80,0,0
196958,-95.2380952380953,4,1,0,80,0,0
197170,-117.647058823529,4,1,0,80,0,0
197241,-111.866810331386,4,1,0,80,0,0
197312,-106.370557656611,4,1,0,80,0,0
197383,-101.144347484835,4,1,0,80,0,0
197490,-93.7492506568939,4,1,0,80,0,0
197590,-86.9565217391304,4,1,0,80,0,0
197793,-89.1774243070018,4,1,0,80,0,0
198006,-91.4550495693572,4,1,0,80,0,0
198228,-76.9230769230769,4,1,0,80,0,0
198441,-79.2009229356948,4,1,0,80,0,0
198644,-98.6312558127763,4,1,0,80,0,0
198857,-101.150335519807,4,1,0,80,0,0
199079,-86.4353761788533,4,1,0,80,0,0
199292,-88.9949003795693,4,1,0,80,0,0
199495,-109.087302070032,4,1,0,80,0,0
199602,-110.478124804468,4,1,0,80,0,0
199708,-111.873433166862,4,1,0,80,0,0
199930,-97.1239653173389,4,1,0,80,0,0
200143,-99.9999999999998,4,1,0,80,0,0
200204,-111.866810331386,4,1,0,80,0,0
200275,-106.370557656611,4,1,0,80,0,0
200346,-101.144347484835,4,1,0,80,0,0
200453,-93.7492506568939,4,1,0,80,0,0
200568,-86.9565217391304,4,1,0,80,0,0
200781,-89.1774243070018,4,1,0,80,0,0
200994,-74.0740740740741,4,1,0,80,0,0
201207,-76.1738769826954,4,1,0,80,0,0
201419,-96.1749120575127,4,1,0,80,0,0
201632,-98.6312558127763,4,1,0,80,0,0
201845,-82.8263554569535,4,1,0,80,0,0
202058,-85.1742622552902,4,1,0,80,0,0
202270,-106.370557656609,4,1,0,80,0,0
202483,-109.087302070032,4,1,0,80,0,0
202590,-110.478124804468,4,1,0,80,0,0
202696,-92.6127696368013,4,1,0,80,0,0
202909,-95.2380952380953,4,1,0,80,0,0
203121,-117.647058823529,4,1,0,80,0,0
203192,-111.866810331386,4,1,0,80,0,0
203263,-106.370557656611,4,1,0,80,0,0
203334,-101.144347484835,4,1,0,80,0,0
203441,-93.7492506568939,4,1,0,80,0,0
203553,-100,4,1,0,30,0,0
203554,425.531914893617,6,1,0,30,1,8
203554,-10000,6,1,0,30,0,0
206106,-115.478198468946,4,1,0,30,0,0
206108,-10000,6,1,0,30,0,0
208659,-133.352143216332,4,1,0,30,0,0
208661,-10000,6,1,0,30,0,0
211212,-153.992652605949,4,1,0,30,0,0
211214,-10000,6,1,0,30,0,0
213765,-177.827941003892,4,1,0,60,0,0
213767,-250,4,1,0,60,0,0
216318,-205.352502645715,4,1,0,60,0,0
216745,-250,4,1,0,60,0,0
218872,-237.137370566166,4,1,0,60,0,0
218874,-166.666666666667,4,1,0,60,0,0
219298,-250,4,1,0,60,0,0
220149,-166.666666666667,4,1,0,60,0,0
220575,-250,4,1,0,60,0,0
221425,-273.841963426436,4,1,0,60,0,0
221427,-166.666666666667,4,1,0,60,0,0
221851,-250,4,1,0,60,0,0
222702,-166.666666666667,4,1,0,60,0,0
223128,-250,4,1,0,60,0,0
223978,-316.227766016838,4,1,0,60,0,0
223980,-166.666666666667,4,1,0,60,0,0
224405,-250,4,1,0,60,0,0
225256,-166.666666666667,4,1,0,60,0,0
225681,-250,4,1,0,60,0,0
226531,-365.174127254838,4,1,0,60,0,0
226533,-166.666666666667,4,1,0,60,0,0
226958,-250,4,1,0,60,0,0
228234,-166.666666666667,4,1,0,60,0,0
229084,-421.696503428582,4,1,0,60,0,0
229086,-166.666666666667,4,1,0,60,0,0
229511,-250,4,1,0,60,0,0
230362,-166.666666666667,4,1,0,60,0,0
230788,-250,4,1,0,60,0,0
231638,-486.967525165863,4,1,0,60,0,0
231640,-166.666666666667,4,1,0,60,0,0
232064,-250,4,1,0,60,0,0
232915,-166.666666666667,4,1,0,60,0,0
233341,-250,4,1,0,60,0,0
234191,-562.341325190349,4,1,0,60,0,0
234193,-166.666666666667,4,1,0,60,0,0
234617,-250,4,1,0,60,0,0
235468,-166.666666666667,4,1,0,60,0,0
235894,-250,4,1,0,60,0,0
236744,-649.381631576211,4,1,0,60,0,0
236746,-166.666666666667,4,1,0,60,0,0
237171,-250,4,1,0,60,0,0
238447,-166.666666666667,4,1,0,60,0,0
238873,-250,4,1,0,60,0,0
239297,-749.894209332455,4,1,0,60,0,0
239299,-166.666666666667,4,1,0,60,0,0
239724,-250,4,1,0,60,0,0
240575,-166.666666666667,4,1,0,60,0,0
241000,-250,4,1,0,60,0,0
241850,-865.964323360065,4,1,0,60,0,0
241852,-166.666666666667,4,1,0,60,0,0
242277,-250,4,1,0,60,0,0
243128,-166.666666666667,4,1,0,60,0,0
243554,-250,4,1,0,60,0,0
244405,425.531914893617,7,1,0,75,1,0
244405,-1000,4,1,0,75,0,0
244406,-86.9565217391304,4,1,0,75,0,0
244617,-89.1571819990825,4,1,0,75,0,0
244830,-91.4351938523249,4,1,0,75,0,0
245043,-93.7714100799896,4,1,0,75,0,0
245256,-96.1673178337774,4,1,0,75,0,0
245468,-98.6127610258686,4,1,0,75,0,0
245681,-101.13236778621,4,1,0,75,0,0
245894,-103.716351795101,4,1,0,75,0,0
246319,-109.071152980644,4,1,0,75,0,0
246532,-111.857977034137,4,1,0,75,0,0
246745,-114.716005875449,4,1,0,75,0,0
246958,-117.64705882353,4,1,0,75,0,0
247029,-111.853550255782,4,1,0,75,0,0
247100,-106.345341990999,4,1,0,75,0,0
247170,-101.180323294975,4,1,0,75,0,0
247277,-93.7658436311028,4,1,0,75,0,0
247383,-1000,4,1,0,75,0,0
247384,-86.9565217391304,4,1,0,75,0,0
247593,-89.1571819990825,4,1,0,75,0,0
247806,-91.4351938523249,4,1,0,75,0,0
248019,-93.7714100799896,4,1,0,75,0,0
248232,-96.1673178337774,4,1,0,75,0,0
248444,-98.6127610258686,4,1,0,75,0,0
248657,-101.13236778621,4,1,0,75,0,0
248870,-103.716351795101,4,1,0,75,0,0
249086,425.531914893617,4,1,0,75,1,8
249295,-109.071152980644,4,1,0,75,0,0
249508,-111.857977034137,4,1,0,75,0,0
249721,-114.716005875449,4,1,0,75,0,0
249937,-117.647058823529,4,1,0,75,0,0
250007,-112.288543222623,4,1,0,75,0,0
250078,-107.102743963239,4,1,0,75,0,0
250149,-102.156439430452,4,1,0,75,0,0
250256,-95.1302988308979,4,1,0,75,0,0
250362,-88.6464192649447,4,1,0,75,0,0
250433,-84.552479472176,4,1,0,75,0,0
250504,-80.6476092793527,4,1,0,75,0,0
250575,-76.9230769230754,4,1,0,75,0,0
250788,425.531914893617,4,1,0,75,1,0
250788,-1000,4,1,0,75,0,0
250789,-33.3333333333333,4,1,0,75,0,0
251212,-117.235487920225,4,1,0,75,0,0
251425,-120.430727889181,4,1,0,75,0,0
251850,-127.068796302083,4,1,0,75,0,0
252063,-130.532041979261,4,1,0,75,0,0
252276,-134.089678025826,4,1,0,75,0,0
252490,-749.894209332455,4,1,0,75,0,0
252491,-137.744277040624,4,1,0,75,0,0
252914,-145.336657743685,4,1,0,75,0,0
253127,-149.297791919142,4,1,0,75,0,0
253340,-153.366886358716,4,1,0,75,0,0
253552,-157.526995329475,4,1,0,75,0,0
253765,-161.820375777627,4,1,0,75,0,0
253978,-166.230771824497,4,1,0,75,0,0
254192,-562.341325190349,4,1,0,75,0,0
254193,-170.761372716997,4,1,0,75,0,0
254616,-180.173635635641,4,1,0,75,0,0
254829,-185.084247704974,4,1,0,75,0,0
255255,-195.310634118325,4,1,0,75,0,0
255467,-200.608476047383,4,1,0,75,0,0
255680,-206.076037381833,4,1,0,75,0,0
255894,-421.696503428582,4,1,0,75,0,0
255895,-211.692616482307,4,1,0,75,0,0
256318,-125,4,1,0,75,0,0
256744,-235.702260395516,4,1,0,75,0,0
256957,-242.126298854771,4,1,0,75,0,0
257169,-248.694025512313,4,1,0,75,0,0
257382,-255.472153061014,4,1,0,75,0,0
257596,-316.227766016838,4,1,0,75,0,0
257597,-33.3333333333333,4,1,0,75,0,0
258021,-276.935235490415,4,1,0,75,0,0
258233,-284.447161857548,4,1,0,75,0,0
258446,-292.199737095191,4,1,0,75,0,0
258659,-300.163607894452,4,1,0,75,0,0
258872,-308.344533091975,4,1,0,75,0,0
259084,-316.708443246611,4,1,0,75,0,0
259298,-237.137370566166,4,1,0,75,0,0
259299,-325.340296061144,4,1,0,75,0,0
259723,-343.31619419732,4,1,0,75,0,0
259935,-125,4,1,0,75,0,0
260148,-362.239573838737,4,1,0,75,0,0
260467,-377.125418035927,4,1,0,75,0,0
260787,-392.67254956363,4,1,0,75,0,0
261000,-177.827941003892,4,1,0,75,0,0
261001,-403.323874858124,4,1,0,75,0,0
261425,-425.608568694436,4,1,0,75,0,0
261638,-437.208482116114,4,1,0,75,0,0
262063,-461.307147513691,4,1,0,75,0,0
262276,-473.880021665107,4,1,0,75,0,0
262489,-486.795568080068,4,1,0,75,0,0
262701,-500,4,1,0,75,0,0
262702,-133.352143216332,4,1,0,75,0,0
262915,-181.818181818182,4,1,0,75,0,0
263128,-161.966932023163,4,1,0,75,0,0
263199,-155.843743212874,4,1,0,75,0,0
263270,-149.952042649829,4,1,0,75,0,0
263341,-144.283078879478,4,1,0,75,0,0
263447,-136.215895546337,4,1,0,75,0,0
263553,-128.599766123577,4,1,0,75,0,0
263660,-121.343588819353,4,1,0,75,0,0
263766,-114.559002678627,4,1,0,75,0,0
263873,-108.09506840963,4,1,0,75,0,0
263979,-102.051236097198,4,1,0,75,0,0
264085,-96.3453277026491,4,1,0,75,0,0
264192,-90.9090909090907,4,1,0,75,0,0
264405,-80,4,1,0,85,0,1
264406,-25,4,1,0,90,0,1
264617,-82.7153670089895,4,1,0,90,0,0
264830,-85.5499618069729,4,1,0,90,0,0
264936,-86.9965996756558,4,1,0,90,0,0
265043,-88.4816960841032,4,1,0,90,0,0
265256,-91.5138987388944,4,1,0,90,0,1
265468,-94.6350409440764,4,1,0,90,0,0
265575,-96.2505312039641,4,1,0,90,0,0
265681,-97.87811420201,4,1,0,90,0,0
265788,-99.5489661250614,4,1,0,90,0,0
265894,-101.232325195515,4,1,0,90,0,1
266106,-126.705568701326,4,1,0,90,0,1
266108,-104.718046906376,4,1,0,90,0,1
266319,-108.272396029069,4,1,0,90,0,0
266532,-111.982811416766,4,1,0,90,0,0
266639,-113.894440970828,4,1,0,90,0,0
266745,-115.820380011136,4,1,0,90,0,0
266958,-119.789459259062,4,1,0,90,0,1
267064,-121.815082232737,4,1,0,90,0,1
267170,-123.874958207109,4,1,0,90,0,1
267490,-130.307166302069,4,1,0,90,0,0
267596,-132.51064222832,4,1,0,90,0,0
267808,-200.678764249082,4,1,0,90,0,0
267810,-137.073366848575,4,1,0,90,0,0
268234,-146.58276623311,4,1,0,90,0,0
268341,-149.085042649483,4,1,0,90,0,0
268447,-151.606049834005,4,1,0,90,0,0
268660,-156.801477669748,4,1,0,90,0,1
268873,-162.174948996671,4,1,0,90,0,0
268979,-164.91730466364,4,1,0,90,0,0
269192,-170.568899413212,4,1,0,90,0,0
269298,-173.453195605739,4,1,0,90,0,1
269510,-317.838961880741,4,1,0,90,0,1
269512,-179.4256907408,4,1,0,90,0,1
269724,-185.545122912113,4,1,0,90,0,0
269936,-191.873262375813,4,1,0,90,0,0
270149,-198.448617972597,4,1,0,90,0,0
270362,-205.249306170122,4,1,0,90,0,1
270468,-208.720043182215,4,1,0,90,0,1
270575,-212.283048950906,4,1,0,90,0,1
270894,-223.270525119021,4,1,0,90,0,0
271000,-227.045998418783,4,1,0,90,0,0
271107,-230.921841820263,4,1,0,90,0,0
271212,-503.399580256731,4,1,0,90,0,0
271214,-234.863848740051,4,1,0,90,0,0
271426,-242.8740360545,4,1,0,90,0,0
271532,-246.981001977747,4,1,0,90,0,0
271639,-251.197150658952,4,1,0,90,0,0
271851,-259.764396066998,4,1,0,90,0,0
272064,-268.6663308878,4,1,0,90,0,0
272277,-277.87332846837,4,1,0,90,0,0
272383,-282.572127522965,4,1,0,90,0,0
272490,-287.395843085139,4,1,0,90,0,0
272596,-292.255666527809,4,1,0,90,0,0
272702,-297.197668904037,4,1,0,90,0,1
272914,-797.294126255475,4,1,0,90,0,1
272916,-307.431044112157,4,1,0,90,0,1
273128,-317.916183748698,4,1,0,90,0,0
273234,-323.292101876116,4,1,0,90,0,0
273341,-328.810937568153,4,1,0,90,0,0
273553,-340.025252649382,4,1,0,90,0,1
273766,-351.677668000909,4,1,0,90,0,1
273979,-363.72940305727,4,1,0,90,0,0
274085,-369.880016304808,4,1,0,90,0,0
274192,-376.194142211092,4,1,0,90,0,0
274405,-389.086038809064,4,1,0,90,0,1
274616,-1262.77007111784,4,1,0,90,0,1
274618,-402.419731222666,4,1,0,90,0,1
274830,-416.144523026157,4,1,0,90,0,1
275043,-430.405489794892,4,1,0,90,0,1
275149,-437.683586327901,4,1,0,90,0,1
275256,-445.155169407188,4,1,0,90,0,1
275468,-460.337481670552,4,1,0,90,0,1
275681,-476.112908632243,4,1,0,90,0,1
275894,-492.428947874561,4,1,0,90,0,1
276107,-509.304125782796,4,1,0,90,0,1
276318,-2000,4,1,0,90,0,1
276320,-526.757603627827,4,1,0,90,0,1
276532,-544.723021026055,4,1,0,90,0,0
276745,-563.390278363792,4,1,0,90,0,0
276958,-582.697248882469,4,1,0,90,0,0
277170,-623.220173736031,4,1,0,90,0,1
277277,-612.856850258849,4,1,0,90,0,1
277383,-602.570524979245,4,1,0,90,0,0
277596,-666.666666666667,4,1,0,90,0,1
277702,-655.477185495814,4,1,0,90,0,1
277809,-644.577470769822,4,1,0,90,0,0
278022,-80,4,1,0,90,0,1
278023,-25,4,1,0,90,0,1
278234,-82.6937058208257,4,1,0,90,0,0
278447,-85.5049483998251,4,1,0,90,0,0
278553,-86.9393852174851,4,1,0,90,0,0
278660,-88.4117615516944,4,1,0,90,0,0
278873,-91.4173942790154,4,1,0,90,0,1
279085,-94.5103712882479,4,1,0,90,0,0
279192,-96.1109673089588,4,1,0,90,0,0
279298,-97.7233314196792,4,1,0,90,0,0
279405,-99.3783410579749,4,1,0,90,0,0
279511,-101.045518852468,4,1,0,90,0,1
279724,-114.760231966807,4,1,0,90,0,1
279725,-104.497046586709,4,1,0,90,0,1
279936,-108.015600369829,4,1,0,90,0,0
280149,-111.687682204132,4,1,0,90,0,0
280256,-113.579187414213,4,1,0,90,0,0
280362,-115.484599571004,4,1,0,90,0,0
280575,-119.410596360121,4,1,0,90,0,1
280681,-121.413836629173,4,1,0,90,0,1
280788,-123.470060735785,4,1,0,90,0,1
281107,-129.809289190563,4,1,0,90,0,0
281213,-131.986978636306,4,1,0,90,0,0
281426,-164.623885513443,4,1,0,90,0,0
281427,-136.495409316808,4,1,0,90,0,0
281851,-145.887911630584,4,1,0,90,0,0
281958,-148.358620481294,4,1,0,90,0,0
282064,-150.847494767733,4,1,0,90,0,0
282277,-155.975683134877,4,1,0,90,0,1
282490,-161.278208609639,4,1,0,90,0,0
282596,-163.983822783384,4,1,0,90,0,0
282809,-169.55859174917,4,1,0,90,0,0
282915,-172.403118192462,4,1,0,90,0,1
283128,-236.153441109999,4,1,0,90,0,1
283129,-178.292089328129,4,1,0,90,0,1
283341,-184.324347604238,4,1,0,90,0,0
283553,-190.560698726235,4,1,0,90,0,0
283766,-197.038971102899,4,1,0,90,0,0
283979,-203.737477836737,4,1,0,90,0,1
284085,-207.155391592788,4,1,0,90,0,1
284192,-210.66370598128,4,1,0,90,0,1
284511,-221.479650764871,4,1,0,90,0,0
284617,-225.195208418143,4,1,0,90,0,0
284724,-229.009039107454,4,1,0,90,0,0
284830,-338.76279601929,4,1,0,90,0,0
284831,-232.887459557039,4,1,0,90,0,0
285043,-240.766874233309,4,1,0,90,0,0
285149,-244.805995656531,4,1,0,90,0,0
285256,-248.951948075858,4,1,0,90,0,1
285468,-257.37488178421,4,1,0,90,0,0
285575,-261.733696652878,4,1,0,90,0,1
285788,-270.63155538452,4,1,0,90,0,0
285894,-275.171688725681,4,1,0,90,0,1
286107,-284.526383381121,4,1,0,90,0,0
286319,-294.152927314678,4,1,0,90,0,1
286426,-299.134602854862,4,1,0,90,0,1
286532,-485.956213161225,4,1,0,90,0,1
286533,-304.200646384899,4,1,0,90,0,1
286745,-314.492840916179,4,1,0,90,0,0
286851,-319.768794160326,4,1,0,90,0,0
286958,-325.184291449184,4,1,0,90,0,0
287170,-336.186437650663,4,1,0,90,0,1
287277,-341.879978655591,4,1,0,90,0,1
287383,-347.615380381245,4,1,0,90,0,1
287596,-359.432859701379,4,1,0,90,0,0
287702,-365.462729750789,4,1,0,90,0,0
287809,-371.652084241559,4,1,0,90,0,0
288022,-384.286711670856,4,1,0,90,0,0
288234,-697.10559685117,4,1,0,90,0,1
288235,-397.350863962371,4,1,0,90,0,1
288447,-410.794663105054,4,1,0,90,0,1
288660,-424.759975660385,4,1,0,90,0,1
288766,-431.885777840942,4,1,0,90,0,1
288873,-439.20005084602,4,1,0,90,0,1
289298,-469.495903562612,4,1,0,90,0,1
289511,-485.45681451297,4,1,0,90,0,1
289936,-1000,4,1,0,90,0,0
289937,-519.024896784306,4,1,0,90,0,0
290149,-536.585363100748,4,1,0,90,0,0
290362,-554.827037059406,4,1,0,90,0,0
290468,-564.134853089768,4,1,0,90,0,0
290575,-573.688852176767,4,1,0,90,0,0
290788,-593.191890676836,4,1,0,90,0,1
290894,-603.14331809534,4,1,0,90,0,0
291000,-613.261691335639,4,1,0,90,0,0
291107,-623.647686115112,4,1,0,90,0,0
291319,-644.747915127637,4,1,0,90,0,0
291426,-655.667150056543,4,1,0,90,0,0
291532,-666.666666666667,4,1,0,90,0,0
291639,425.531914893617,7,1,0,75,1,0
291639,-83.3333333333333,4,1,0,75,0,0
291745,-100,4,1,0,75,0,0
300576,425.531914893617,8,1,0,75,1,8

[HitObjects]
112,248,257,5,0,0:0:0:0:
112,248,682,1,8,0:0:0:0:
112,248,895,1,0,0:0:0:0:
112,248,1320,1,8,0:0:0:0:
112,248,1533,1,0,0:0:0:0:
120,167,2810,1,0,0:0:0:0:
129,165,3235,1,0,0:0:0:0:
129,165,3448,1,8,0:0:0:0:
115,189,3661,1,8,0:0:0:0:
115,189,3874,1,0,0:0:0:0:
115,189,4299,1,8,0:0:0:0:
115,189,4512,1,0,0:0:0:0:
173,108,5788,1,0,0:0:0:0:
173,108,6214,1,0,0:0:0:0:
173,108,6427,1,0,0:0:0:0:
173,108,6639,1,8,0:0:0:0:
173,108,6852,1,0,0:0:0:0:
177,105,7065,1,8,0:0:0:0:
177,105,7278,1,8,0:0:0:0:
177,105,7491,1,0,0:0:0:0:
177,105,7703,1,0,0:0:0:0:
177,105,8129,1,8,0:0:0:0:
177,105,8342,1,0,0:0:0:0:
177,105,8554,1,0,0:0:0:0:
310,219,8767,5,0,0:0:0:0:
310,219,8838,1,8,0:0:0:0:
310,219,8909,1,0,0:0:0:0:
310,219,8980,1,8,0:0:0:0:
310,219,9086,1,8,0:0:0:0:
310,219,9193,1,0,0:0:0:0:
130,209,9405,1,0,0:0:0:0:
130,209,9618,1,8,0:0:0:0:
130,209,9831,1,0,0:0:0:0:
130,209,10044,1,8,0:0:0:0:
130,209,10257,1,8,0:0:0:0:
130,209,10469,1,0,0:0:0:0:
130,209,10682,1,8,0:0:0:0:
130,209,11108,1,8,0:0:0:0:
130,209,11320,1,0,0:0:0:0:
130,209,11533,1,0,0:0:0:0:
177,143,11746,1,0,0:0:0:0:
177,143,11817,1,8,0:0:0:0:
177,143,11888,1,8,0:0:0:0:
177,143,11959,1,0,0:0:0:0:
217,73,12065,1,0,0:0:0:0:
189,108,12171,1,12,0:0:0:0:
61,122,12384,1,0,0:0:0:0:
61,122,12491,1,0,0:0:0:0:
61,122,12597,1,8,0:0:0:0:
61,122,12810,1,0,0:0:0:0:
61,122,13022,1,8,0:0:0:0:
61,122,13129,1,8,0:0:0:0:
61,122,13235,1,0,0:0:0:0:
61,122,13448,1,8,0:0:0:0:
61,122,13661,1,0,0:0:0:0:
61,122,13874,1,0,0:0:0:0:
61,122,14086,1,8,0:0:0:0:
61,122,14299,1,0,0:0:0:0:
61,122,14512,1,0,0:0:0:0:
310,219,14725,5,0,0:0:0:0:
310,219,14796,1,8,0:0:0:0:
310,219,14866,1,0,0:0:0:0:
310,219,14937,1,8,0:0:0:0:
310,219,15044,1,8,0:0:0:0:
310,219,15150,1,0,0:0:0:0:
67,133,15363,1,0,0:0:0:0:
67,133,15469,1,8,0:0:0:0:
67,133,15576,1,8,0:0:0:0:
67,133,15788,1,0,0:0:0:0:
67,133,16001,1,8,0:0:0:0:
66,127,16108,1,0,0:0:0:0:
67,133,16214,1,0,0:0:0:0:
74,115,16427,1,8,0:0:0:0:
74,115,16639,1,0,0:0:0:0:
74,115,16852,1,0,0:0:0:0:
72,115,17065,1,8,0:0:0:0:
72,115,17278,1,0,0:0:0:0:
72,115,17491,1,0,0:0:0:0:
177,143,17703,1,0,0:0:0:0:
177,143,17774,1,8,0:0:0:0:
177,143,17845,1,8,0:0:0:0:
177,143,17916,1,0,0:0:0:0:
217,73,18022,1,0,0:0:0:0:
189,108,18129,1,8,0:0:0:0:
107,127,18342,1,0,0:0:0:0:
107,127,18448,1,0,0:0:0:0:
107,127,18554,1,8,0:0:0:0:
107,127,18767,1,0,0:0:0:0:
107,127,18980,1,8,0:0:0:0:
107,127,19086,1,8,0:0:0:0:
107,127,19193,1,0,0:0:0:0:
107,127,19405,1,8,0:0:0:0:
107,127,19618,1,0,0:0:0:0:
107,127,19831,1,0,0:0:0:0:
107,127,20044,1,8,0:0:0:0:
107,127,20257,1,0,0:0:0:0:
107,127,20469,1,0,0:0:0:0:
310,219,20682,5,0,0:0:0:0:
310,219,20753,1,8,0:0:0:0:
310,219,20824,1,0,0:0:0:0:
310,219,20895,1,8,0:0:0:0:
310,219,21001,1,8,0:0:0:0:
310,219,21108,1,0,0:0:0:0:
107,127,21320,1,0,0:0:0:0:
107,127,21427,1,8,0:0:0:0:
107,127,21533,1,8,0:0:0:0:
107,127,21746,1,0,0:0:0:0:
160,106,21959,1,8,0:0:0:0:
107,127,22065,1,0,0:0:0:0:
160,106,22171,1,0,0:0:0:0:
140,74,22384,1,8,0:0:0:0:
140,74,22597,1,0,0:0:0:0:
140,74,22810,1,0,0:0:0:0:
140,74,23022,1,8,0:0:0:0:
140,74,23235,1,0,0:0:0:0:
118,186,23342,1,0,0:0:0:0:
140,74,23448,1,0,0:0:0:0:
177,143,23661,1,0,0:0:0:0:
177,143,23732,1,8,0:0:0:0:
177,143,23803,1,8,0:0:0:0:
177,143,23874,1,0,0:0:0:0:
217,73,23980,1,0,0:0:0:0:
189,108,24086,1,8,0:0:0:0:
39,206,24299,1,0,0:0:0:0:
30,203,24512,1,8,0:0:0:0:
30,203,24725,1,0,0:0:0:0:
30,203,24831,1,0,0:0:0:0:
30,203,24937,1,8,0:0:0:0:
30,203,25150,1,8,0:0:0:0:
63,187,25363,1,0,0:0:0:0:
22,208,25576,1,0,0:0:0:0:
22,208,26001,1,8,0:0:0:0:
22,208,26214,1,0,0:0:0:0:
22,208,26427,1,0,0:0:0:0:
310,219,26639,5,0,0:0:0:0:
310,219,26710,1,8,0:0:0:0:
310,219,26781,1,0,0:0:0:0:
310,219,26852,1,8,0:0:0:0:
310,219,26959,1,8,0:0:0:0:
310,219,27065,1,0,0:0:0:0:
39,206,27278,1,8,0:0:0:0:
30,203,27491,1,0,0:0:0:0:
30,203,27703,1,8,0:0:0:0:
30,203,27810,1,8,0:0:0:0:
30,203,27916,1,0,0:0:0:0:
30,203,28129,1,8,0:0:0:0:
63,187,28342,1,0,0:0:0:0:
22,208,28554,1,0,0:0:0:0:
22,208,28980,1,8,0:0:0:0:
22,208,29193,1,0,0:0:0:0:
22,208,29405,1,0,0:0:0:0:
177,143,29618,1,0,0:0:0:0:
177,143,29689,1,8,0:0:0:0:
177,143,29760,1,8,0:0:0:0:
177,143,29831,1,0,0:0:0:0:
217,73,29937,1,0,0:0:0:0:
189,108,30044,1,8,0:0:0:0:
39,206,30257,1,0,0:0:0:0:
30,203,30469,1,8,0:0:0:0:
30,203,30682,1,0,0:0:0:0:
30,203,30788,1,0,0:0:0:0:
30,203,30895,1,8,0:0:0:0:
30,203,31108,1,8,0:0:0:0:
63,187,31320,1,0,0:0:0:0:
22,208,31533,1,0,0:0:0:0:
22,208,31959,1,8,0:0:0:0:
22,208,32171,1,0,0:0:0:0:
22,208,32384,1,0,0:0:0:0:
310,219,32597,5,0,0:0:0:0:
310,219,32668,1,8,0:0:0:0:
310,219,32739,1,0,0:0:0:0:
310,219,32810,1,8,0:0:0:0:
310,219,32916,1,8,0:0:0:0:
310,219,33022,1,0,0:0:0:0:
39,206,33235,1,8,0:0:0:0:
30,203,33448,1,0,0:0:0:0:
30,203,33661,1,8,0:0:0:0:
30,203,33767,1,8,0:0:0:0:
30,203,33874,1,0,0:0:0:0:
30,203,34086,1,8,0:0:0:0:
63,187,34299,1,0,0:0:0:0:
22,208,34512,1,0,0:0:0:0:
22,208,34937,1,8,0:0:0:0:
22,208,35150,1,0,0:0:0:0:
352,125,35257,1,0,0:0:0:0:
22,208,35363,1,0,0:0:0:0:
177,143,35576,1,0,0:0:0:0:
177,143,35647,1,8,0:0:0:0:
177,143,35717,1,8,0:0:0:0:
177,143,35788,1,0,0:0:0:0:
217,73,35895,1,0,0:0:0:0:
189,108,36001,1,12,0:0:0:0:
39,206,36214,1,0,0:0:0:0:
49,128,36356,1,8,0:0:0:0:
30,203,36427,1,0,0:0:0:0:
30,203,36639,1,0,0:0:0:0:
30,203,36852,1,8,0:0:0:0:
30,203,37065,1,0,0:0:0:0:
66,134,37207,1,8,0:0:0:0:
63,187,37278,1,0,0:0:0:0:
22,208,37491,1,0,0:0:0:0:
114,155,37703,1,0,0:0:0:0:
22,208,37916,1,8,0:0:0:0:
119,155,38058,1,8,0:0:0:0:
22,208,38129,1,0,0:0:0:0:
22,208,38342,1,0,0:0:0:0:
310,219,38554,5,0,0:0:0:0:
310,219,38625,1,8,0:0:0:0:
310,219,38696,1,0,0:0:0:0:
310,219,38767,1,8,0:0:0:0:
310,219,38874,1,8,0:0:0:0:
310,219,38980,1,0,0:0:0:0:
39,206,39193,1,0,0:0:0:0:
184,34,39335,1,8,0:0:0:0:
30,203,39405,1,0,0:0:0:0:
30,203,39618,1,8,0:0:0:0:
30,203,39831,1,0,0:0:0:0:
30,203,40044,1,0,0:0:0:0:
182,68,40186,1,8,0:0:0:0:
63,187,40257,1,0,0:0:0:0:
22,208,40469,1,0,0:0:0:0:
182,68,40682,1,0,0:0:0:0:
22,208,40895,1,8,0:0:0:0:
186,122,41037,1,8,0:0:0:0:
22,208,41108,1,0,0:0:0:0:
22,208,41320,1,0,0:0:0:0:
177,143,41533,1,0,0:0:0:0:
177,143,41604,1,8,0:0:0:0:
177,143,41675,1,8,0:0:0:0:
177,143,41746,1,0,0:0:0:0:
217,73,41852,1,0,0:0:0:0:
189,108,41959,1,8,0:0:0:0:
39,206,42171,1,0,0:0:0:0:
177,99,42313,1,8,0:0:0:0:
30,203,42384,1,0,0:0:0:0:
30,203,42597,1,0,0:0:0:0:
30,203,42810,1,8,0:0:0:0:
30,203,43022,1,0,0:0:0:0:
207,65,43164,1,8,0:0:0:0:
63,187,43235,1,0,0:0:0:0:
22,208,43448,1,0,0:0:0:0:
127,103,43661,1,0,0:0:0:0:
22,208,43874,1,8,0:0:0:0:
127,103,44015,1,8,0:0:0:0:
22,208,44086,1,0,0:0:0:0:
22,208,44299,1,0,0:0:0:0:
310,219,44512,5,0,0:0:0:0:
310,219,44583,1,8,0:0:0:0:
310,219,44654,1,0,0:0:0:0:
310,219,44725,1,8,0:0:0:0:
310,219,44831,1,8,0:0:0:0:
310,219,44937,1,0,0:0:0:0:
165,102,45150,1,0,0:0:0:0:
165,102,45292,1,8,0:0:0:0:
30,203,45363,1,0,0:0:0:0:
30,203,45576,1,8,0:0:0:0:
30,203,45788,1,0,0:0:0:0:
214,94,46001,1,0,0:0:0:0:
214,94,46143,1,8,0:0:0:0:
63,187,46214,1,0,0:0:0:0:
22,208,46427,5,0,0:0:0:0:
214,94,46639,1,8,0:0:0:0:
22,208,46851,1,8,0:0:0:0:
214,94,46993,1,8,0:0:0:0:
22,208,47064,1,0,0:0:0:0:
22,208,47277,1,0,0:0:0:0:
177,143,47490,5,0,0:0:0:0:
177,143,47560,1,8,0:0:0:0:
177,143,47631,1,8,0:0:0:0:
177,143,47702,1,0,0:0:0:0:
217,73,47809,1,0,0:0:0:0:
189,108,47915,1,8,0:0:0:0:
104,117,48021,1,8,0:0:0:0:
104,117,48128,1,0,0:0:0:0:
129,133,48342,1,12,0:0:0:0:
136,244,48767,1,8,0:0:0:0:
136,244,48980,1,0,0:0:0:0:
136,244,49405,1,0,0:0:0:0:
136,244,49618,1,8,0:0:0:0:
166,244,49831,1,0,0:0:0:0:
166,244,50044,1,0,0:0:0:0:
179,235,50469,1,8,0:0:0:0:
179,235,50682,1,0,0:0:0:0:
166,244,50895,1,0,0:0:0:0:
166,242,51107,1,8,0:0:0:0:
166,242,51320,1,0,0:0:0:0:
166,242,51533,1,8,0:0:0:0:
166,244,51746,1,0,0:0:0:0:
223,302,52171,1,8,0:0:0:0:
223,302,52384,1,0,0:0:0:0:
223,302,52810,1,8,0:0:0:0:
223,302,53022,1,0,0:0:0:0:
223,302,53235,1,0,0:0:0:0:
223,302,53448,1,0,0:0:0:0:
240,268,53873,1,0,0:0:0:0:
240,268,54086,1,8,0:0:0:0:
240,268,54299,1,0,0:0:0:0:
240,268,54512,1,8,0:0:0:0:
240,268,54724,1,8,0:0:0:0:
240,268,54937,1,0,0:0:0:0:
178,183,55150,1,12,0:0:0:0:
173,220,55576,1,8,0:0:0:0:
173,220,55788,1,0,0:0:0:0:
173,220,56001,1,0,0:0:0:0:
173,220,56214,1,8,0:0:0:0:
173,220,56427,1,0,0:0:0:0:
173,220,56639,1,8,0:0:0:0:
169,212,56852,1,0,0:0:0:0:
169,211,57278,1,0,0:0:0:0:
169,211,57490,1,8,0:0:0:0:
172,206,57703,1,0,0:0:0:0:
172,206,58022,1,8,0:0:0:0:
172,206,58342,1,8,0:0:0:0:
172,206,58554,1,0,0:0:0:0:
191,255,58980,1,0,0:0:0:0:
191,255,59193,1,8,0:0:0:0:
191,255,59618,1,8,0:0:0:0:
191,255,59831,1,0,0:0:0:0:
191,255,60044,1,8,0:0:0:0:
191,255,60469,1,0,0:0:0:0:
246,241,60682,1,0,0:0:0:0:
227,222,60753,1,8,0:0:0:0:
246,241,60824,1,8,0:0:0:0:
246,241,60895,1,0,0:0:0:0:
246,241,61001,1,0,0:0:0:0:
246,241,61107,1,8,0:0:0:0:
246,241,61214,1,8,0:0:0:0:
246,241,61320,1,0,0:0:0:0:
246,241,61427,1,8,0:0:0:0:
246,241,61533,1,0,0:0:0:0:
191,129,61639,1,0,0:0:0:0:
246,241,61746,1,8,0:0:0:0:
203,160,61959,1,12,0:0:0:0:
155,272,62171,1,0,0:0:0:0:
155,256,62384,1,8,0:0:0:0:
155,272,62490,1,8,0:0:0:0:
155,272,62597,1,0,0:0:0:0:
171,272,62810,1,8,0:0:0:0:
171,272,63022,1,0,0:0:0:0:
347,256,63129,1,0,0:0:0:0:
347,256,63235,1,8,0:0:0:0:
347,256,63342,1,0,0:0:0:0:
395,192,63448,1,8,0:0:0:0:
395,192,63661,1,0,0:0:0:0:
395,192,63873,1,8,0:0:0:0:
395,192,64086,1,0,0:0:0:0:
395,192,64193,1,8,0:0:0:0:
395,192,64299,1,0,0:0:0:0:
395,192,64512,1,0,0:0:0:0:
395,192,64618,1,8,0:0:0:0:
395,192,64724,1,8,0:0:0:0:
395,192,65044,1,0,0:0:0:0:
395,192,65150,1,0,0:0:0:0:
395,192,65363,1,0,0:0:0:0:
379,192,65788,1,8,0:0:0:0:
379,192,65895,1,0,0:0:0:0:
379,192,66001,1,8,0:0:0:0:
379,192,66214,1,0,0:0:0:0:
379,192,66427,1,0,0:0:0:0:
379,192,66533,1,8,0:0:0:0:
379,192,66746,1,8,0:0:0:0:
379,192,66852,1,0,0:0:0:0:
379,192,67065,1,0,0:0:0:0:
43,288,67278,1,0,0:0:0:0:
43,288,67490,1,8,0:0:0:0:
43,288,67703,1,0,0:0:0:0:
75,256,67916,1,0,0:0:0:0:
75,256,68022,1,0,0:0:0:0:
75,272,68129,1,8,0:0:0:0:
75,272,68448,1,0,0:0:0:0:
75,256,68554,1,0,0:0:0:0:
75,272,68661,1,8,0:0:0:0:
75,272,68767,1,0,0:0:0:0:
161,265,68980,1,0,0:0:0:0:
161,265,69086,1,0,0:0:0:0:
161,265,69193,1,8,0:0:0:0:
161,265,69405,1,0,0:0:0:0:
161,265,69618,1,8,0:0:0:0:
161,265,69831,1,8,0:0:0:0:
160,254,69937,1,0,0:0:0:0:
161,265,70044,1,0,0:0:0:0:
141,177,70150,1,0,0:0:0:0:
165,278,70256,5,8,0:0:0:0:
165,278,70469,1,8,0:0:0:0:
165,278,70682,1,0,0:0:0:0:
165,278,70788,1,0,0:0:0:0:
165,278,70895,1,0,0:0:0:0:
165,278,71107,1,8,0:0:0:0:
165,278,71320,1,8,0:0:0:0:
165,278,71533,1,0,0:0:0:0:
161,269,71639,1,0,0:0:0:0:
165,278,71746,1,0,0:0:0:0:
165,278,71959,1,0,0:0:0:0:
165,278,72171,1,8,0:0:0:0:
216,235,72384,5,0,0:0:0:0:
216,235,72597,1,8,0:0:0:0:
216,235,72703,1,8,0:0:0:0:
216,235,72810,1,0,0:0:0:0:
216,235,73022,1,8,0:0:0:0:
216,235,73342,1,0,0:0:0:0:
216,235,73448,1,8,0:0:0:0:
216,235,73661,1,8,0:0:0:0:
27,240,73873,5,0,0:0:0:0:
27,240,74086,1,0,0:0:0:0:
27,240,74299,1,8,0:0:0:0:
27,240,74512,1,0,0:0:0:0:
304,239,74724,5,0,0:0:0:0:
304,239,74831,1,0,0:0:0:0:
304,239,74937,1,8,0:0:0:0:
304,239,75150,1,0,0:0:0:0:
304,239,75256,1,8,0:0:0:0:
304,239,75363,1,8,0:0:0:0:
304,239,75576,1,12,0:0:0:0:
155,272,75788,1,0,0:0:0:0:
155,256,76001,1,8,0:0:0:0:
155,272,76107,1,0,0:0:0:0:
155,272,76214,1,0,0:0:0:0:
171,272,76427,1,8,0:0:0:0:
171,272,76639,1,0,0:0:0:0:
347,256,76746,1,8,0:0:0:0:
347,256,76852,1,0,0:0:0:0:
347,256,76959,1,0,0:0:0:0:
395,192,77065,1,8,0:0:0:0:
395,192,77278,1,0,0:0:0:0:
395,192,77490,1,8,0:0:0:0:
395,192,77703,1,0,0:0:0:0:
395,192,77810,1,8,0:0:0:0:
395,192,77916,1,0,0:0:0:0:
395,192,78129,1,0,0:0:0:0:
395,192,78235,1,8,0:0:0:0:
395,192,78342,1,8,0:0:0:0:
395,192,78661,1,0,0:0:0:0:
395,192,78767,1,0,0:0:0:0:
395,192,78980,1,0,0:0:0:0:
379,192,79405,1,8,0:0:0:0:
379,192,79512,1,8,0:0:0:0:
379,192,79618,1,0,0:0:0:0:
379,192,79831,1,0,0:0:0:0:
379,192,80044,1,0,0:0:0:0:
379,192,80150,1,8,0:0:0:0:
379,192,80363,1,8,0:0:0:0:
379,192,80469,1,0,0:0:0:0:
379,192,80682,1,0,0:0:0:0:
43,288,80895,1,0,0:0:0:0:
43,288,81107,1,8,0:0:0:0:
43,288,81320,1,0,0:0:0:0:
75,256,81533,1,0,0:0:0:0:
75,272,81746,1,8,0:0:0:0:
75,272,82065,1,0,0:0:0:0:
75,256,82171,1,8,0:0:0:0:
75,272,82278,1,8,0:0:0:0:
75,272,82384,1,0,0:0:0:0:
161,265,82597,1,0,0:0:0:0:
161,265,82703,1,0,0:0:0:0:
161,265,82810,1,8,0:0:0:0:
161,265,83022,1,8,0:0:0:0:
161,265,83129,1,0,0:0:0:0:
83,120,83342,1,0,0:0:0:0:
161,265,83448,1,8,0:0:0:0:
161,265,83661,1,0,0:0:0:0:
165,278,83873,5,8,0:0:0:0:
141,163,83980,1,8,0:0:0:0:
165,278,84086,1,8,0:0:0:0:
165,278,84299,1,0,0:0:0:0:
165,278,84405,1,0,0:0:0:0:
165,278,84512,1,0,0:0:0:0:
165,278,84724,1,8,0:0:0:0:
141,163,84831,1,8,0:0:0:0:
141,163,84937,1,0,0:0:0:0:
165,278,85150,1,0,0:0:0:0:
161,269,85256,1,0,0:0:0:0:
141,163,85363,1,8,0:0:0:0:
165,278,85576,1,0,0:0:0:0:
165,278,85788,1,8,0:0:0:0:
216,235,86001,5,0,0:0:0:0:
216,235,86214,1,8,0:0:0:0:
216,235,86320,1,8,0:0:0:0:
216,235,86427,1,0,0:0:0:0:
216,235,86852,1,0,0:0:0:0:
216,235,87065,1,8,0:0:0:0:
27,240,87490,5,0,0:0:0:0:
90,40,87703,1,8,0:0:0:0:
90,40,87916,1,0,0:0:0:0:
90,40,88022,1,8,0:0:0:0:
27,240,88129,1,0,0:0:0:0:
304,239,88342,5,0,0:0:0:0:
85,36,88448,1,0,0:0:0:0:
304,239,88554,1,8,0:0:0:0:
137,244,88661,1,8,0:0:0:0:
304,239,88873,1,8,0:0:0:0:
85,36,88980,1,0,0:0:0:0:
85,36,89086,1,0,0:0:0:0:
224,201,89193,5,12,0:0:0:0:
17,205,100576,5,12,0:0:0:0:
61,122,100788,1,0,0:0:0:0:
61,122,100895,1,0,0:0:0:0:
61,122,101001,1,8,0:0:0:0:
61,122,101214,1,0,0:0:0:0:
61,122,101427,1,8,0:0:0:0:
61,122,101533,1,8,0:0:0:0:
61,122,101639,1,0,0:0:0:0:
61,122,101852,1,8,0:0:0:0:
61,122,102065,1,0,0:0:0:0:
61,122,102278,1,0,0:0:0:0:
61,122,102490,1,8,0:0:0:0:
61,122,102703,1,0,0:0:0:0:
61,122,102916,1,0,0:0:0:0:
310,219,103129,5,0,0:0:0:0:
310,219,103200,1,8,0:0:0:0:
310,219,103271,1,0,0:0:0:0:
310,219,103341,1,8,0:0:0:0:
310,219,103448,1,8,0:0:0:0:
310,219,103554,1,0,0:0:0:0:
67,133,103767,1,0,0:0:0:0:
67,133,103873,1,8,0:0:0:0:
67,133,103980,1,8,0:0:0:0:
67,133,104193,1,0,0:0:0:0:
67,133,104405,1,8,0:0:0:0:
66,127,104512,1,0,0:0:0:0:
67,133,104618,1,0,0:0:0:0:
74,115,104831,1,8,0:0:0:0:
74,115,105044,1,0,0:0:0:0:
74,115,105256,1,0,0:0:0:0:
72,115,105469,1,8,0:0:0:0:
72,115,105682,1,0,0:0:0:0:
72,115,105895,1,0,0:0:0:0:
177,143,106107,5,0,0:0:0:0:
177,143,106178,1,8,0:0:0:0:
177,143,106249,1,8,0:0:0:0:
177,143,106320,1,0,0:0:0:0:
217,73,106427,1,0,0:0:0:0:
189,108,106533,5,8,0:0:0:0:
107,127,106746,1,0,0:0:0:0:
107,127,106852,1,0,0:0:0:0:
107,127,106958,1,8,0:0:0:0:
107,127,107171,1,0,0:0:0:0:
107,127,107384,1,8,0:0:0:0:
107,127,107490,1,8,0:0:0:0:
107,127,107597,1,0,0:0:0:0:
107,127,107810,1,8,0:0:0:0:
107,127,108022,1,0,0:0:0:0:
107,127,108235,1,0,0:0:0:0:
107,127,108448,1,8,0:0:0:0:
107,127,108661,1,0,0:0:0:0:
107,127,108873,1,0,0:0:0:0:
310,219,109086,5,0,0:0:0:0:
310,219,109157,1,8,0:0:0:0:
310,219,109228,1,0,0:0:0:0:
310,219,109299,1,8,0:0:0:0:
310,219,109405,1,8,0:0:0:0:
310,219,109512,5,0,0:0:0:0:
107,127,109724,1,0,0:0:0:0:
107,127,109831,1,8,0:0:0:0:
107,127,109937,1,8,0:0:0:0:
107,127,110150,1,0,0:0:0:0:
160,106,110363,1,8,0:0:0:0:
107,127,110469,1,0,0:0:0:0:
160,106,110576,1,0,0:0:0:0:
140,74,110788,1,8,0:0:0:0:
140,74,111001,1,0,0:0:0:0:
140,74,111214,1,0,0:0:0:0:
140,74,111427,1,8,0:0:0:0:
140,74,111639,1,0,0:0:0:0:
118,186,111746,1,0,0:0:0:0:
140,74,111852,1,0,0:0:0:0:
177,143,112065,5,0,0:0:0:0:
177,143,112136,1,8,0:0:0:0:
177,143,112207,1,8,0:0:0:0:
177,143,112278,1,0,0:0:0:0:
217,73,112384,1,0,0:0:0:0:
189,108,112490,1,8,0:0:0:0:
39,206,112703,1,0,0:0:0:0:
30,203,112916,1,8,0:0:0:0:
30,203,113129,1,0,0:0:0:0:
30,203,113235,1,0,0:0:0:0:
30,203,113341,1,8,0:0:0:0:
30,203,113554,1,8,0:0:0:0:
63,187,113767,1,0,0:0:0:0:
22,208,113980,1,0,0:0:0:0:
22,208,114405,1,8,0:0:0:0:
22,208,114618,1,8,0:0:0:0:
22,208,114831,1,0,0:0:0:0:
310,219,115044,5,0,0:0:0:0:
310,219,115115,1,8,0:0:0:0:
310,219,115185,1,0,0:0:0:0:
310,219,115256,1,8,0:0:0:0:
310,219,115363,1,8,0:0:0:0:
310,219,115469,5,0,0:0:0:0:
39,206,115682,1,8,0:0:0:0:
30,203,115895,1,0,0:0:0:0:
30,203,116107,1,8,0:0:0:0:
30,203,116214,1,8,0:0:0:0:
30,203,116320,1,0,0:0:0:0:
30,203,116533,1,8,0:0:0:0:
63,187,116746,1,0,0:0:0:0:
22,208,116958,1,0,0:0:0:0:
143,181,117171,1,0,0:0:0:0:
22,208,117384,1,8,0:0:0:0:
22,208,117597,1,0,0:0:0:0:
22,208,117810,1,0,0:0:0:0:
177,143,118022,5,0,0:0:0:0:
177,143,118093,1,8,0:0:0:0:
177,143,118164,1,8,0:0:0:0:
177,143,118235,1,0,0:0:0:0:
217,73,118341,1,0,0:0:0:0:
189,108,118448,5,8,0:0:0:0:
39,206,118661,1,0,0:0:0:0:
30,203,118873,1,8,0:0:0:0:
30,203,119086,1,0,0:0:0:0:
30,203,119193,1,0,0:0:0:0:
30,203,119299,1,8,0:0:0:0:
30,203,119512,1,8,0:0:0:0:
63,187,119724,1,0,0:0:0:0:
22,208,119937,1,0,0:0:0:0:
22,208,120363,1,8,0:0:0:0:
22,208,120576,1,8,0:0:0:0:
22,208,120788,1,0,0:0:0:0:
310,219,121001,5,0,0:0:0:0:
310,219,121072,1,8,0:0:0:0:
310,219,121143,1,0,0:0:0:0:
310,219,121214,1,8,0:0:0:0:
310,219,121320,1,8,0:0:0:0:
310,219,121427,5,0,0:0:0:0:
39,206,121639,1,8,0:0:0:0:
30,203,121852,1,0,0:0:0:0:
30,203,122065,1,8,0:0:0:0:
30,203,122171,1,8,0:0:0:0:
30,203,122278,1,0,0:0:0:0:
30,203,122490,1,8,0:0:0:0:
63,187,122703,1,0,0:0:0:0:
22,208,122916,1,0,0:0:0:0:
215,189,123129,1,0,0:0:0:0:
22,208,123341,1,8,0:0:0:0:
22,208,123554,1,0,0:0:0:0:
129,197,123661,1,0,0:0:0:0:
22,208,123767,1,0,0:0:0:0:
177,143,123980,5,0,0:0:0:0:
177,143,124051,1,8,0:0:0:0:
177,143,124122,1,8,0:0:0:0:
177,143,124193,1,0,0:0:0:0:
217,73,124299,1,0,0:0:0:0:
189,108,124405,5,12,0:0:0:0:
39,206,124618,1,0,0:0:0:0:
49,128,124760,1,8,0:0:0:0:
30,203,124831,1,0,0:0:0:0:
30,203,125044,1,0,0:0:0:0:
30,203,125256,1,8,0:0:0:0:
30,203,125469,1,0,0:0:0:0:
66,134,125611,1,8,0:0:0:0:
63,187,125682,1,0,0:0:0:0:
22,208,125895,1,0,0:0:0:0:
114,155,126107,1,0,0:0:0:0:
22,208,126320,1,8,0:0:0:0:
119,155,126462,1,8,0:0:0:0:
22,208,126533,1,0,0:0:0:0:
22,208,126746,1,0,0:0:0:0:
310,219,126958,5,0,0:0:0:0:
310,219,127029,1,8,0:0:0:0:
310,219,127100,1,0,0:0:0:0:
310,219,127171,1,8,0:0:0:0:
310,219,127278,1,8,0:0:0:0:
310,219,127384,1,0,0:0:0:0:
39,206,127597,1,0,0:0:0:0:
184,34,127739,1,8,0:0:0:0:
30,203,127810,1,0,0:0:0:0:
30,203,128022,1,8,0:0:0:0:
30,203,128235,1,0,0:0:0:0:
30,203,128448,1,0,0:0:0:0:
182,68,128590,1,8,0:0:0:0:
63,187,128661,1,0,0:0:0:0:
22,208,128873,1,0,0:0:0:0:
182,68,129086,1,0,0:0:0:0:
22,208,129299,1,8,0:0:0:0:
186,122,129441,1,8,0:0:0:0:
22,208,129512,1,0,0:0:0:0:
22,208,129724,1,0,0:0:0:0:
177,143,129937,1,0,0:0:0:0:
177,143,130008,1,8,0:0:0:0:
177,143,130079,1,8,0:0:0:0:
177,143,130150,1,0,0:0:0:0:
217,73,130256,1,0,0:0:0:0:
189,108,130363,1,8,0:0:0:0:
39,206,130576,1,0,0:0:0:0:
177,99,130717,1,8,0:0:0:0:
30,203,130788,1,0,0:0:0:0:
30,203,131001,1,0,0:0:0:0:
30,203,131214,1,8,0:0:0:0:
30,203,131427,1,0,0:0:0:0:
207,65,131568,1,8,0:0:0:0:
63,187,131639,1,0,0:0:0:0:
22,208,131852,1,0,0:0:0:0:
127,103,132065,1,0,0:0:0:0:
22,208,132278,1,8,0:0:0:0:
127,103,132419,1,8,0:0:0:0:
22,208,132490,1,0,0:0:0:0:
22,208,132703,1,0,0:0:0:0:
310,219,132916,5,0,0:0:0:0:
310,219,132987,1,8,0:0:0:0:
310,219,133058,1,0,0:0:0:0:
310,219,133129,1,8,0:0:0:0:
310,219,133235,1,8,0:0:0:0:
310,219,133341,1,0,0:0:0:0:
165,102,133554,1,0,0:0:0:0:
165,102,133696,1,8,0:0:0:0:
30,203,133767,1,0,0:0:0:0:
30,203,133980,1,8,0:0:0:0:
30,203,134193,1,0,0:0:0:0:
214,94,134405,1,0,0:0:0:0:
214,94,134547,1,8,0:0:0:0:
63,187,134618,1,0,0:0:0:0:
22,208,134831,5,0,0:0:0:0:
214,94,135044,1,8,0:0:0:0:
22,208,135256,1,8,0:0:0:0:
214,94,135398,1,8,0:0:0:0:
22,208,135469,1,0,0:0:0:0:
22,208,135682,1,0,0:0:0:0:
177,143,135895,5,0,0:0:0:0:
177,143,135965,1,8,0:0:0:0:
177,143,136036,1,8,0:0:0:0:
177,143,136107,1,0,0:0:0:0:
217,73,136214,1,0,0:0:0:0:
189,108,136320,1,8,0:0:0:0:
104,117,136426,1,8,0:0:0:0:
104,117,136533,1,0,0:0:0:0:
129,133,136746,1,12,0:0:0:0:
136,244,137171,1,8,0:0:0:0:
136,244,137384,1,0,0:0:0:0:
136,244,137809,1,0,0:0:0:0:
136,244,138022,1,8,0:0:0:0:
166,244,138235,1,0,0:0:0:0:
166,244,138448,1,0,0:0:0:0:
179,235,138873,1,8,0:0:0:0:
179,235,139086,1,0,0:0:0:0:
166,244,139299,1,0,0:0:0:0:
166,242,139511,1,8,0:0:0:0:
166,242,139724,1,0,0:0:0:0:
166,242,139937,1,8,0:0:0:0:
166,244,140150,1,0,0:0:0:0:
223,302,140575,1,8,0:0:0:0:
223,302,140788,1,0,0:0:0:0:
223,302,141214,1,8,0:0:0:0:
223,302,141426,1,0,0:0:0:0:
223,302,141639,1,0,0:0:0:0:
223,302,141852,1,0,0:0:0:0:
240,268,142277,1,0,0:0:0:0:
240,268,142490,1,8,0:0:0:0:
240,268,142703,1,0,0:0:0:0:
240,268,142916,1,8,0:0:0:0:
240,268,143128,1,8,0:0:0:0:
240,268,143341,1,0,0:0:0:0:
178,183,143554,1,12,0:0:0:0:
173,220,143980,1,8,0:0:0:0:
173,220,144192,1,0,0:0:0:0:
173,220,144405,1,0,0:0:0:0:
173,220,144618,1,8,0:0:0:0:
173,220,144831,1,0,0:0:0:0:
173,220,145043,1,8,0:0:0:0:
169,212,145256,1,0,0:0:0:0:
169,211,145682,1,0,0:0:0:0:
169,211,145894,1,8,0:0:0:0:
172,206,146107,1,0,0:0:0:0:
172,206,146426,1,8,0:0:0:0:
172,206,146746,1,8,0:0:0:0:
172,206,146958,1,0,0:0:0:0:
191,255,147384,1,0,0:0:0:0:
191,255,147597,1,8,0:0:0:0:
191,255,148022,1,8,0:0:0:0:
191,255,148235,1,0,0:0:0:0:
191,255,148448,1,8,0:0:0:0:
191,255,148873,5,0,0:0:0:0:
246,241,149086,1,0,0:0:0:0:
227,222,149157,1,8,0:0:0:0:
246,241,149228,5,8,0:0:0:0:
246,241,149299,1,0,0:0:0:0:
246,241,149405,1,0,0:0:0:0:
246,241,149511,1,8,0:0:0:0:
246,241,149618,1,8,0:0:0:0:
246,241,149724,1,0,0:0:0:0:
246,241,149831,1,8,0:0:0:0:
246,241,149937,1,0,0:0:0:0:
191,129,150043,1,0,0:0:0:0:
246,241,150150,1,8,0:0:0:0:
203,160,150363,5,12,0:0:0:0:
155,272,150575,1,0,0:0:0:0:
155,256,150788,1,8,0:0:0:0:
155,272,150894,1,8,0:0:0:0:
155,272,151001,1,0,0:0:0:0:
171,272,151214,1,8,0:0:0:0:
171,272,151426,1,0,0:0:0:0:
347,256,151533,1,0,0:0:0:0:
347,256,151639,1,8,0:0:0:0:
347,256,151746,1,0,0:0:0:0:
395,192,151852,1,8,0:0:0:0:
395,192,152065,1,0,0:0:0:0:
395,192,152277,1,8,0:0:0:0:
395,192,152490,1,0,0:0:0:0:
395,192,152597,1,8,0:0:0:0:
395,192,152703,1,0,0:0:0:0:
395,192,152916,1,0,0:0:0:0:
395,192,153022,1,8,0:0:0:0:
395,192,153128,1,8,0:0:0:0:
395,192,153448,1,0,0:0:0:0:
395,192,153554,1,0,0:0:0:0:
395,192,153767,1,0,0:0:0:0:
379,192,154192,1,8,0:0:0:0:
379,192,154299,1,0,0:0:0:0:
379,192,154405,1,8,0:0:0:0:
379,192,154618,1,0,0:0:0:0:
379,192,154831,1,0,0:0:0:0:
379,192,154937,1,8,0:0:0:0:
379,192,155150,1,8,0:0:0:0:
379,192,155256,1,0,0:0:0:0:
379,192,155469,1,0,0:0:0:0:
43,288,155682,1,0,0:0:0:0:
43,288,155894,1,8,0:0:0:0:
43,288,156107,1,0,0:0:0:0:
75,256,156320,1,0,0:0:0:0:
75,256,156426,1,0,0:0:0:0:
75,272,156533,1,8,0:0:0:0:
75,272,156852,1,0,0:0:0:0:
75,256,156958,1,0,0:0:0:0:
75,272,157065,1,8,0:0:0:0:
75,272,157171,1,0,0:0:0:0:
161,265,157384,1,0,0:0:0:0:
161,265,157490,1,0,0:0:0:0:
161,265,157597,1,8,0:0:0:0:
161,265,157809,1,0,0:0:0:0:
161,265,158022,1,8,0:0:0:0:
161,265,158235,1,8,0:0:0:0:
160,254,158341,1,0,0:0:0:0:
161,265,158448,1,0,0:0:0:0:
141,177,158554,1,0,0:0:0:0:
165,278,158660,5,8,0:0:0:0:
165,278,158873,1,8,0:0:0:0:
165,278,159086,1,0,0:0:0:0:
165,278,159192,1,0,0:0:0:0:
165,278,159299,1,0,0:0:0:0:
165,278,159511,1,8,0:0:0:0:
165,278,159724,1,8,0:0:0:0:
165,278,159937,1,0,0:0:0:0:
161,269,160043,1,0,0:0:0:0:
165,278,160150,1,0,0:0:0:0:
165,278,160363,1,0,0:0:0:0:
165,278,160575,1,8,0:0:0:0:
216,235,160788,5,0,0:0:0:0:
216,235,161001,1,8,0:0:0:0:
216,235,161107,1,8,0:0:0:0:
216,235,161214,1,0,0:0:0:0:
216,235,161426,1,8,0:0:0:0:
216,235,161746,1,0,0:0:0:0:
216,235,161852,1,8,0:0:0:0:
216,235,162065,1,8,0:0:0:0:
27,240,162277,5,0,0:0:0:0:
27,240,162490,1,0,0:0:0:0:
27,240,162703,1,8,0:0:0:0:
27,240,162916,1,0,0:0:0:0:
304,239,163128,5,0,0:0:0:0:
304,239,163235,1,0,0:0:0:0:
304,239,163341,1,8,0:0:0:0:
304,239,163554,1,0,0:0:0:0:
304,239,163660,1,8,0:0:0:0:
304,239,163767,1,8,0:0:0:0:
304,239,163980,1,12,0:0:0:0:
155,272,164192,1,0,0:0:0:0:
155,256,164405,1,8,0:0:0:0:
155,272,164511,1,0,0:0:0:0:
155,272,164618,1,0,0:0:0:0:
171,272,164831,1,8,0:0:0:0:
171,272,165043,1,0,0:0:0:0:
347,256,165150,1,8,0:0:0:0:
347,256,165256,1,0,0:0:0:0:
347,256,165363,1,0,0:0:0:0:
395,192,165469,1,8,0:0:0:0:
395,192,165682,1,0,0:0:0:0:
395,192,165894,1,8,0:0:0:0:
395,192,166107,1,0,0:0:0:0:
395,192,166214,1,8,0:0:0:0:
395,192,166320,1,0,0:0:0:0:
395,192,166533,1,0,0:0:0:0:
395,192,166639,1,8,0:0:0:0:
395,192,166746,1,8,0:0:0:0:
395,192,167065,1,0,0:0:0:0:
395,192,167171,1,0,0:0:0:0:
395,192,167384,1,0,0:0:0:0:
379,192,167809,1,8,0:0:0:0:
379,192,167916,1,8,0:0:0:0:
379,192,168022,1,0,0:0:0:0:
379,192,168235,1,0,0:0:0:0:
379,192,168448,1,0,0:0:0:0:
379,192,168554,1,8,0:0:0:0:
379,192,168767,1,8,0:0:0:0:
379,192,168873,1,0,0:0:0:0:
379,192,169086,1,0,0:0:0:0:
43,288,169299,1,0,0:0:0:0:
43,288,169511,1,8,0:0:0:0:
43,288,169724,1,0,0:0:0:0:
75,256,169937,1,0,0:0:0:0:
75,272,170150,1,8,0:0:0:0:
75,272,170469,1,0,0:0:0:0:
75,256,170575,1,8,0:0:0:0:
75,272,170682,1,8,0:0:0:0:
75,272,170788,1,0,0:0:0:0:
161,265,171001,1,0,0:0:0:0:
161,265,171107,1,0,0:0:0:0:
161,265,171214,1,8,0:0:0:0:
161,265,171426,1,8,0:0:0:0:
161,265,171533,1,0,0:0:0:0:
83,120,171746,1,0,0:0:0:0:
161,265,171852,1,8,0:0:0:0:
161,265,172065,1,0,0:0:0:0:
165,278,172277,5,8,0:0:0:0:
141,163,172384,1,8,0:0:0:0:
165,278,172490,1,8,0:0:0:0:
165,278,172703,1,0,0:0:0:0:
165,278,172809,1,0,0:0:0:0:
165,278,172916,1,0,0:0:0:0:
165,278,173128,1,8,0:0:0:0:
141,163,173235,1,8,0:0:0:0:
141,163,173341,1,0,0:0:0:0:
165,278,173554,1,0,0:0:0:0:
161,269,173660,1,0,0:0:0:0:
141,163,173767,1,8,0:0:0:0:
165,278,173980,1,0,0:0:0:0:
165,278,174192,1,8,0:0:0:0:
216,235,174405,5,0,0:0:0:0:
216,235,174618,1,8,0:0:0:0:
216,235,174724,1,8,0:0:0:0:
216,235,174831,1,0,0:0:0:0:
216,235,175256,1,0,0:0:0:0:
216,235,175469,1,8,0:0:0:0:
27,240,175894,5,0,0:0:0:0:
90,40,176107,1,8,0:0:0:0:
90,40,176320,1,0,0:0:0:0:
90,40,176426,1,8,0:0:0:0:
27,240,176533,1,0,0:0:0:0:
304,239,176746,5,0,0:0:0:0:
85,36,176852,1,0,0:0:0:0:
304,239,176958,1,8,0:0:0:0:
137,244,177065,1,8,0:0:0:0:
304,239,177277,1,8,0:0:0:0:
85,36,177384,1,0,0:0:0:0:
85,36,177490,1,0,0:0:0:0:
224,201,177597,5,12,0:0:0:0:
67,152,178022,1,0,0:0:0:0:
67,152,178235,1,8,0:0:0:0:
56,147,178873,1,0,0:0:0:0:
56,147,178979,1,8,0:0:0:0:
59,149,179086,1,8,0:0:0:0:
66,152,179511,1,8,0:0:0:0:
140,235,179937,1,0,0:0:0:0:
256,249,180362,1,0,0:0:0:0:
246,259,180576,1,8,0:0:0:0:
246,259,180682,1,8,0:0:0:0:
246,259,180788,1,0,0:0:0:0:
246,259,181001,1,8,0:0:0:0:
246,259,181214,1,0,0:0:0:0:
256,249,181639,1,0,0:0:0:0:
256,249,181745,1,0,0:0:0:0:
256,249,181852,1,8,0:0:0:0:
252,252,182703,1,8,0:0:0:0:
252,252,182809,1,8,0:0:0:0:
252,252,182916,1,0,0:0:0:0:
252,252,183555,1,8,0:0:0:0:
252,252,183660,1,0,0:0:0:0:
252,252,183767,1,0,0:0:0:0:
67,152,183979,1,0,0:0:0:0:
67,152,184192,1,8,0:0:0:0:
56,147,184831,1,0,0:0:0:0:
56,147,184937,1,8,0:0:0:0:
59,149,185043,1,8,0:0:0:0:
66,152,185469,1,8,0:0:0:0:
140,235,185894,1,0,0:0:0:0:
256,249,186320,1,0,0:0:0:0:
246,259,186534,1,8,0:0:0:0:
246,259,186639,1,8,0:0:0:0:
246,259,186745,1,0,0:0:0:0:
246,259,186958,1,8,0:0:0:0:
246,259,187171,1,0,0:0:0:0:
256,249,187597,1,0,0:0:0:0:
256,249,187703,1,0,0:0:0:0:
256,249,187809,1,8,0:0:0:0:
252,252,188660,1,8,0:0:0:0:
252,252,188767,1,8,0:0:0:0:
252,252,188873,1,0,0:0:0:0:
213,342,189511,1,0,0:0:0:0:
347,253,189724,1,8,0:0:0:0:
213,342,189937,1,8,0:0:0:0:
347,253,190043,1,8,0:0:0:0:
169,213,190362,1,8,0:0:0:0:
213,342,190469,1,0,0:0:0:0:
169,213,190682,1,0,0:0:0:0:
213,342,190788,1,8,0:0:0:0:
16,187,191214,1,8,0:0:0:0:
16,187,191426,1,8,0:0:0:0:
189,108,191639,5,8,0:0:0:0:
30,203,192064,1,8,0:0:0:0:
30,203,192277,1,8,0:0:0:0:
30,203,192490,1,0,0:0:0:0:
30,203,192702,1,8,0:0:0:0:
63,187,192915,1,0,0:0:0:0:
22,208,193128,1,8,0:0:0:0:
120,182,193341,1,0,0:0:0:0:
142,131,193553,1,8,0:0:0:0:
137,127,193660,1,8,0:0:0:0:
22,208,193766,1,8,0:0:0:0:
295,194,193979,1,0,0:0:0:0:
310,219,194192,5,0,0:0:0:0:
310,219,194263,1,8,0:0:0:0:
310,219,194334,1,0,0:0:0:0:
310,219,194404,1,8,0:0:0:0:
310,219,194511,1,8,0:0:0:0:
310,219,194617,1,0,0:0:0:0:
39,206,194830,1,8,0:0:0:0:
30,203,195043,1,0,0:0:0:0:
30,203,195256,1,8,0:0:0:0:
30,203,195468,1,0,0:0:0:0:
30,203,195681,1,8,0:0:0:0:
207,140,195894,1,8,0:0:0:0:
22,208,196107,1,0,0:0:0:0:
207,140,196319,1,0,0:0:0:0:
22,208,196532,1,8,0:0:0:0:
137,126,196639,1,8,0:0:0:0:
22,208,196745,1,0,0:0:0:0:
22,208,196958,1,0,0:0:0:0:
177,143,197170,1,0,0:0:0:0:
177,143,197241,1,8,0:0:0:0:
177,143,197312,1,8,0:0:0:0:
177,143,197383,1,0,0:0:0:0:
217,73,197490,1,0,0:0:0:0:
189,108,197596,1,8,0:0:0:0:
39,206,197809,1,0,0:0:0:0:
30,203,198021,1,8,0:0:0:0:
30,203,198234,1,8,0:0:0:0:
30,203,198447,1,0,0:0:0:0:
30,203,198660,1,0,0:0:0:0:
63,187,198873,1,0,0:0:0:0:
121,155,199085,1,8,0:0:0:0:
121,155,199298,1,0,0:0:0:0:
22,208,199511,1,8,0:0:0:0:
15,175,199617,1,8,0:0:0:0:
15,175,199724,1,8,0:0:0:0:
22,208,199936,1,0,0:0:0:0:
310,219,200149,5,0,0:0:0:0:
310,219,200220,1,8,0:0:0:0:
310,219,200291,1,0,0:0:0:0:
310,219,200362,1,8,0:0:0:0:
310,219,200468,1,8,0:0:0:0:
310,219,200575,1,0,0:0:0:0:
39,206,200787,1,8,0:0:0:0:
30,203,201000,1,0,0:0:0:0:
94,153,201213,1,8,0:0:0:0:
30,203,201426,1,0,0:0:0:0:
30,203,201639,1,8,0:0:0:0:
94,153,201851,1,8,0:0:0:0:
22,208,202064,1,0,0:0:0:0:
91,146,202277,1,0,0:0:0:0:
22,208,202490,5,8,0:0:0:0:
88,142,202596,1,8,0:0:0:0:
84,140,202702,1,0,0:0:0:0:
22,208,202915,1,0,0:0:0:0:
177,143,203128,1,0,0:0:0:0:
177,143,203199,1,8,0:0:0:0:
177,143,203270,1,8,0:0:0:0:
177,143,203341,1,0,0:0:0:0:
217,73,203447,1,0,0:0:0:0:
256,192,203554,12,0,205894,0:0:0:0:
256,192,206108,12,0,208447,0:0:0:0:
256,192,208661,12,0,210788,0:0:0:0:
256,192,211214,12,0,213554,0:0:0:0:
89,198,213767,5,0,0:0:0:0:
125,154,215468,1,8,0:0:0:0:
91,170,216745,1,0,0:0:0:0:
91,170,218022,1,8,0:0:0:0:
69,155,218660,1,8,0:0:0:0:
53,146,218874,1,8,0:0:0:0:
79,159,219298,1,0,0:0:0:0:
61,154,220149,1,8,0:0:0:0:
61,154,220575,1,0,0:0:0:0:
72,150,221427,1,8,0:0:0:0:
72,150,221851,1,8,0:0:0:0:
61,143,222702,1,0,0:0:0:0:
61,143,223128,1,8,0:0:0:0:
117,160,223766,1,0,0:0:0:0:
95,152,223980,1,8,0:0:0:0:
96,155,224405,1,0,0:0:0:0:
86,151,225256,1,8,0:0:0:0:
86,151,225681,1,0,0:0:0:0:
78,143,226533,1,8,0:0:0:0:
78,143,226958,1,8,0:0:0:0:
78,143,228234,1,0,0:0:0:0:
93,129,229086,1,8,0:0:0:0:
91,122,229511,1,0,0:0:0:0:
84,157,230362,1,8,0:0:0:0:
84,157,230788,1,0,0:0:0:0:
84,157,231640,1,8,0:0:0:0:
71,148,232064,1,8,0:0:0:0:
61,137,232915,1,0,0:0:0:0:
64,141,233341,1,8,0:0:0:0:
54,135,233766,1,0,0:0:0:0:
53,135,234193,1,8,0:0:0:0:
43,128,234617,1,0,0:0:0:0:
86,128,235468,1,8,0:0:0:0:
86,128,235894,1,0,0:0:0:0:
86,128,236746,1,8,0:0:0:0:
99,143,237171,1,8,0:0:0:0:
88,132,238022,1,8,0:0:0:0:
88,132,238447,1,0,0:0:0:0:
80,128,238873,1,0,0:0:0:0:
77,128,239299,1,8,0:0:0:0:
71,124,239724,1,0,0:0:0:0:
71,124,240575,1,8,0:0:0:0:
71,124,241000,1,0,0:0:0:0:
71,124,241852,1,8,0:0:0:0:
71,124,242277,1,8,0:0:0:0:
81,135,243128,1,0,0:0:0:0:
81,135,243554,1,8,0:0:0:0:
81,135,243979,1,0,0:0:0:0:
79,127,244406,1,8,0:0:0:0:
173,108,244617,1,0,0:0:0:0:
173,108,244830,1,8,0:0:0:0:
173,108,245043,1,0,0:0:0:0:
177,105,245256,1,8,0:0:0:0:
177,105,245468,1,8,0:0:0:0:
177,105,245681,1,0,0:0:0:0:
177,105,245894,1,0,0:0:0:0:
177,105,246319,1,8,0:0:0:0:
177,105,246532,1,0,0:0:0:0:
177,105,246745,1,0,0:0:0:0:
310,219,246958,5,0,0:0:0:0:
310,219,247029,1,8,0:0:0:0:
310,219,247100,1,0,0:0:0:0:
310,219,247170,1,8,0:0:0:0:
310,219,247277,1,8,0:0:0:0:
310,219,247384,1,0,0:0:0:0:
130,209,247596,1,0,0:0:0:0:
130,209,247809,1,8,0:0:0:0:
130,209,248022,1,0,0:0:0:0:
130,209,248234,1,8,0:0:0:0:
130,209,248447,1,8,0:0:0:0:
130,209,248660,1,0,0:0:0:0:
130,209,248873,1,8,0:0:0:0:
130,209,249298,1,8,0:0:0:0:
130,209,249511,1,0,0:0:0:0:
130,209,249724,1,0,0:0:0:0:
177,143,249937,1,0,0:0:0:0:
177,143,250007,1,8,0:0:0:0:
177,143,250078,1,8,0:0:0:0:
177,143,250149,1,0,0:0:0:0:
217,73,250256,1,8,0:0:0:0:
229,154,250362,1,0,0:0:0:0:
229,154,250433,1,8,0:0:0:0:
229,154,250504,1,8,0:0:0:0:
229,154,250575,1,0,0:0:0:0:
172,186,250789,1,12,0:0:0:0:
136,244,251213,1,8,0:0:0:0:
136,244,251426,1,0,0:0:0:0:
136,244,251851,1,0,0:0:0:0:
136,244,252064,1,8,0:0:0:0:
166,244,252277,1,0,0:0:0:0:
166,244,252491,1,0,0:0:0:0:
179,235,252915,1,8,0:0:0:0:
179,235,253128,1,0,0:0:0:0:
166,244,253341,1,0,0:0:0:0:
166,242,253553,1,8,0:0:0:0:
166,242,253766,1,0,0:0:0:0:
166,242,253979,1,8,0:0:0:0:
166,244,254193,1,0,0:0:0:0:
223,302,254617,1,8,0:0:0:0:
223,302,254830,1,0,0:0:0:0:
223,302,255256,1,8,0:0:0:0:
223,302,255468,1,0,0:0:0:0:
223,302,255681,1,0,0:0:0:0:
223,302,255895,1,0,0:0:0:0:
240,268,256319,1,0,0:0:0:0:
240,268,256532,1,8,0:0:0:0:
240,268,256745,1,0,0:0:0:0:
240,268,256958,1,8,0:0:0:0:
240,268,257170,1,8,0:0:0:0:
240,268,257383,1,0,0:0:0:0:
178,183,257597,1,12,0:0:0:0:
173,220,258022,1,8,0:0:0:0:
173,220,258234,1,0,0:0:0:0:
173,220,258447,1,0,0:0:0:0:
173,220,258660,1,8,0:0:0:0:
173,220,258873,1,0,0:0:0:0:
173,220,259085,1,8,0:0:0:0:
169,212,259299,1,0,0:0:0:0:
169,211,259724,1,0,0:0:0:0:
169,211,259936,1,8,0:0:0:0:
172,206,260149,1,0,0:0:0:0:
172,206,260468,1,8,0:0:0:0:
172,206,260788,1,8,0:0:0:0:
172,206,261001,1,0,0:0:0:0:
191,255,261426,1,0,0:0:0:0:
191,255,261639,1,8,0:0:0:0:
191,255,262064,1,8,0:0:0:0:
191,255,262277,1,0,0:0:0:0:
191,255,262490,1,8,0:0:0:0:
191,255,262915,1,0,0:0:0:0:
246,241,263128,5,0,0:0:0:0:
227,222,263199,1,8,0:0:0:0:
246,241,263270,1,8,0:0:0:0:
246,241,263341,1,0,0:0:0:0:
246,241,263447,1,0,0:0:0:0:
246,241,263553,1,8,0:0:0:0:
246,241,263660,1,8,0:0:0:0:
246,241,263766,1,0,0:0:0:0:
246,241,263873,1,8,0:0:0:0:
246,241,263979,1,0,0:0:0:0:
191,129,264085,1,0,0:0:0:0:
246,241,264192,1,8,0:0:0:0:
203,160,264406,5,12,0:0:0:0:
155,272,264617,1,0,0:0:0:0:
155,256,264830,1,8,0:0:0:0:
155,272,264936,1,8,0:0:0:0:
155,272,265043,1,0,0:0:0:0:
171,272,265256,1,8,0:0:0:0:
171,272,265468,1,0,0:0:0:0:
347,256,265575,1,0,0:0:0:0:
347,256,265681,1,8,0:0:0:0:
347,256,265788,1,0,0:0:0:0:
395,192,265894,1,8,0:0:0:0:
395,192,266108,1,0,0:0:0:0:
395,192,266319,1,8,0:0:0:0:
395,192,266532,1,0,0:0:0:0:
395,192,266639,1,8,0:0:0:0:
395,192,266745,1,0,0:0:0:0:
395,192,266958,1,0,0:0:0:0:
395,192,267064,1,8,0:0:0:0:
395,192,267170,1,8,0:0:0:0:
395,192,267490,1,0,0:0:0:0:
395,192,267596,1,0,0:0:0:0:
395,192,267810,1,0,0:0:0:0:
379,192,268234,1,8,0:0:0:0:
379,192,268341,1,0,0:0:0:0:
379,192,268447,1,8,0:0:0:0:
379,192,268660,1,0,0:0:0:0:
379,192,268873,1,0,0:0:0:0:
379,192,268979,1,8,0:0:0:0:
379,192,269192,1,8,0:0:0:0:
379,192,269298,1,0,0:0:0:0:
379,192,269512,1,0,0:0:0:0:
43,288,269724,1,0,0:0:0:0:
43,288,269936,1,8,0:0:0:0:
43,288,270149,1,0,0:0:0:0:
75,256,270362,1,0,0:0:0:0:
75,256,270468,1,0,0:0:0:0:
75,272,270575,1,8,0:0:0:0:
75,272,270894,1,0,0:0:0:0:
75,256,271000,1,0,0:0:0:0:
75,272,271107,1,8,0:0:0:0:
75,272,271214,1,0,0:0:0:0:
161,265,271426,1,0,0:0:0:0:
161,265,271532,1,0,0:0:0:0:
161,265,271639,1,8,0:0:0:0:
161,265,271851,1,0,0:0:0:0:
161,265,272064,1,8,0:0:0:0:
161,265,272277,1,8,0:0:0:0:
160,254,272383,1,0,0:0:0:0:
161,265,272490,1,0,0:0:0:0:
141,177,272596,1,0,0:0:0:0:
165,278,272702,5,8,0:0:0:0:
165,278,272916,1,8,0:0:0:0:
165,278,273128,1,0,0:0:0:0:
165,278,273234,1,0,0:0:0:0:
165,278,273341,1,0,0:0:0:0:
165,278,273553,1,8,0:0:0:0:
165,278,273766,1,8,0:0:0:0:
165,278,273979,1,0,0:0:0:0:
161,269,274085,1,0,0:0:0:0:
165,278,274192,1,0,0:0:0:0:
165,278,274405,1,0,0:0:0:0:
165,278,274618,1,8,0:0:0:0:
216,235,274830,5,0,0:0:0:0:
216,235,275043,1,8,0:0:0:0:
216,235,275149,1,8,0:0:0:0:
216,235,275256,1,0,0:0:0:0:
216,235,275468,1,8,0:0:0:0:
78,158,275681,1,0,0:0:0:0:
216,235,275894,1,8,0:0:0:0:
216,235,276107,1,8,0:0:0:0:
27,240,276320,5,0,0:0:0:0:
27,240,276532,1,0,0:0:0:0:
27,240,276745,1,8,0:0:0:0:
27,240,276958,1,0,0:0:0:0:
304,239,277170,5,0,0:0:0:0:
304,239,277277,1,0,0:0:0:0:
304,239,277383,1,8,0:0:0:0:
304,239,277596,1,0,0:0:0:0:
304,239,277702,1,8,0:0:0:0:
304,239,277809,1,8,0:0:0:0:
304,239,278023,1,12,0:0:0:0:
155,272,278234,1,0,0:0:0:0:
155,256,278447,1,8,0:0:0:0:
155,272,278553,1,0,0:0:0:0:
155,272,278660,1,0,0:0:0:0:
171,272,278873,1,8,0:0:0:0:
171,272,279085,1,0,0:0:0:0:
347,256,279192,1,8,0:0:0:0:
347,256,279298,1,0,0:0:0:0:
347,256,279405,1,0,0:0:0:0:
395,192,279511,1,8,0:0:0:0:
395,192,279725,5,0,0:0:0:0:
395,192,279936,1,8,0:0:0:0:
395,192,280149,1,0,0:0:0:0:
395,192,280256,1,8,0:0:0:0:
395,192,280362,1,0,0:0:0:0:
395,192,280575,1,0,0:0:0:0:
395,192,280681,1,8,0:0:0:0:
395,192,280788,1,8,0:0:0:0:
395,192,281107,1,0,0:0:0:0:
395,192,281213,1,0,0:0:0:0:
395,192,281427,5,0,0:0:0:0:
379,192,281851,1,8,0:0:0:0:
379,192,281958,1,8,0:0:0:0:
379,192,282064,1,0,0:0:0:0:
379,192,282277,1,0,0:0:0:0:
379,192,282490,1,0,0:0:0:0:
379,192,282596,1,8,0:0:0:0:
379,192,282809,1,8,0:0:0:0:
379,192,282915,1,0,0:0:0:0:
379,192,283129,5,0,0:0:0:0:
43,288,283341,1,0,0:0:0:0:
43,288,283553,1,8,0:0:0:0:
43,288,283766,1,0,0:0:0:0:
75,256,283979,1,0,0:0:0:0:
114,143,284085,1,0,0:0:0:0:
75,272,284192,1,8,0:0:0:0:
75,272,284511,1,0,0:0:0:0:
75,256,284617,1,8,0:0:0:0:
75,272,284724,1,8,0:0:0:0:
75,272,284831,5,0,0:0:0:0:
161,265,285043,1,0,0:0:0:0:
161,265,285149,1,0,0:0:0:0:
161,265,285256,1,8,0:0:0:0:
161,265,285468,1,8,0:0:0:0:
161,265,285575,1,0,0:0:0:0:
83,120,285788,1,0,0:0:0:0:
161,265,285894,1,8,0:0:0:0:
161,265,286107,1,0,0:0:0:0:
165,278,286319,5,8,0:0:0:0:
141,163,286426,1,8,0:0:0:0:
165,278,286533,5,8,0:0:0:0:
165,278,286745,1,0,0:0:0:0:
165,278,286851,1,0,0:0:0:0:
165,278,286958,1,0,0:0:0:0:
165,278,287170,1,8,0:0:0:0:
141,163,287277,1,8,0:0:0:0:
141,163,287383,1,0,0:0:0:0:
165,278,287596,1,0,0:0:0:0:
161,269,287702,1,0,0:0:0:0:
141,163,287809,1,8,0:0:0:0:
165,278,288022,1,0,0:0:0:0:
165,278,288235,5,8,0:0:0:0:
216,235,288447,1,0,0:0:0:0:
216,235,288660,1,8,0:0:0:0:
216,235,288766,1,8,0:0:0:0:
216,235,288873,1,0,0:0:0:0:
216,235,289298,1,0,0:0:0:0:
216,235,289511,1,8,0:0:0:0:
27,240,289937,5,0,0:0:0:0:
90,40,290149,1,8,0:0:0:0:
90,40,290362,1,0,0:0:0:0:
90,40,290468,1,8,0:0:0:0:
27,240,290575,1,0,0:0:0:0:
304,239,290788,5,0,0:0:0:0:
85,36,290894,1,0,0:0:0:0:
304,239,291000,1,8,0:0:0:0:
137,244,291107,1,8,0:0:0:0:
304,239,291319,1,8,0:0:0:0:
85,36,291426,1,0,0:0:0:0:
85,36,291532,1,0,0:0:0:0:
224,201,291639,5,12,0:0:0:0:
30,203,292064,1,8,0:0:0:0:
30,203,292277,1,0,0:0:0:0:
30,203,292702,1,8,0:0:0:0:
63,187,292915,1,0,0:0:0:0:
22,208,293128,1,0,0:0:0:0:
22,208,293553,1,8,0:0:0:0:
22,208,293766,1,0,0:0:0:0:
22,208,293979,1,0,0:0:0:0:
310,219,294192,5,0,0:0:0:0:
310,219,294263,1,8,0:0:0:0:
310,219,294334,1,0,0:0:0:0:
310,219,294404,1,8,0:0:0:0:
310,219,294511,1,8,0:0:0:0:
310,219,294617,1,0,0:0:0:0:
30,203,295043,1,0,0:0:0:0:
30,203,295256,1,8,0:0:0:0:
30,203,295681,1,8,0:0:0:0:
63,187,295894,1,0,0:0:0:0:
22,208,296107,1,0,0:0:0:0:
22,208,296532,1,8,0:0:0:0:
22,208,296745,1,0,0:0:0:0:
22,208,296958,1,0,0:0:0:0:
177,143,297170,1,0,0:0:0:0:
177,143,297241,1,8,0:0:0:0:
177,143,297312,1,8,0:0:0:0:
177,143,297383,1,0,0:0:0:0:
217,73,297490,1,0,0:0:0:0:
189,108,297596,1,8,0:0:0:0:
30,203,298021,1,8,0:0:0:0:
30,203,298234,1,0,0:0:0:0:
30,203,298660,1,8,0:0:0:0:
63,187,298873,1,0,0:0:0:0:
22,208,299085,1,0,0:0:0:0:
22,208,299511,1,8,0:0:0:0:
22,208,299724,1,0,0:0:0:0:
22,208,299936,1,0,0:0:0:0:
310,219,300149,5,0,0:0:0:0:
310,219,300220,1,8,0:0:0:0:
310,219,300291,1,0,0:0:0:0:
310,219,300362,1,8,0:0:0:0:
310,219,300468,1,8,0:0:0:0:
310,219,300576,1,0,0:0:0:0:
30,203,301001,1,0,0:0:0:0:
30,203,301214,1,8,0:0:0:0:
30,203,301639,1,8,0:0:0:0:
63,187,301852,1,0,0:0:0:0:
22,208,302065,1,0,0:0:0:0:
22,208,302490,1,8,0:0:0:0:
22,208,302703,1,0,0:0:0:0:
22,208,302916,1,0,0:0:0:0:
177,143,303129,1,0,0:0:0:0:
177,143,303200,1,8,0:0:0:0:
177,143,303271,1,8,0:0:0:0:
177,143,303341,1,0,0:0:0:0:
217,73,303448,1,0,0:0:0:0:
233,119,303554,1,8,0:0:0:0:
234,110,303625,1,0,0:0:0:0:
227,106,303696,1,0,0:0:0:0:
227,106,303767,1,8,0:0:0:0:
249,94,303873,1,0,0:0:0:0:
